osu file format v14

[General]
AudioFilename: audio.mp3
AudioLeadIn: 0
PreviewTime: 83396
Countdown: 0
SampleSet: Soft
StackLeniency: 0.7
Mode: 0
LetterboxInBreaks: 0
WidescreenStoryboard: 1

[Editor]
Bookmarks: 60659,80870
DistanceSpacing: 2.1
BeatDivisor: 4
GridSize: 4
TimelineZoom: 2.2

[Metadata]
Title:Baiana (CloZee Remix 2.0)
TitleUnicode:Baiana (CloZee Remix 2.0)
Artist:Barbatuques
ArtistUnicode:Barbatuques
Creator:Pogge
Version:isgo
Source:
Tags:
BeatmapID:1465980
BeatmapSetID:692786

[Difficulty]
HPDrainRate:6
CircleSize:4
OverallDifficulty:8
ApproachRate:9.2
SliderMultiplier:3.2
SliderTickRate:2

[Events]
//Background and Video events
0,0,"410977.jpg",0,0
//Break Periods
//Storyboard Layer 0 (Background)
//Storyboard Layer 1 (Fail)
//Storyboard Layer 2 (Pass)
//Storyboard Layer 3 (Foreground)
//Storyboard Sound Samples

[TimingPoints]
28,631.578947368421,4,2,1,40,1,0
61291,-100,4,2,1,70,0,0
61449,-100,4,2,1,40,0,0
62554,-100,4,2,1,70,0,0
62712,-100,4,2,1,40,0,0
63817,-100,4,2,1,70,0,0
63975,-100,4,2,1,40,0,0
65080,-100,4,2,1,70,0,0
65238,-100,4,2,1,40,0,0
66343,-100,4,2,1,70,0,0
66501,-100,4,2,1,40,0,0
67606,-100,4,2,1,70,0,0
67764,-100,4,2,1,40,0,0
68870,-100,4,2,1,70,0,0
69027,-100,4,2,1,40,0,0
70133,-100,4,2,1,70,0,0
70291,-100,4,2,1,40,0,0
71396,-100,4,2,1,70,0,0
71554,-100,4,2,1,40,0,0
72659,-100,4,2,1,70,0,0
72817,-100,4,2,1,40,0,0
73922,-100,4,2,1,70,0,0
74080,-100,4,2,1,40,0,0
75185,-100,4,2,1,70,0,0
75343,-100,4,2,1,40,0,0
76449,-100,4,2,1,70,0,0
76606,-100,4,2,1,40,0,0
77712,-100,4,2,1,70,0,0
77870,-100,4,2,1,40,0,0
78975,-100,4,2,1,70,0,0
79133,-100,4,2,1,40,0,0
80238,-100,4,2,1,70,0,0
80396,-100,4,2,1,40,0,0
81501,-100,4,2,1,70,0,0
81659,-100,4,2,1,40,0,0
82764,-100,4,2,1,70,0,0
82922,-100,4,2,1,40,0,0
84027,-100,4,2,1,70,0,0
84185,-100,4,2,1,40,0,0
85291,-100,4,2,1,70,0,0
85449,-100,4,2,1,40,0,0
86554,-100,4,2,1,70,0,0
86712,-100,4,2,1,40,0,0
87817,-100,4,2,1,70,0,0
87975,-100,4,2,1,40,0,0
89080,-100,4,2,1,70,0,0
89238,-100,4,2,1,40,0,0
90343,-100,4,2,1,70,0,0
90501,-100,4,2,1,40,0,0
91606,-100,4,2,1,70,0,0
91764,-100,4,2,1,40,0,0
92870,-100,4,2,1,70,0,0
93027,-100,4,2,1,40,0,0
94133,-100,4,2,1,70,0,0
94291,-100,4,2,1,40,0,0
95396,-100,4,2,1,70,0,0
95554,-100,4,2,1,40,0,0
96659,-100,4,2,1,70,0,0
96817,-100,4,2,1,40,0,0
97922,-100,4,2,1,70,0,0
98080,-100,4,2,1,40,0,0
98712,-100,4,2,1,50,0,0

[HitObjects]
256,192,58133,12,4,60343,0:0:0:0:
144,112,60659,6,2,P|120:152|80:168,1,80,2|2,3:0|3:0,3:0:0:0:
248,136,60975,2,0,P|272:96|312:80,1,80
440,168,61291,1,4,3:0:0:0:
428,171,61369,1,8,2:0:0:0:
417,174,61448,1,8,2:0:0:0:
405,178,61527,1,8,2:0:0:0:
394,181,61606,2,8,B|344:192|344:192|304:192,1,80,8|8,2:0|2:0,2:0:0:0:
160,240,61922,6,2,P|205:251|244:234,1,80,2|2,3:0|3:0,3:0:0:0:
368,144,62238,2,0,P|322:132|283:149,1,80
136,176,62554,1,4,3:0:0:0:
416,328,62870,1,0,0:0:0:0:
480,18,63185,6,2,P|448:50|400:66,1,80,2|2,3:0|3:0,3:0:0:0:
304,98,63501,2,0,P|336:130|384:146,1,80
472,210,63817,1,4,3:0:0:0:
460,213,63895,1,8,2:0:0:0:
449,216,63974,1,8,2:0:0:0:
437,220,64053,1,8,2:0:0:0:
426,223,64132,2,8,B|344:248,1,80,8|8,2:0|2:0,2:0:0:0:
200,304,64449,5,8,2:0:0:0:
212,307,64527,1,8,2:0:0:0:
223,310,64606,1,8,2:0:0:0:
235,314,64685,1,8,2:0:0:0:
246,317,64764,2,8,B|328:342,1,80,8|8,2:0|2:0,2:0:0:0:
480,296,65080,1,4,3:0:0:0:
473,285,65158,1,8,2:0:0:0:
467,275,65237,1,8,2:0:0:0:
462,264,65316,1,8,2:0:0:0:
456,254,65395,2,8,B|415:178,1,80,8|8,2:0|2:0,2:0:0:0:
272,248,65712,6,2,P|224:256|184:248,1,80,2|2,3:0|3:0,3:0:0:0:
80,136,66027,1,0,0:0:0:0:
240,112,66185,2,0,P|288:112|326:127,1,80,2|4,3:0|3:0,3:0:0:0:
456,208,66659,1,2,3:0:0:0:
152,304,66975,1,0,0:0:0:0:
472,320,67291,1,2,3:0:0:0:
472,320,67449,1,0,0:0:0:0:
376,192,67606,2,2,P|296:224|216:192,1,160,4|2,3:0|3:0,3:0:0:0:
120,80,68238,5,0,0:0:0:0:
120,80,68397,1,0,0:0:0:0:
272,32,68555,1,0,0:0:0:0:
272,32,68713,1,0,0:0:0:0:
216,184,68870,5,4,3:0:0:0:
216,184,69029,1,0,0:0:0:0:
368,136,69187,1,0,0:0:0:0:
368,136,69345,1,0,0:0:0:0:
304,280,69501,6,2,P|344:285|384:268,1,80,2|2,3:0|3:0,3:0:0:0:
384,296,69817,2,2,P|344:301|304:284,1,80,2|2,3:0|3:0,3:0:0:0:
304,312,70133,2,2,P|344:317|384:300,1,80,6|2,3:0|3:0,3:0:0:0:
384,328,70449,2,2,P|344:333|304:316,1,80,2|2,3:0|3:0,3:0:0:0:
152,296,70764,5,10,2:0:0:0:
144,286,70842,1,8,2:0:0:0:
136,277,70921,1,10,2:0:0:0:
128,268,71000,1,8,2:0:0:0:
120,259,71080,2,8,L|64:192,1,80,8|8,2:0|2:0,2:0:0:0:
224,168,71396,2,0,P|296:200|368:168,1,160,4|0,3:0|0:0,0:0:0:0:
416,16,71870,1,0,0:0:0:0:
272,88,72027,2,0,P|200:56|128:88,1,160
24,208,72501,1,0,0:0:0:0:
160,296,72659,2,0,P|232:328|304:296,1,160,4|0,3:0|3:0,3:0:0:0:
440,208,73133,1,0,0:0:0:0:
328,96,73291,6,2,P|272:96|232:80,1,80,2|2,3:0|3:0,3:0:0:0:
104,160,73606,2,0,P|160:160|200:176,1,80
344,200,73922,1,4,3:0:0:0:
332,203,74000,1,8,2:0:0:0:
321,206,74079,1,8,2:0:0:0:
309,210,74158,1,8,2:0:0:0:
298,213,74237,2,8,B|216:238,1,80,8|8,2:0|2:0,2:0:0:0:
96,336,74554,5,8,2:0:0:0:
108,335,74632,1,8,2:0:0:0:
119,334,74711,1,8,2:0:0:0:
132,332,74790,1,8,2:0:0:0:
143,332,74869,2,8,B|228:323,1,80,8|8,2:0|2:0,2:0:0:0:
376,280,75185,1,4,3:0:0:0:
363,276,75263,1,8,2:0:0:0:
352,272,75342,1,8,2:0:0:0:
340,268,75421,1,8,2:0:0:0:
329,263,75500,2,8,B|248:233,1,80,8|8,2:0|2:0,2:0:0:0:
144,112,75817,6,2,P|192:120|240:104,1,80
376,56,76133,1,0,0:0:0:0:
376,56,76291,1,2,0:0:0:0:
456,192,76449,2,2,P|440:256|408:280,1,80,6|0,3:0|0:0,0:0:0:0:
296,352,76764,1,2,3:0:0:0:
48,152,77080,1,0,0:0:0:0:
360,80,77396,6,2,P|400:85|440:68,1,80,2|2,3:0|3:0,3:0:0:0:
360,80,77712,2,2,P|400:96|440:68,1,80,6|2,3:0|3:0,3:0:0:0:
360,80,78028,2,2,P|400:108|440:68,1,80,2|2,3:0|3:0,3:0:0:0:
360,80,78344,6,8,P|400:119|440:68,1,80,8|8,2:0|2:0,2:0:0:0:
496,256,78659,1,8,2:0:0:0:
360,344,78817,1,8,2:0:0:0:
200,312,78975,2,8,P|168:288|120:280,1,80,4|8,3:0|2:0,2:0:0:0:
40,144,79291,1,8,2:0:0:0:
188,204,79449,1,8,2:0:0:0:
324,288,79606,2,8,P|372:296|412:272,1,80,8|8,2:0|2:0,2:0:0:0:
92,196,80080,1,10,2:0:0:0:
228,280,80238,2,8,P|300:300|392:272,1,160,4|8,3:0|2:0,2:0:0:0:
388,120,80712,1,0,0:0:0:0:
176,232,80870,6,0,P|147:155|211:99,1,160,8|8,3:0|0:0,0:0:0:0:
432,128,81343,1,8,3:0:0:0:
176,232,81501,2,8,P|204:155|140:99,1,160,12|8,3:0|0:0,0:0:0:0:
80,96,81975,1,0,3:0:0:0:
200,304,82133,2,0,P|280:312|360:264,1,160,8|8,3:0|0:0,0:0:0:0:
288,40,82606,1,8,3:0:0:0:
348,276,82764,2,8,P|268:268|188:316,1,160,12|8,3:0|3:0,3:0:0:0:
136,352,83238,1,0,3:0:0:0:
112,112,83396,5,8,2:0:0:0:
127,115,83474,1,8,2:0:0:0:
143,118,83553,1,8,2:0:0:0:
159,119,83632,1,8,2:0:0:0:
175,120,83712,2,8,L|256:112,1,80,8|8,2:0|2:0,2:0:0:0:
328,88,84027,1,4,3:0:0:0:
488,264,84185,1,8,2:0:0:0:
256,312,84343,2,8,P|232:288|184:272,1,80,8|8,2:0|2:0,2:0:0:0:
88,56,84659,6,8,L|184:48,1,80,0|0,3:0|3:0,3:0:0:0:
408,56,84975,1,0,3:0:0:0:
408,56,85133,1,0,3:0:0:0:
352,288,85291,2,8,L|280:232,1,80,4|0,3:0|3:0,3:0:0:0:
112,80,85606,1,8,2:0:0:0:
124,89,85684,1,8,2:0:0:0:
137,99,85763,1,8,2:0:0:0:
150,108,85842,1,8,2:0:0:0:
168,120,85922,6,0,P|245:149|301:85,1,160,8|0,3:0|3:0,3:0:0:0:
416,24,86396,1,0,3:0:0:0:
424,264,86554,2,0,P|360:216|280:224,1,160,12|8,3:0|0:0,0:0:0:0:
160,324,87027,1,0,3:0:0:0:
184,88,87185,2,0,P|264:120|344:100,1,160,8|0,3:0|0:0,0:0:0:0:
484,168,87659,1,8,3:0:0:0:
263,259,87817,1,12,3:0:0:0:
248,252,87895,1,8,2:0:0:0:
232,247,87974,1,8,2:0:0:0:
217,244,88053,1,8,2:0:0:0:
201,243,88133,2,8,P|156:236|120:224,1,80,8|8,3:0|2:0,2:0:0:0:
340,120,88449,6,0,L|424:164,1,80,0|0,3:0|3:0,3:0:0:0:
184,76,88764,1,0,3:0:0:0:
184,76,88922,1,0,3:0:0:0:
372,224,89080,2,0,L|456:268,1,80,4|0,3:0|3:0,3:0:0:0:
216,180,89395,1,0,3:0:0:0:
216,180,89553,1,0,3:0:0:0:
16,316,89712,5,8,2:0:0:0:
30,322,89790,1,8,2:0:0:0:
45,328,89869,1,8,2:0:0:0:
60,332,89948,1,8,2:0:0:0:
76,335,90027,2,8,P|120:344|184:336,1,80,8|8,2:0|2:0,2:0:0:0:
388,276,90343,5,4,3:0:0:0:
371,274,90421,1,8,2:0:0:0:
355,273,90500,1,8,2:0:0:0:
340,270,90579,1,8,2:0:0:0:
324,266,90658,2,8,P|281:255|227:219,1,80,8|8,2:0|2:0,2:0:0:0:
68,80,90975,6,0,P|148:104|232:72,1,160,8|8,3:0|0:0,0:0:0:0:
376,40,91449,1,8,3:0:0:0:
348,276,91606,2,0,P|272:312|192:292,1,160,12|8,3:0|0:0,0:0:0:0:
56,224,92080,1,0,3:0:0:0:
296,248,92238,2,0,P|380:244|448:188,1,160,8|8,3:0|0:0,0:0:0:0:
472,44,92712,1,8,3:0:0:0:
288,200,92870,2,8,P|244:220|192:212,1,80,12|0,3:0|0:0,3:0:0:0:
76,136,93186,1,8,3:0:0:0:
91,131,93265,1,8,2:0:0:0:
107,128,93344,1,8,2:0:0:0:
122,128,93423,1,8,2:0:0:0:
138,129,93501,6,8,P|220:136|292:176,1,160,8|8,2:0|2:0,2:0:0:0:
484,312,93975,1,0,3:0:0:0:
484,312,94133,2,8,P|396:324|316:292,1,160,4|0,3:0|3:0,3:0:0:0:
112,200,94606,1,0,3:0:0:0:
112,200,94764,2,0,P|192:216|276:196,1,160,0|0,3:0|3:0,3:0:0:0:
508,240,95238,1,0,3:0:0:0:
508,240,95396,2,0,P|532:156|504:76,1,160,4|0,3:0|3:0,3:0:0:0:
482,61,95792,1,8,2:0:0:0:
445,46,95871,1,8,2:0:0:0:
406,43,95949,1,8,2:0:0:0:
367,53,96027,6,8,P|292:80|208:68,1,160,8|0,3:0|3:0,3:0:0:0:
56,48,96501,1,0,3:0:0:0:
80,288,96659,2,8,P|156:316|244:292,1,160,12|8,3:0|3:0,3:0:0:0:
388,272,97133,1,0,3:0:0:0:
188,140,97291,2,0,P|264:164|344:140,1,160,8|0,3:0|0:0,0:0:0:0:
496,104,97764,1,8,3:0:0:0:
384,316,97922,2,8,P|316:340|228:320,1,160,12|8,3:0|3:0,3:0:0:0:
52,160,98396,1,0,3:0:0:0:
276,80,98554,1,0,3:0:0:0:
256,192,98712,12,4,101080,2:0:0:0:
