osu file format v14

[General]
AudioFilename: audio.mp3
AudioLeadIn: 0
PreviewTime: 66405
Countdown: 0
SampleSet: Soft
StackLeniency: 0.4
Mode: 0
LetterboxInBreaks: 0
WidescreenStoryboard: 1

[Editor]
Bookmarks: 12624,24624,42624,54624,66624,78624,90624,102624,114624,126624,138593,150593,162624,174624,186624,204624
DistanceSpacing: 1.3
BeatDivisor: 4
GridSize: 32
TimelineZoom: 1.9

[Metadata]
Title:Yoi ni Kanawazu
TitleUnicode:宵に叶わず
Artist:Barbarian On The Groove feat. Takizawa Ichiru
ArtistUnicode:Barbarian On The Groove feat. 瀧沢一留
Creator:Shurelia
Version:Hard
Source:
Tags:wight bassy Dragon Valley Arco-Iris LMT Japanese Folk Traditional
BeatmapID:2286572
BeatmapSetID:1093562

[Difficulty]
HPDrainRate:5
CircleSize:4
OverallDifficulty:6
ApproachRate:8
SliderMultiplier:0.999999999999999
SliderTickRate:1

[Events]
//Background and Video events
0,0,"yoinibg.jpg",0,0
//Break Periods
2,126608,137858
//Storyboard Layer 0 (Background)
//Storyboard Layer 1 (Fail)
//Storyboard Layer 2 (Pass)
//Storyboard Layer 3 (Foreground)
//Storyboard Layer 4 (Overlay)
//Storyboard Sound Samples

[TimingPoints]
609,413.793103448276,4,2,1,41,1,0
1022,379.746835443038,4,2,1,41,1,0
2161,370.37037037037,4,2,1,41,1,0
2901,363.636363636364,4,2,1,41,1,0
3628,370.37037037037,4,2,1,41,1,0
5109,379.746835443038,4,2,1,41,1,0
6627,375,4,2,1,41,1,0
9627,372.670807453416,4,2,1,50,1,0
12608,375,4,2,1,50,1,0
12608,-83.3333333333333,4,2,1,50,0,0
24608,-83.3333333333333,4,2,1,47,0,0
65108,-83.3333333333333,4,2,2,50,0,0
66608,-83.3333333333333,4,2,2,53,0,0
78608,-83.3333333333333,4,2,1,50,0,0
84233,-100,4,2,1,50,0,0
84608,-100,4,2,1,50,0,0
85733,-100,4,2,1,50,0,0
86108,-100,4,2,1,50,0,0
90608,-100,4,2,1,43,0,0
102608,-100,4,2,1,47,0,0
113108,-100,4,2,2,50,0,0
114608,-83.3333333333333,4,2,2,53,0,0
126608,-83.3333333333333,4,2,1,53,0,0
138608,-83.3333333333333,4,2,1,44,0,0
150608,-83.3333333333333,4,2,1,50,0,0
161108,-83.3333333333333,4,2,2,50,0,0
162608,-83.3333333333333,4,2,2,53,0,0
186608,-71.4285714285714,4,2,2,63,0,1
204608,-71.4285714285714,4,2,2,57,0,0

[Colours]
Combo1 : 128,64,0
Combo2 : 128,128,64

[HitObjects]
22,341,609,6,0,P|71:342|121:336,1,99.9999999999999,2|0,0:0|0:0,0:0:0:0:
207,213,1401,2,0,P|256:212|305:224,1,99.9999999999999,2|0,0:0|0:0,0:0:0:0:
392,301,1971,1,0,0:0:0:0:
392,301,2161,2,0,P|397:251|408:202,1,99.9999999999999,2|0,0:0|0:0,0:0:0:0:
468,62,2901,2,0,P|485:108|493:158,1,99.9999999999999,2|0,0:0|0:0,0:0:0:0:
379,72,3628,6,0,P|379:47|382:22,2,50,2|0|0,0:0|0:0|0:0,0:0:0:0:
296,145,4183,1,0,0:0:0:0:
296,145,4368,2,0,P|249:158|197:160,1,99.9999999999999,2|0,0:0|0:0,0:0:0:0:
106,91,5109,6,0,P|109:115|108:140,1,50,2|0,0:0|0:0,0:0:0:0:
27,124,5488,2,0,P|23:148|24:173,1,50
90,222,5868,6,0,P|93:246|92:271,1,50,2|0,0:0|0:0,0:0:0:0:
11,255,6248,2,0,P|7:279|8:304,1,50
154,334,6627,6,0,P|200:324|261:318,1,99.9999999999999,2|0,0:0|0:0,0:0:0:0:
365,219,7377,2,0,P|365:170|341:127,1,99.9999999999999,2|0,0:0|0:0,0:0:0:0:
279,60,7939,1,0,0:0:0:0:
278,60,8127,2,0,P|324:40|374:38,1,99.9999999999999,2|0,0:0|0:0,0:0:0:0:
471,151,8877,2,0,P|484:199|488:248,1,99.9999999999999,2|0,0:0|0:0,0:0:0:0:
463,319,9627,6,0,P|438:315|412:310,1,50,2|0,0:0|0:0,0:0:0:0:
355,356,9999,2,0,P|330:360|305:364,1,50
237,316,10372,1,2,0:0:0:0:
237,316,10558,1,0,0:0:0:0:
158,362,10745,2,0,P|151:339|149:314,1,50
197,243,11117,6,0,P|221:237|245:232,2,50,2|0|0,0:0|0:0|0:0,0:0:0:0:
53,312,11863,1,2,0:0:0:0:
99,200,12235,2,0,P|99:176|100:151,1,50
62,81,12608,6,0,P|136:61|187:80,1,119.999996337891,14|0,0:0|0:0,0:0:0:0:
234,115,13170,1,8,0:0:0:0:
267,183,13358,2,0,P|255:216|245:252,1,59.9999981689453,2|0,0:0|0:0,0:0:0:0:
395,135,13733,2,0,P|356:148|332:152,1,59.9999981689453,8|0,0:0|0:0,0:0:0:0:
464,175,14108,5,2,0:0:0:0:
398,129,14295,1,0,0:0:0:0:
393,55,14483,1,0,0:0:0:0:
448,0,14670,1,8,0:0:0:0:
378,54,14858,2,0,P|325:50|234:29,1,119.999996337891,10|0,0:0|0:0,0:0:0:0:
341,246,15608,6,0,P|348:206|272:170,1,119.999996337891,14|0,0:0|0:0,0:0:0:0:
218,181,16170,1,8,0:0:0:0:
174,241,16358,2,0,P|161:285|152:304,1,59.9999981689453,2|0,0:0|0:0,0:0:0:0:
214,171,16733,2,0,P|219:119|212:86,1,59.9999981689453,0|8,0:0|0:0,0:0:0:0:
274,54,17108,5,2,0:0:0:0:
215,104,17295,1,8,0:0:0:0:
140,117,17483,1,0,0:0:0:0:
69,103,17670,1,8,0:0:0:0:
19,45,17858,1,2,0:0:0:0:
64,111,18045,2,0,P|73:166|76:198,1,59.9999981689453,0|8,0:0|0:0,0:0:0:0:
152,328,18608,5,14,0:0:0:0:
191,260,18795,1,0,0:0:0:0:
260,229,18983,1,0,0:0:0:0:
333,238,19170,1,8,0:0:0:0:
392,284,19358,2,0,P|416:305|447:338,1,59.9999981689453,2|0,0:0|0:0,0:0:0:0:
333,250,19733,2,0,P|333:197|337:162,1,59.9999981689453
396,149,20108,5,14,0:0:0:0:
328,182,20295,1,0,0:0:0:0:
257,161,20483,1,0,0:0:0:0:
207,106,20670,1,8,0:0:0:0:
200,32,20858,2,0,P|233:8|262:-1,1,59.9999981689453,2|0,0:0|0:0,0:0:0:0:
200,110,21233,2,0,P|182:153|161:185,1,59.9999981689453
99,182,21608,5,14,0:0:0:0:
177,175,21795,1,0,0:0:0:0:
234,227,21983,1,0,0:0:0:0:
231,302,22170,1,8,0:0:0:0:
248,230,22358,2,0,P|273:185|296:161,1,59.9999981689453,2|0,0:0|0:0,0:0:0:0:
224,308,22733,2,0,P|193:342|158:354,1,59.9999981689453
104,343,23108,5,6,0:0:0:0:
33,323,23295,1,0,0:0:0:0:
49,246,23483,1,2,0:0:0:0:
123,265,23670,1,8,0:0:0:0:
104,341,23858,1,2,0:0:0:0:
20,117,24233,1,8,0:0:0:0:
20,117,24608,6,0,P|79:119|138:108,1,119.999996337891,6|8,0:0|0:0,0:0:0:0:
216,65,25170,1,8,0:0:0:0:
216,65,25358,2,0,P|275:71|335:73,1,119.999996337891,2|8,0:0|0:0,0:0:0:0:
503,198,26108,6,0,P|455:162|396:161,1,119.999996337891,2|8,0:0|0:0,0:0:0:0:
427,246,26670,1,8,0:0:0:0:
427,246,26858,2,0,P|422:305|416:365,1,119.999996337891,2|8,0:0|0:0,0:0:0:0:
242,315,27608,6,0,P|183:311|123:301,1,119.999996337891,6|8,0:0|0:0,0:0:0:0:
46,255,28170,1,8,0:0:0:0:
46,255,28358,2,0,P|56:196|60:137,1,119.999996337891,2|8,0:0|0:0,0:0:0:0:
265,26,29108,6,0,P|278:84|272:143,2,119.999996337891,2|8|2,0:0|0:0|0:0,0:0:0:0:
198,87,30045,1,8,0:0:0:0:
198,87,30233,1,0,0:0:0:0:
212,225,30608,6,0,P|269:239|327:226,1,119.999996337891,6|8,0:0|0:0,0:0:0:0:
410,194,31170,1,8,0:0:0:0:
410,194,31358,2,0,P|400:137|431:88,1,119.999996337891,2|8,0:0|0:0,0:0:0:0:
260,28,32108,6,0,P|202:45|143:47,1,119.999996337891,2|8,0:0|0:0,0:0:0:0:
53,53,32670,1,8,0:0:0:0:
53,53,32858,2,0,P|58:112|60:172,1,119.999996337891,2|8,0:0|0:0,0:0:0:0:
71,261,33420,1,8,0:0:0:0:
80,350,33608,6,0,P|140:344|200:338,2,119.999996337891,6|8|2,0:0|0:0|0:0,0:0:0:0:
60,172,34733,1,0,0:0:0:0:
199,58,35108,6,0,P|228:63|258:65,1,59.9999981689453,10|8,0:0|0:0,0:0:0:0:
353,140,35483,2,0,P|323:146|294:148,1,59.9999981689453
195,221,35858,2,0,P|225:227|255:229,1,59.9999981689453,2|0,0:0|0:0,0:0:0:0:
343,245,36233,1,8,0:0:0:0:
343,245,36420,1,8,0:0:0:0:
419,197,36608,6,0,P|428:255|412:313,1,119.999996337891,6|0,0:0|0:0,0:0:0:0:
329,349,37170,1,8,0:0:0:0:
328,349,37358,2,0,P|269:341|209:342,1,119.999996337891,2|0,0:0|0:0,0:0:0:0:
120,351,37920,1,8,0:0:0:0:
119,350,38108,6,0,P|85:305|29:315,1,119.999996337891,2|0,0:0|0:0,0:0:0:0:
24,225,38670,1,8,0:0:0:0:
23,224,38858,2,0,P|23:165|33:105,1,119.999996337891,2|0,0:0|0:0,0:0:0:0:
38,65,39608,6,0,P|94:65|119:117,1,119.999996337891,6|0,0:0|0:0,0:0:0:0:
99,207,40170,1,8,0:0:0:0:
99,207,40358,2,0,P|157:203|195:158,1,119.999996337891,2|0,0:0|0:0,0:0:0:0:
235,78,40920,1,8,0:0:0:0:
235,77,41108,6,0,P|291:58|351:51,2,119.999996337891,2|2|2,0:0|0:0|0:0,0:0:0:0:
301,139,42045,1,0,0:0:0:0:
389,126,42233,2,0,P|416:111|435:88,1,59.9999981689453,2|8,0:0|0:0,0:0:0:0:
490,163,42608,6,0,P|451:217|428:283,1,119.999996337891,6|8,0:0|0:0,0:0:0:0:
360,290,43170,1,8,0:0:0:0:
288,283,43358,2,0,P|251:251|243:221,1,59.9999981689453,2|0,0:0|0:0,0:0:0:0:
359,304,43733,2,0,P|372:351|352:378,1,59.9999981689453,8|8,0:0|0:0,0:0:0:0:
292,374,44108,2,0,P|228:364|153:357,1,119.999996337891,2|8,0:0|0:0,0:0:0:0:
102,342,44670,1,8,0:0:0:0:
27,350,44858,2,0,P|22:318|12:272,2,59.9999981689453,2|8|8,0:0|0:0|0:0,0:0:0:0:
0,174,45608,6,0,P|62:136|119:129,1,119.999996337891,6|8,0:0|0:0,0:0:0:0:
146,194,46170,1,8,0:0:0:0:
119,122,46358,2,0,P|132:74|144:46,1,59.9999981689453,2|0,0:0|0:0,0:0:0:0:
204,31,46733,2,0,P|251:16|283:10,1,59.9999981689453,8|8,0:0|0:0,0:0:0:0:
339,26,47108,1,2,0:0:0:0:
440,156,47483,1,8,0:0:0:0:
348,281,47858,1,2,0:0:0:0:
286,240,48045,2,0,P|280:195|274:166,1,59.9999981689453,8|0,0:0|0:0,0:0:0:0:
97,140,48608,6,0,P|73:201|128:230,1,119.999996337891,6|8,0:0|0:0,0:0:0:0:
172,268,49170,1,8,0:0:0:0:
219,328,49358,2,0,P|210:372|188:398,1,59.9999981689453,2|0,0:0|0:0,0:0:0:0:
177,259,49733,2,0,P|189:224|215:198,1,59.9999981689453,8|8,0:0|0:0,0:0:0:0:
256,153,50108,2,0,P|305:131|397:120,1,119.999996337891,2|8,0:0|0:0,0:0:0:0:
441,144,50670,1,8,0:0:0:0:
371,129,50858,1,2,0:0:0:0:
250,22,51233,5,0,0:0:0:0:
187,61,51420,1,8,0:0:0:0:
116,34,51608,1,6,0:0:0:0:
39,132,51983,1,8,0:0:0:0:
112,237,52358,1,2,0:0:0:0:
238,205,52733,1,0,0:0:0:0:
243,213,53108,5,6,0:0:0:0:
319,199,53295,1,8,0:0:0:0:
356,267,53483,1,0,0:0:0:0:
305,326,53670,1,0,0:0:0:0:
234,292,53858,1,2,0:0:0:0:
406,144,54233,5,8,0:0:0:0:
411,135,54326,1,8,0:0:0:0:
416,124,54420,1,8,0:0:0:0:
369,48,54608,6,0,P|309:40|249:37,2,119.999996337891,4|0|8,0:0|0:0|0:3,0:0:0:0:
297,144,55733,1,8,0:0:0:0:
297,144,56108,6,0,P|268:149|239:156,1,59.9999981689453,4|0,0:0|0:0,0:0:0:0:
179,89,56483,2,0,P|149:81|120:76,1,59.9999981689453,0|8,0:0|0:0,0:0:0:0:
47,138,56858,1,8,0:0:0:0:
47,138,57233,2,0,P|51:167|54:197,1,59.9999981689453,8|8,0:0|0:0,0:0:0:0:
77,318,57608,6,0,P|135:327|196:328,2,119.999996337891,4|0|8,0:0|0:0|0:3,0:0:0:0:
150,234,58733,1,8,0:0:0:0:
150,234,59108,6,0,P|179:239|208:247,1,59.9999981689453,4|0,0:0|0:0,0:0:0:0:
281,298,59483,2,0,P|308:296|344:290,1,59.9999981689453,0|8,0:0|0:0,0:0:0:0:
424,256,59858,1,8,0:0:0:0:
424,256,60233,2,0,P|432:284|438:314,1,59.9999981689453,8|8,0:0|0:0,0:0:0:0:
472,183,60608,6,0,P|479:123|482:63,2,119.999996337891,4|0|8,0:0|0:0|0:3,0:0:0:0:
378,108,61733,1,8,0:0:0:0:
378,108,62108,6,0,P|370:137|360:166,1,59.9999981689453,4|0,0:0|0:0,0:0:0:0:
282,236,62483,2,0,P|271:207|264:178,1,59.9999981689453,0|8,0:0|0:0,0:0:0:0:
209,66,62858,1,8,0:0:0:0:
209,66,63233,2,0,P|201:94|191:123,1,59.9999981689453,8|0,0:0|0:0,0:0:0:0:
129,213,63608,6,0,P|69:205|9:202,2,119.999996337891,4|0|8,0:0|0:0|0:0,0:0:0:0:
55,299,64733,1,8,0:0:0:0:
130,346,64920,1,8,0:0:0:0:
208,302,65108,6,0,P|237:301|267:298,1,59.9999981689453,2|0,0:0|0:0,0:0:0:0:
332,235,65483,2,0,P|335:205|335:175,1,59.9999981689453,2|0,0:0|0:0,0:0:0:0:
416,258,65858,2,0,P|445:257|475:254,1,59.9999981689453,2|8,0:0|0:0,0:0:0:0:
443,368,66233,2,0,L|472:370,2,29.9999990844727,8|0|0,0:0|0:0|0:0,0:0:0:0:
333,362,66608,5,10,0:0:0:0:
275,318,66795,1,8,0:0:0:0:
277,310,66889,1,8,0:0:0:0:
279,303,66983,2,0,P|287:271|295:235,1,59.9999981689453,10|8,0:0|0:0,0:0:0:0:
200,219,67358,5,10,0:0:0:0:
252,163,67545,1,0,0:0:0:0:
250,87,67733,1,10,0:0:0:0:
211,24,67920,1,0,0:0:0:0:
260,90,68108,6,0,P|316:106|338:112,1,59.9999981689453,10|8,0:0|0:0,0:0:0:0:
393,111,68483,2,0,P|432:106|464:89,1,59.9999981689453,10|8,0:0|0:0,0:0:0:0:
507,51,68858,2,0,P|489:105|471:186,1,119.999996337891,10|10,0:0|0:0,0:0:0:0:
332,249,69608,5,10,0:0:0:0:
265,214,69795,1,8,0:0:0:0:
257,222,69889,1,8,0:0:0:0:
248,230,69983,2,0,P|227:260|207:295,1,59.9999981689453,10|8,0:0|0:0,0:0:0:0:
219,358,70358,5,10,0:0:0:0:
203,275,70545,1,0,0:0:0:0:
132,223,70733,1,10,0:0:0:0:
45,215,70920,1,2,0:0:0:0:
129,235,71108,6,0,P|155:202|180:170,1,59.9999981689453,10|8,0:0|0:0,0:0:0:0:
264,87,71483,2,0,P|235:111|208:139,1,59.9999981689453,10|8,0:0|0:0,0:0:0:0:
338,53,71858,2,0,P|283:49|208:3,1,119.999996337891,10|10,0:0|0:0,0:0:0:0:
22,53,72608,5,10,0:0:0:0:
90,89,72795,1,8,0:0:0:0:
86,99,72889,1,8,0:0:0:0:
84,112,72983,2,0,P|78:148|71:179,1,59.9999981689453,10|8,0:0|0:0,0:0:0:0:
6,213,73358,5,10,0:0:0:0:
76,180,73545,1,0,0:0:0:0:
153,190,73733,1,10,0:0:0:0:
208,244,73920,1,0,0:0:0:0:
219,320,74108,6,0,P|230:283|248:253,1,59.9999981689453,10|8,0:0|0:0,0:0:0:0:
303,220,74483,2,0,P|334:200|368:192,1,59.9999981689453,10|8,0:0|0:0,0:0:0:0:
431,195,74858,1,10,0:0:0:0:
436,203,75233,5,8,0:0:0:0:
425,125,75420,1,0,0:0:0:0:
473,66,75608,1,10,0:0:0:0:
354,112,75795,5,8,0:0:0:0:
345,105,75889,1,8,0:0:0:0:
337,96,75983,1,10,0:0:0:0:
262,89,76170,1,2,0:0:0:0:
188,86,76358,1,10,0:0:0:0:
22,202,76733,5,10,0:0:0:0:
98,192,76920,1,2,0:0:0:0:
171,184,77108,1,10,0:0:0:0:
232,230,77295,5,8,0:0:0:0:
227,241,77389,1,8,0:0:0:0:
221,255,77483,2,0,B|257:250|294:250,1,59.9999981689453,10|8,0:0|0:0,0:0:0:0:
359,248,77858,2,0,P|402:248|489:259,1,119.999996337891,10|8,0:0|0:0,0:0:0:0:
266,351,78608,6,0,P|207:356|148:345,1,119.999996337891,14|8,0:0|0:0,0:0:0:0:
73,255,79170,1,8,0:0:0:0:
73,254,79358,2,0,P|98:201|96:142,1,119.999996337891,2|8,0:0|0:0,0:0:0:0:
34,31,79920,1,8,0:0:0:0:
34,31,80108,6,0,P|26:59|22:89,2,59.9999981689453,2|0|8,0:0|0:0|0:0,0:0:0:0:
124,31,80670,1,8,0:0:0:0:
197,79,80858,2,0,L|226:74,2,29.9999990844727,2|0|0,0:0|0:0|0:0,0:0:0:0:
199,170,81233,2,0,L|228:173,2,29.9999990844727,8|0|0,0:0|0:0|0:0,0:0:0:0:
316,114,81608,6,0,P|337:168|323:225,1,119.999996337891,6|8,0:0|0:0,0:0:0:0:
231,303,82170,1,8,0:0:0:0:
231,303,82358,2,0,P|280:335|339:344,1,119.999996337891,2|8,0:0|0:0,0:0:0:0:
453,296,82920,1,8,0:0:0:0:
452,295,83108,6,0,P|457:325|466:354,2,59.9999981689453,2|0|8,0:0|0:0|0:0,0:0:0:0:
466,207,83670,1,0,0:0:0:0:
464,128,83858,1,2,0:0:0:0:
439,67,84045,1,0,0:0:0:0:
403,39,84233,1,8,0:0:0:0:
403,39,84608,6,0,P|377:43|350:47,1,50,2|2,0:0|0:0,0:0:0:0:
271,119,84983,2,0,P|296:123|324:127,1,50,8|8,0:0|0:0,0:0:0:0:
213,50,85358,1,8,0:3:0:0:
73,175,85733,1,8,0:0:0:0:
73,175,86108,6,0,P|73:200|75:225,1,50,2|2,0:0|0:0,0:0:0:0:
162,295,86483,2,0,P|164:270|164:245,1,50,0|8,0:0|0:0,0:0:0:0:
93,367,86858,1,8,0:3:0:0:
158,331,87045,1,0,0:0:0:0:
225,363,87233,2,0,P|249:359|273:353,1,50,8|0,0:3|0:0,0:0:0:0:
408,280,87608,5,8,0:3:0:0:
343,244,87795,1,0,0:0:0:0:
276,276,87983,2,0,P|251:271|227:265,1,50,0|8,0:0|0:0,0:0:0:0:
68,187,88358,1,8,0:3:0:0:
68,187,88733,2,0,P|67:162|66:137,1,50,8|0,0:0|0:0,0:0:0:0:
177,33,89108,6,0,P|202:31|227:26,1,50,10|0,0:0|0:0,0:0:0:0:
274,115,89483,2,0,P|298:120|323:122,1,50,2|8,0:0|0:0,0:0:0:0:
407,77,89858,2,0,P|412:52|414:27,1,50,8|0,0:0|0:0,0:0:0:0:
476,150,90233,1,8,0:0:0:0:
368,281,90608,6,0,P|321:271|267:262,1,99.9999999999999,2|0,0:0|0:0,0:0:0:0:
194,280,91170,1,0,0:0:0:0:
194,280,91358,1,2,0:0:0:0:
140,159,91733,2,0,P|104:155|88:179,1,50
72,237,92108,2,0,P|123:204|177:181,1,99.9999999999999,2|0,0:0|0:0,0:0:0:0:
235,176,92670,1,0,0:0:0:0:
235,176,92858,1,2,0:0:0:0:
350,49,93608,6,0,P|353:70|366:161,1,99.9999999999999,2|0,0:0|0:0,0:0:0:0:
438,174,94170,1,0,0:0:0:0:
438,174,94358,1,2,0:0:0:0:
348,250,94733,2,0,P|374:284|387:307,1,50
423,352,95108,5,2,0:0:0:0:
298,375,95483,1,0,0:0:0:0:
195,303,95858,1,2,0:0:0:0:
188,282,96608,6,0,P|165:220|150:174,1,99.9999999999999,2|0,0:0|0:0,0:0:0:0:
83,160,97170,1,0,0:0:0:0:
83,160,97358,1,2,0:0:0:0:
123,27,97733,2,0,P|156:26|160:48,1,50
148,110,98108,2,0,P|175:79|247:59,1,99.9999999999999,2|0,0:0|0:0,0:0:0:0:
303,81,98670,1,0,0:0:0:0:
303,81,98858,1,2,0:0:0:0:
418,159,99233,5,0,0:0:0:0:
418,159,99420,1,0,0:0:0:0:
418,159,99608,2,0,P|412:204|399:271,1,99.9999999999999,2|0,0:0|0:0,0:0:0:0:
294,346,100358,2,0,P|269:310|303:269,1,99.9999999999999,2|0,0:0|0:0,0:0:0:0:
328,166,101108,5,2,0:0:0:0:
282,171,101295,1,0,0:0:0:0:
237,164,101483,1,0,0:0:0:0:
198,140,101670,1,0,0:0:0:0:
177,98,101858,2,0,P|173:58|162:-1,1,99.9999999999999,10|8,0:0|0:3,0:0:0:0:
55,215,102608,6,0,P|50:165|44:115,2,99.9999999999999,4|0|8,0:0|0:0|0:3,0:0:0:0:
40,314,103733,1,8,0:0:0:0:
41,315,104108,6,0,P|65:310|90:307,1,50,4|0,0:0|0:0,0:0:0:0:
168,358,104483,2,0,P|192:362|217:365,1,50,0|8,0:0|0:0,0:0:0:0:
290,305,104858,1,8,0:0:0:0:
290,305,105233,2,0,P|315:309|338:316,1,50,8|8,0:0|0:0,0:0:0:0:
469,361,105608,6,0,P|458:313|463:264,2,99.9999999999999,4|0|8,0:0|0:0|0:3,0:0:0:0:
382,239,106733,1,8,0:0:0:0:
382,238,107108,6,0,P|377:214|374:189,1,50,4|0,0:0|0:0,0:0:0:0:
481,126,107483,2,0,P|477:150|473:175,1,50,0|8,0:0|0:0,0:0:0:0:
392,89,107858,1,8,0:0:0:0:
393,89,108233,1,8,0:3:0:0:
207,40,108608,6,0,P|178:79|175:129,2,99.9999999999999,4|0|8,0:0|0:0|0:0,0:0:0:0:
299,163,109733,1,8,0:0:0:0:
299,163,110108,6,0,P|298:187|296:212,1,50,4|0,0:0|0:0,0:0:0:0:
225,331,110483,2,0,P|222:306|222:281,1,50,0|8,0:0|0:0,0:0:0:0:
147,166,110858,1,8,0:0:0:0:
148,167,111233,1,8,0:0:0:0:
67,216,111420,1,8,0:0:0:0:
70,129,111608,6,0,P|73:84|80:29,2,99.9999999999999,4|0|8,0:0|0:0|0:3,0:0:0:0:
87,363,112733,1,8,0:0:0:0:
47,282,112920,1,8,0:0:0:0:
138,285,113108,6,0,P|187:296|245:317,2,99.9999999999999,2|2|2,0:0|0:0|0:0,0:0:0:0:
48,283,114045,1,0,0:0:0:0:
95,207,114233,2,0,L|94:172,2,25,8|8|8,0:0|0:0|0:0,0:0:0:0:
19,131,114608,5,10,0:0:0:0:
64,70,114795,1,8,0:0:0:0:
72,75,114889,1,8,0:0:0:0:
81,82,114983,2,0,P|110:76|156:62,1,59.9999981689453,10|8,0:0|0:0,0:0:0:0:
192,16,115358,5,10,0:0:0:0:
157,81,115545,1,2,0:0:0:0:
186,150,115733,1,10,0:0:0:0:
263,164,115920,1,0,0:0:0:0:
185,157,116108,6,0,P|169:191|162:231,1,59.9999981689453,10|8,0:0|0:0,0:0:0:0:
189,279,116483,2,0,P|219:314|259:325,1,59.9999981689453,10|8,0:0|0:0,0:0:0:0:
305,319,116858,2,0,P|353:304|435:278,1,119.999996337891,10|10,0:0|0:0,0:0:0:0:
470,145,117608,5,10,0:0:0:0:
403,123,117795,1,8,0:0:0:0:
401,114,117889,1,8,0:0:0:0:
399,105,117983,2,0,P|365:104|334:105,1,59.9999981689453,10|8,0:0|0:0,0:0:0:0:
279,43,118358,5,10,0:0:0:0:
327,116,118545,1,2,0:0:0:0:
262,183,118733,1,10,0:0:0:0:
186,136,118920,1,0,0:0:0:0:
190,44,119108,6,0,P|169:17|138:-1,1,59.9999981689453,10|8,0:0|0:0,0:0:0:0:
71,20,119483,2,0,P|63:48|63:94,1,59.9999981689453,10|8,0:0|0:0,0:0:0:0:
66,154,119858,2,0,P|59:213|48:281,1,119.999996337891,10|10,0:0|0:0,0:0:0:0:
206,323,120608,5,10,0:0:0:0:
263,278,120795,1,8,0:0:0:0:
260,269,120889,1,8,0:0:0:0:
256,257,120983,2,0,P|248:219|243:191,1,59.9999981689453,10|8,0:0|0:0,0:0:0:0:
167,166,121358,5,10,0:0:0:0:
243,185,121545,1,2,0:0:0:0:
305,138,121733,1,10,0:0:0:0:
277,64,121920,1,0,0:0:0:0:
312,145,122108,6,0,P|358:158|385:163,1,59.9999981689453,10|8,0:0|0:0,0:0:0:0:
269,60,122483,2,0,P|231:42|205:34,1,59.9999981689453,10|8,0:0|0:0,0:0:0:0:
136,45,122858,1,10,0:0:0:0:
67,181,123233,5,8,0:0:0:0:
124,231,123420,1,2,0:0:0:0:
199,228,123608,1,10,0:0:0:0:
170,141,123795,5,8,0:0:0:0:
164,148,123889,1,8,0:0:0:0:
157,157,123983,1,10,0:0:0:0:
127,224,124170,1,2,0:0:0:0:
121,301,124358,1,10,0:0:0:0:
292,340,124733,5,10,0:0:0:0:
320,269,124920,1,2,0:0:0:0:
381,219,125108,1,10,0:0:0:0:
306,196,125295,5,8,0:0:0:0:
302,183,125389,1,8,0:0:0:0:
295,169,125483,1,10,0:0:0:0:
231,127,125670,1,8,0:0:0:0:
161,108,125858,2,0,P|121:101|88:99,2,59.9999981689453,10|2|10,0:0|0:0|0:0,0:0:0:0:
53,56,138608,6,0,P|111:47|198:44,1,119.999996337891,6|8,0:0|0:0,0:0:0:0:
251,105,139170,1,0,0:0:0:0:
251,105,139358,2,0,P|310:99|369:86,1,119.999996337891,2|8,0:0|0:0,0:0:0:0:
445,24,139920,1,0,0:0:0:0:
445,24,140108,6,0,P|463:80|451:138,1,119.999996337891,2|8,0:0|0:0,0:0:0:0:
366,179,140670,1,0,0:0:0:0:
366,179,140858,2,0,P|369:242|373:298,1,119.999996337891,8|8,0:3|0:3,0:0:0:0:
373,322,141608,6,0,P|317:307|253:314,1,119.999996337891,6|8,0:0|0:0,0:0:0:0:
171,357,142170,1,0,0:0:0:0:
171,357,142358,2,0,P|112:355|51:349,1,119.999996337891,2|8,0:0|0:0,0:0:0:0:
126,269,142920,1,0,0:0:0:0:
126,268,143108,6,0,P|139:210|141:150,1,119.999996337891,2|8,0:0|0:0,0:0:0:0:
91,71,143670,1,0,0:0:0:0:
91,70,143858,6,0,P|149:59|204:80,1,119.999996337891,8|8,0:3|0:3,0:0:0:0:
224,96,144608,6,0,P|215:154|222:214,1,119.999996337891,6|8,0:0|0:0,0:0:0:0:
277,286,145170,1,0,0:0:0:0:
277,285,145358,2,0,P|335:273|395:277,1,119.999996337891,2|8,0:0|0:0,0:0:0:0:
470,341,145920,1,0,0:0:0:0:
470,340,146108,6,0,P|481:282|473:223,1,119.999996337891,2|8,0:0|0:0,0:0:0:0:
408,140,146670,1,0,0:0:0:0:
407,139,146858,2,0,P|386:85|422:40,1,119.999996337891,8|8,0:3|0:3,0:0:0:0:
390,34,147608,6,0,P|331:39|271:41,1,119.999996337891,6|8,0:0|0:0,0:0:0:0:
164,34,148170,1,0,0:0:0:0:
164,34,148358,2,0,P|108:27|44:26,1,119.999996337891,2|8,0:0|0:0,0:0:0:0:
103,115,148920,1,0,0:0:0:0:
102,114,149108,6,0,P|104:144|109:174,1,59.9999981689453,2|0,0:0|0:0,0:0:0:0:
198,198,149483,2,0,P|214:222|233:246,1,59.9999981689453,8|0,0:3|0:0,0:0:0:0:
266,137,149858,2,0,P|292:150|320:160,1,59.9999981689453,4|0,0:3|0:0,0:0:0:0:
425,200,150233,1,8,0:3:0:0:
364,344,150608,6,0,P|311:345|232:350,1,119.999996337891,6|10,0:0|0:0,0:0:0:0:
174,324,151170,1,10,0:0:0:0:
53,346,151545,2,0,P|25:354|-11:367,2,59.9999981689453,2|10|10,0:0|0:0|0:0,0:0:0:0:
85,213,152295,2,0,P|37:195|10:192,2,59.9999981689453,2|10|10,0:0|0:0|0:0,0:0:0:0:
204,158,153045,1,2,0:0:0:0:
204,158,153233,1,10,0:0:0:0:
204,158,153420,1,10,0:0:0:0:
204,158,153608,6,0,P|254:163|331:174,1,119.999996337891,2|10,0:0|0:0,0:0:0:0:
376,117,154170,1,10,0:0:0:0:
470,217,154545,2,0,P|452:260|441:292,2,59.9999981689453,2|10|10,0:0|0:0|0:0,0:0:0:0:
312,276,155295,2,0,P|323:310|331:345,2,59.9999981689453,2|10|10,0:0|0:0|0:0,0:0:0:0:
238,266,155858,2,0,P|190:259|100:255,1,119.999996337891,2|2,0:0|0:0,0:0:0:0:
69,83,156608,6,0,P|61:129|132:141,1,119.999996337891,2|10,0:0|0:0,0:0:0:0:
185,113,157170,1,10,0:0:0:0:
300,149,157545,2,0,P|290:182|287:210,2,59.9999981689453,2|10|10,0:0|0:0|0:0,0:0:0:0:
392,46,158295,2,0,P|429:35|452:31,2,59.9999981689453,2|10|10,0:0|0:0|0:0,0:0:0:0:
488,175,159045,1,2,0:0:0:0:
488,175,159233,1,2,0:0:0:0:
488,175,159420,1,10,0:0:0:0:
488,175,159608,6,0,P|440:214|409:272,1,119.999996337891,2|10,0:0|0:0,0:0:0:0:
391,338,160170,1,10,0:0:0:0:
267,278,160545,2,0,P|287:241|309:229,2,59.9999981689453,2|10|10,0:0|0:0|0:0,0:0:0:0:
211,331,161108,5,2,0:0:0:0:
141,346,161295,1,0,0:0:0:0:
126,273,161483,1,10,0:0:0:0:
198,257,161670,1,8,0:0:0:0:
212,337,161858,1,2,0:0:0:0:
142,195,162233,5,8,0:0:0:0:
150,177,162326,1,8,0:0:0:0:
158,162,162420,1,8,0:0:0:0:
259,146,162608,5,10,0:0:0:0:
325,190,162795,1,8,0:0:0:0:
339,195,162889,1,8,0:0:0:0:
353,199,162983,2,0,P|383:204|411:211,1,59.9999981689453,10|0,0:0|0:0,0:0:0:0:
481,247,163358,5,10,0:0:0:0:
472,324,163545,1,2,0:0:0:0:
397,347,163733,1,10,0:0:0:0:
362,277,163920,1,8,0:0:0:0:
310,335,164108,6,0,P|280:337|250:330,1,59.9999981689453,10|0,0:0|0:0,0:0:0:0:
183,290,164483,2,0,P|153:287|123:294,1,59.9999981689453,10|0,0:0|0:0,0:0:0:0:
56,344,164858,2,0,P|81:287|88:228,1,119.999996337891,10|10,0:0|0:0,0:0:0:0:
40,16,165608,5,10,0:0:0:0:
101,68,165795,1,8,0:0:0:0:
109,80,165889,1,8,0:0:0:0:
120,90,165983,2,0,P|135:64|153:39,1,59.9999981689453,10|0,0:0|0:0,0:0:0:0:
199,102,166358,5,10,0:0:0:0:
268,66,166545,1,2,0:0:0:0:
334,107,166733,1,10,0:0:0:0:
394,58,166920,1,8,0:0:0:0:
452,109,167108,6,0,P|445:138|440:167,1,59.9999981689453,10|0,0:0|0:0,0:0:0:0:
376,238,167483,2,0,P|371:208|363:179,1,59.9999981689453,10|0,0:0|0:0,0:0:0:0:
449,309,167858,2,0,P|394:332|335:327,1,119.999996337891,10|10,0:0|0:0,0:0:0:0:
136,267,168608,5,10,0:0:0:0:
193,319,168795,1,8,0:0:0:0:
202,305,168889,1,8,0:0:0:0:
211,289,168983,2,0,P|216:260|226:232,1,59.9999981689453,10|0,0:0|0:0,0:0:0:0:
274,170,169358,5,10,0:0:0:0:
224,109,169545,1,2,0:0:0:0:
177,172,169733,1,10,0:0:0:0:
226,232,169920,1,8,0:0:0:0:
178,294,170108,6,0,P|148:301|119:305,1,59.9999981689453,10|0,0:0|0:0,0:0:0:0:
44,199,170483,2,0,P|73:206|102:210,1,59.9999981689453,10|0,0:0|0:0,0:0:0:0:
133,116,170858,1,10,0:0:0:0:
140,127,171233,5,8,0:0:0:0:
248,138,171420,1,2,0:0:0:0:
357,147,171608,1,10,0:0:0:0:
333,231,171795,5,8,0:0:0:0:
329,247,171889,1,8,0:0:0:0:
325,262,171983,1,10,0:0:0:0:
418,211,172170,1,2,0:0:0:0:
415,73,172358,1,10,0:0:0:0:
415,73,172733,5,10,0:0:0:0:
339,63,172920,1,2,0:0:0:0:
266,55,173108,1,10,0:0:0:0:
165,118,173295,5,8,0:0:0:0:
160,106,173389,1,8,0:0:0:0:
153,94,173483,2,0,B|129:93|93:98,1,59.9999981689453,10|0,0:0|0:0,0:0:0:0:
37,235,173858,2,0,P|94:229|120:177,1,119.999996337891,10|10,0:0|0:0,0:0:0:0:
279,333,174608,5,10,0:0:0:0:
342,298,174795,1,8,0:0:0:0:
340,286,174889,1,8,0:0:0:0:
338,273,174983,2,0,P|332:236|326:208,1,59.9999981689453,10|0,0:0|0:0,0:0:0:0:
383,141,175358,5,10,0:0:0:0:
366,67,175545,1,2,0:0:0:0:
430,21,175733,1,10,0:0:0:0:
445,96,175920,1,0,0:0:0:0:
372,143,176108,6,0,P|335:143|300:130,1,59.9999981689453,10|0,0:0|0:0,0:0:0:0:
241,116,176483,2,0,P|204:101|178:76,1,59.9999981689453,10|0,0:0|0:0,0:0:0:0:
51,178,176858,2,0,P|61:137|129:137,1,119.999996337891,10|10,0:0|0:0,0:0:0:0:
190,299,177608,5,10,0:0:0:0:
253,259,177795,1,8,0:0:0:0:
263,256,177889,1,8,0:0:0:0:
273,252,177983,2,0,P|308:244|337:238,1,59.9999981689453,10|0,0:0|0:0,0:0:0:0:
399,277,178358,5,10,0:0:0:0:
474,261,178545,1,2,0:0:0:0:
477,183,178733,1,10,0:0:0:0:
402,199,178920,1,8,0:0:0:0:
454,336,179108,6,0,P|468:341|520:363,1,59.9999981689453,10|0,0:0|0:0,0:0:0:0:
371,349,179483,2,0,P|340:355|304:363,1,59.9999981689453,10|0,0:0|0:0,0:0:0:0:
112,349,179858,2,0,P|152:349|249:343,1,119.999996337891,10|10,0:0|0:0,0:0:0:0:
28,192,180608,5,10,0:0:0:0:
83,143,180795,1,8,0:0:0:0:
93,139,180889,1,8,0:0:0:0:
104,133,180983,2,0,P|146:117|169:108,1,59.9999981689453,10|0,0:0|0:0,0:0:0:0:
227,150,181358,5,10,0:0:0:0:
165,104,181545,1,2,0:0:0:0:
175,26,181733,1,10,0:0:0:0:
246,0,181920,1,0,0:0:0:0:
315,33,182108,6,0,P|341:64|355:92,1,59.9999981689453,10|0,0:0|0:0,0:0:0:0:
477,110,182483,2,0,P|448:138|421:134,1,59.9999981689453,10|0,0:0|0:0,0:0:0:0:
353,155,182858,1,10,0:0:0:0:
388,309,183233,5,10,0:0:0:0:
317,289,183420,1,2,0:0:0:0:
193,347,183608,1,10,0:0:0:0:
273,360,183795,5,8,0:0:0:0:
268,351,183889,1,8,0:0:0:0:
263,341,183983,1,10,0:0:0:0:
236,273,184170,1,2,0:0:0:0:
139,186,184358,1,10,0:0:0:0:
139,186,184733,5,10,0:0:0:0:
213,165,184920,1,2,0:0:0:0:
288,149,185108,1,10,0:0:0:0:
380,218,185295,5,8,0:0:0:0:
390,214,185389,1,8,0:0:0:0:
401,212,185483,2,0,P|438:204|467:196,1,59.9999981689453,10|0,0:0|0:0,0:0:0:0:
412,54,185858,2,0,P|454:60|477:144,1,119.999996337891,10|10,0:0|0:0,0:0:0:0:
480,290,186608,5,10,0:0:0:0:
392,321,186795,1,8,0:0:0:0:
393,338,186889,1,8,0:0:0:0:
394,355,186983,1,10,0:0:0:0:
300,304,187170,1,8,0:0:0:0:
301,287,187264,1,8,0:0:0:0:
302,270,187358,1,10,0:0:0:0:
218,335,187545,5,2,0:0:0:0:
136,356,187733,1,10,0:0:0:0:
121,273,187920,1,0,0:0:0:0:
203,257,188108,6,0,P|197:224|192:187,1,69.9999978637695,10|8,0:0|0:0,0:0:0:0:
113,159,188483,2,0,P|119:126|123:89,1,69.9999978637695,10|8,0:0|0:0,0:0:0:0:
196,34,188858,2,0,P|134:3|68:19,1,139.999995727539,10|10,0:0|0:0,0:0:0:0:
36,206,189608,5,10,0:0:0:0:
114,258,189795,1,8,0:0:0:0:
107,274,189889,1,8,0:0:0:0:
100,288,189983,1,10,0:0:0:0:
206,256,190170,1,8,0:0:0:0:
213,240,190264,1,8,0:0:0:0:
220,226,190358,1,10,0:0:0:0:
287,297,190545,5,2,0:0:0:0:
304,214,190733,1,10,0:0:0:0:
322,132,190920,1,0,0:0:0:0:
335,48,191108,6,0,P|370:50|405:44,1,69.9999978637695,10|8,0:0|0:0,0:0:0:0:
231,127,191483,2,0,P|213:125|190:117,2,34.9999989318848,10|8|8,0:0|0:0|0:0,0:0:0:0:
303,214,191858,2,0,P|370:223|414:173,1,139.999995727539,10|10,0:0|0:0,0:0:0:0:
254,38,192608,5,10,0:0:0:0:
179,75,192795,1,8,0:0:0:0:
160,72,192889,1,8,0:0:0:0:
148,70,192983,1,10,0:0:0:0:
78,117,193170,1,8,0:0:0:0:
59,120,193264,1,8,0:0:0:0:
47,122,193358,1,10,0:0:0:0:
155,147,193545,5,2,0:0:0:0:
175,228,193733,1,10,0:0:0:0:
137,302,193920,1,0,0:0:0:0:
60,338,194108,2,0,P|45:306|20:282,1,69.9999978637695,10|8,0:0|0:0,0:0:0:0:
160,369,194483,6,0,P|174:337|199:313,1,69.9999978637695,10|8,0:0|0:0,0:0:0:0:
335,248,194858,1,10,0:0:0:0:
335,248,195233,5,10,0:0:0:0:
446,244,195420,1,2,0:0:0:0:
328,200,195608,1,10,0:0:0:0:
328,200,195983,5,10,0:0:0:0:
444,195,196170,1,2,0:0:0:0:
329,148,196358,1,10,0:0:0:0:
329,148,196733,5,10,0:0:0:0:
442,145,196920,1,2,0:0:0:0:
331,102,197108,2,0,P|293:106|261:111,1,69.9999978637695,10|0,0:0|0:0,0:0:0:0:
199,174,197483,2,0,P|161:170|129:164,1,69.9999978637695,10|0,0:0|0:0,0:0:0:0:
199,26,197858,2,0,P|192:60|181:93,1,69.9999978637695,10|0,0:0|0:0,0:0:0:0:
35,84,198233,5,10,0:0:0:0:
2,197,198420,1,10,0:0:0:0:
67,87,198608,1,10,0:0:0:0:
67,87,198983,5,10,0:0:0:0:
34,200,199170,1,2,0:0:0:0:
105,93,199358,1,10,0:0:0:0:
105,93,199733,5,10,0:0:0:0:
72,206,199920,1,2,0:0:0:0:
159,48,200108,6,0,P|193:44|228:43,1,69.9999978637695,10|8,0:0|0:0,0:0:0:0:
248,58,200389,1,8,0:0:0:0:
248,58,200483,2,0,P|282:59|317:55,1,69.9999978637695,10|0,0:0|0:0,0:0:0:0:
462,33,200858,1,10,0:0:0:0:
462,33,201233,5,10,0:0:0:0:
353,120,201420,1,10,0:0:0:0:
463,75,201608,1,10,0:0:0:0:
463,75,201983,5,10,0:0:0:0:
354,162,202170,1,2,0:0:0:0:
464,108,202358,1,10,0:0:0:0:
464,108,202733,5,10,0:0:0:0:
355,195,202920,1,2,0:0:0:0:
469,143,203108,6,0,P|474:178|477:212,1,69.9999978637695,10|8,0:0|0:0,0:0:0:0:
473,244,203389,1,8,0:0:0:0:
473,243,203483,2,0,P|462:277|459:312,1,69.9999978637695,10|2,0:0|0:0,0:0:0:0:
359,361,203858,2,0,P|293:340|224:348,1,139.999995727539,10|10,0:0|0:0,0:0:0:0:
70,259,204608,6,0,P|106:233|162:227,1,69.9999978637695,10|0,0:0|0:0,0:0:0:0:
238,115,204983,2,0,P|230:168|202:182,1,69.9999978637695,10|0,0:0|0:0,0:0:0:0:
135,137,205358,2,0,P|97:128|14:51,1,139.999995727539,10|10,0:0|0:0,0:0:0:0:
60,1,205920,1,0,0:0:0:0:
158,15,206108,6,0,P|186:21|238:31,1,69.9999978637695,10|8,0:0|0:0,0:0:0:0:
237,37,206389,1,8,0:0:0:0:
248,48,206483,1,10,0:0:0:0:
308,92,206670,1,0,0:0:0:0:
384,74,206858,2,0,P|417:71|468:164,1,139.999995727539,10|10,0:0|0:0,0:0:0:0:
331,277,207608,5,10,0:0:0:0:
265,249,207795,1,8,0:0:0:0:
263,239,207889,1,8,0:0:0:0:
260,230,207983,2,0,P|224:222|184:217,1,69.9999978637695,10|0,0:0|0:0,0:0:0:0:
72,267,208358,2,0,P|110:305|198:284,1,139.999995727539,10|10,0:0|0:0,0:0:0:0:
92,138,209108,5,10,0:0:0:0:
153,94,209295,1,8,0:0:0:0:
166,89,209389,1,8,0:0:0:0:
177,88,209483,1,10,0:0:0:0:
247,116,209670,1,0,0:0:0:0:
312,160,209858,1,10,0:0:0:0:
391,157,210045,1,0,0:0:0:0:
450,111,210233,2,0,P|470:63|477:31,1,69.9999978637695,10|8,0:0|0:0,0:0:0:0:
506,169,210608,6,0,P|472:217|467:229,1,69.9999978637695,2|0,0:0|0:0,0:0:0:0:
364,246,210983,2,0,P|394:269|420:305,1,69.9999978637695,10|0,0:0|0:0,0:0:0:0:
495,315,211358,2,0,P|437:326|338:364,1,139.999995727539,10|10,0:0|0:0,0:0:0:0:
123,287,212108,5,2,0:0:0:0:
180,239,212295,1,8,0:0:0:0:
187,229,212389,1,8,0:0:0:0:
191,219,212483,2,0,P|188:167|170:134,1,69.9999978637695,10|2,0:0|0:0,0:0:0:0:
37,38,212858,2,0,P|46:93|128:92,1,139.999995727539,10|10,0:0|0:0,0:0:0:0:
268,24,213608,5,10,0:0:0:0:
270,35,213701,1,8,0:0:0:0:
272,49,213795,1,8,0:0:0:0:
345,73,213983,1,10,0:0:0:0:
348,86,214076,1,8,0:0:0:0:
350,100,214170,1,8,0:0:0:0:
417,136,214358,2,0,P|408:183|398:232,1,69.9999978637695,10|0,0:0|0:0,0:0:0:0:
460,255,214733,1,10,0:0:0:0:
321,336,215108,5,10,0:0:0:0:
260,299,215295,1,8,0:0:0:0:
260,288,215389,1,8,0:0:0:0:
262,275,215483,1,10,0:0:0:0:
191,246,215670,1,0,0:0:0:0:
113,265,215858,2,0,P|108:198|97:94,1,139.999995727539,10|10,0:0|0:0,0:0:0:0:
