osu file format v14

[General]
AudioFilename: audio.mp3
AudioLeadIn: 0
PreviewTime: 66405
Countdown: 0
SampleSet: Soft
StackLeniency: 0.4
Mode: 0
LetterboxInBreaks: 0
WidescreenStoryboard: 0

[Editor]
Bookmarks: 12624,24624,42624,54624,66624,78624,90624,102624,114624,126624,138593,150593,162624,174624,186624,204624
DistanceSpacing: 1.2
BeatDivisor: 6
GridSize: 32
TimelineZoom: 1.9

[Metadata]
Title:Yoi ni Kanawazu
TitleUnicode:宵に叶わず
Artist:Barbarian On The Groove feat. Takizawa Ichiru
ArtistUnicode:Barbarian On The Groove feat. 瀧沢一留
Creator:Shurelia
Version:Dusk
Source:
Tags:wight bassy Dragon Valley Arco-Iris LMT Japanese Folk Traditional
BeatmapID:2285604
BeatmapSetID:1093562

[Difficulty]
HPDrainRate:6.4
CircleSize:5
OverallDifficulty:7.5
ApproachRate:8
SliderMultiplier:0.999999999999999
SliderTickRate:1

[Events]
//Background and Video events
0,0,"yoinibg.jpg",0,0
//Break Periods
//Storyboard Layer 0 (Background)
//Storyboard Layer 1 (Fail)
//Storyboard Layer 2 (Pass)
//Storyboard Layer 3 (Foreground)
//Storyboard Layer 4 (Overlay)
//Storyboard Sound Samples

[TimingPoints]
609,413.793103448276,4,2,1,41,1,0
1022,379.746835443038,4,2,1,41,1,0
2161,370.37037037037,4,2,1,41,1,0
2901,363.636363636364,4,2,1,41,1,0
3628,370.37037037037,4,2,1,41,1,0
5109,379.746835443038,4,2,1,41,1,0
6627,375,4,2,1,41,1,0
9627,372.670807453416,4,2,1,41,1,0
12608,375,4,2,1,41,1,0
12608,-71.4285714285714,4,2,1,41,0,0
24608,-71.4285714285714,4,2,1,47,0,0
65108,-71.4285714285714,4,2,2,50,0,0
66608,-71.4285714285714,4,2,2,53,0,0
78608,-71.4285714285714,4,2,1,50,0,0
84233,-125,4,2,1,50,0,0
84608,-71.4285714285714,4,2,1,50,0,0
85733,-125,4,2,1,50,0,0
86108,-71.4285714285714,4,2,1,50,0,0
90608,-100,4,2,1,37,0,0
102608,-83.3333333333333,4,2,1,47,0,0
113108,-83.3333333333333,4,2,2,50,0,0
114608,-83.3333333333333,4,2,2,53,0,0
126608,-83.3333333333333,4,2,1,53,0,0
138608,-100,4,2,1,44,0,0
150608,-100,4,2,1,50,0,0
161108,-100,4,2,2,50,0,0
162608,-71.4285714285714,4,2,2,53,0,0
186608,-62.5,4,2,2,63,0,1
204608,-62.5,4,2,2,57,0,0

[Colours]
Combo1 : 128,64,0
Combo2 : 128,128,64

[HitObjects]
101,91,609,6,0,P|143:89|181:88,1,74.9999999999999,2|0,0:0|0:0,0:0:0:0:
203,116,1022,2,0,P|225:116|253:110,1,50,2|0,0:0|0:0,0:0:0:0:
365,37,1401,2,0,P|414:39|474:52,1,99.9999999999999,2|0,0:0|0:0,0:0:0:0:
399,160,1971,1,2,0:0:0:0:
461,217,2161,5,2,0:0:0:0:
418,334,2407,1,2,0:0:0:0:
402,340,2531,2,0,P|376:336|350:333,1,50,2|0,0:0|0:0,0:0:0:0:
270,279,2901,6,0,P|220:287|171:295,1,99.9999999999999,2|0,0:0|0:0,0:0:0:0:
137,314,3628,2,0,P|134:288|129:258,1,50,2|0,0:0|0:0,0:0:0:0:
64,200,3998,2,0,P|66:174|72:144,1,50,2|0,0:0|0:0,0:0:0:0:
175,82,4368,2,0,P|168:131|160:180,1,99.9999999999999,2|0,0:0|0:0,0:0:0:0:
147,212,5109,6,0,P|147:244|149:263,1,50,2|2,0:0|0:0,0:0:0:0:
153,273,5346,1,2,0:0:0:0:
173,343,5488,1,2,0:0:0:0:
283,361,5678,1,2,0:0:0:0:
425,348,5868,2,0,P|448:345|470:343,2,25,2|0|0,0:0|0:0|0:0,0:0:0:0:
350,274,6248,1,2,0:0:0:0:
350,274,6438,1,0,0:0:0:0:
444,181,6627,5,2,0:0:0:0:
450,158,7002,2,0,P|452:135|457:106,1,50,2|0,0:0|0:0,0:0:0:0:
355,8,7377,2,0,P|344:56|339:106,1,99.9999999999999,2|0,0:0|0:0,0:0:0:0:
339,106,7939,1,2,0:0:0:0:
239,207,8127,6,0,P|214:210|190:212,1,50,2|0,0:0|0:0,0:0:0:0:
91,212,8502,2,0,L|97:222,1,12.5,2|2,0:0|0:0,0:0:0:0:
25,247,8689,1,2,0:0:0:0:
107,306,8877,2,0,P|156:309|206:316,1,99.9999999999999,2|0,0:0|0:0,0:0:0:0:
233,336,9627,6,0,P|246:334|257:332,2,25,2|0|0,0:0|0:0|0:0,0:0:0:0:
369,246,9999,2,0,P|356:244|344:242,2,25,2|0|0,0:0|0:0|0:0,0:0:0:0:
224,156,10372,2,0,P|248:151|273:149,1,50,2|0,0:0|0:0,0:0:0:0:
343,31,10745,2,0,P|326:27|310:25,1,33.3333333333333,2|2,0:0|0:0,0:0:0:0:
296,31,10931,1,2,0:0:0:0:
196,55,11117,5,2,0:0:0:0:
108,29,11304,1,2,0:0:0:0:
41,82,11490,2,0,P|42:106|46:131,1,50,2|0,0:0|0:0,0:0:0:0:
22,100,11863,2,0,P|23:124|27:149,1,50,2|0,0:0|0:0,0:0:0:0:
21,221,12235,1,8,0:3:0:0:
21,221,12422,1,8,0:3:0:0:
180,255,12608,6,0,P|236:239|322:228,1,139.999995727539,14|0,0:0|0:0,0:0:0:0:
402,256,13170,1,8,0:0:0:0:
288,143,13358,2,0,P|338:158|374:176,1,69.9999978637695,2|0,0:0|0:0,0:0:0:0:
451,141,13733,6,0,P|462:170|478:191,1,46.666665242513,8|2,0:0|0:0,0:0:0:0:
491,193,13920,1,10,0:0:0:0:
486,286,14108,2,0,P|477:325|470:363,1,69.9999978637695,2|0,0:0|0:0,0:0:0:0:
376,329,14483,5,10,0:0:0:0:
365,336,14545,2,0,P|332:321|317:313,1,46.666665242513,2|8,0:0|0:0,0:0:0:0:
252,274,14858,2,0,P|214:269|184:266,2,34.9999989318848,10|0|0,0:0|0:0|0:0,0:0:0:0:
265,196,15233,5,2,0:0:0:0:
279,174,15326,1,2,0:0:0:0:
275,111,15467,1,2,0:0:0:0:
235,63,15608,6,0,P|284:87|385:89,1,139.999995727539,14|2,0:0|0:0,0:0:0:0:
199,168,16170,1,8,0:0:0:0:
151,91,16358,2,0,P|103:72|70:65,1,69.9999978637695,2|0,0:0|0:0,0:0:0:0:
14,151,16733,5,2,0:0:0:0:
64,196,16858,1,2,0:0:0:0:
62,207,16920,1,10,0:0:0:0:
7,280,17108,2,0,P|18:324|26:357,1,69.9999978637695,2|8,0:0|0:0,0:0:0:0:
210,239,17483,5,2,0:0:0:0:
190,306,17608,1,2,0:2:0:0:
199,310,17670,2,0,P|196:333|192:385,1,69.9999978637695,2|2,0:2|0:0,0:0:0:0:
306,308,18045,2,0,P|336:297|355:293,2,34.9999989318848,0|0|8,0:0|0:0|0:0,0:0:0:0:
450,145,18608,5,14,0:0:0:0:
364,176,18795,1,0,0:0:0:0:
290,121,18983,1,0,0:0:0:0:
291,33,19170,1,8,0:0:0:0:
370,90,19358,6,0,P|392:46|412:7,1,69.9999978637695,2|0,0:0|0:0,0:0:0:0:
275,207,19733,2,0,P|247:257|230:285,1,69.9999978637695
155,274,20108,5,14,0:0:0:0:
72,230,20295,1,0,0:0:0:0:
56,142,20483,1,0,0:0:0:0:
108,71,20670,1,8,0:0:0:0:
233,70,20858,6,0,P|223:103|216:138,2,69.9999978637695,2|0|0,0:0|0:0|0:0,0:0:0:0:
187,1,21420,1,0,0:0:0:0:
339,10,21608,5,14,0:0:0:0:
402,78,21795,1,0,0:0:0:0:
321,185,21983,1,0,0:0:0:0:
387,248,22170,1,8,0:0:0:0:
402,170,22358,6,0,P|447:156|477:152,1,69.9999978637695,2|0,0:0|0:0,0:0:0:0:
296,265,22733,2,0,P|266:308|251:346,1,69.9999978637695
185,325,23108,5,6,0:0:0:0:
98,357,23295,1,0,0:0:0:0:
64,203,23483,1,2,0:0:0:0:
160,213,23670,1,8,0:0:0:0:
80,281,23858,2,0,P|49:188|19:128,1,139.999995727539,2|8,0:0|0:0,0:0:0:0:
26,177,24608,6,0,P|51:222|66:272,1,104.999996795654,6|8,0:0|0:0,0:0:0:0:
70,296,24983,1,8,0:0:0:0:
170,357,25170,1,8,0:0:0:0:
267,291,25358,2,0,P|299:307|332:319,1,69.9999978637695,2|0,0:0|0:0,0:0:0:0:
438,241,25733,2,0,P|471:229|503:213,1,69.9999978637695,8|8,0:0|0:0,0:0:0:0:
338,96,26108,6,0,P|335:130|340:165,1,69.9999978637695,2|0,0:0|0:0,0:0:0:0:
346,185,26389,1,8,0:0:0:0:
346,185,26483,1,8,0:0:0:0:
446,136,26670,1,8,0:0:0:0:
416,24,26858,2,0,P|381:19|346:17,1,69.9999978637695,2|0,0:0|0:0,0:0:0:0:
175,49,27233,1,8,0:0:0:0:
235,105,27420,1,8,0:0:0:0:
149,219,27608,5,6,0:0:0:0:
149,219,27983,1,8,0:0:0:0:
84,175,28170,1,8,0:0:0:0:
45,241,28358,2,0,P|52:276|54:311,1,69.9999978637695,6|0,0:0|0:0,0:0:0:0:
128,356,28639,1,0,0:0:0:0:
149,340,28733,2,0,P|180:323|214:327,1,69.9999978637695,8|8,0:0|0:0,0:0:0:0:
366,383,29108,5,6,0:0:0:0:
413,304,29295,1,0,0:0:0:0:
414,286,29390,2,0,P|416:268|418:251,1,34.9999989318848,8|8,0:0|0:0,0:0:0:0:
315,301,29670,1,8,0:0:0:0:
366,383,29858,1,10,0:0:0:0:
495,259,30045,2,0,P|496:224|487:190,1,69.9999978637695,8|4,0:0|0:3,0:0:0:0:
452,123,30420,1,8,0:0:0:0:
305,45,30608,5,6,0:0:0:0:
305,45,30983,1,8,0:0:0:0:
361,116,31170,1,8,0:0:0:0:
311,195,31358,2,0,P|312:229|315:264,1,69.9999978637695,10|0,0:0|0:0,0:0:0:0:
225,92,31733,2,0,P|228:57|229:22,1,69.9999978637695,8|8,0:0|0:0,0:0:0:0:
170,153,32108,6,0,P|120:142|83:176,1,104.999996795654,6|8,0:0|0:0,0:0:0:0:
78,199,32483,1,8,0:0:0:0:
163,264,32670,1,8,0:0:0:0:
22,351,32858,2,0,P|55:349|92:345,1,69.9999978637695,6|0,0:0|0:0,0:0:0:0:
200,338,33233,1,8,0:0:0:0:
305,333,33420,1,8,0:0:0:0:
409,329,33608,5,4,0:0:0:0:
356,283,33982,1,8,0:0:0:0:
382,218,34358,1,8,0:3:0:0:
453,223,34732,1,0,0:0:0:0:
469,291,35108,1,4,0:3:0:0:
409,329,35295,1,8,0:0:0:0:
356,283,35483,1,0,0:0:0:0:
382,218,35670,1,0,0:0:0:0:
453,223,35858,1,4,0:3:0:0:
469,291,36045,1,0,0:0:0:0:
409,329,36233,5,8,0:0:0:0:
405,346,36326,1,8,0:0:0:0:
401,363,36420,1,8,0:0:0:0:
356,283,36608,6,0,P|367:214|378:144,1,139.999995727539,6|0,0:0|0:0,0:0:0:0:
378,144,37170,1,8,0:0:0:0:
296,8,37358,2,0,P|285:77|273:146,1,139.999995727539,2|0,0:0|0:0,0:0:0:0:
273,146,37920,1,8,0:0:0:0:
149,285,38108,2,0,P|160:216|171:146,1,139.999995727539,2|0,0:0|0:0,0:0:0:0:
171,146,38670,1,8,0:0:0:0:
76,201,38858,1,2,0:0:0:0:
55,229,39045,1,0,0:0:0:0:
47,328,39233,1,0,0:0:0:0:
68,356,39420,1,8,0:0:0:0:
174,274,39608,6,0,P|234:241|296:267,1,139.999995727539,6|0,0:0|0:0,0:0:0:0:
296,267,40170,1,8,0:0:0:0:
360,346,40358,2,0,P|422:372|481:339,1,139.999995727539,2|0,0:0|0:0,0:0:0:0:
481,339,40920,1,8,0:0:0:0:
478,211,41108,2,0,P|450:190|420:171,1,69.9999978637695,2|0,0:0|0:0,0:0:0:0:
244,215,41483,2,0,P|271:194|301:175,1,69.9999978637695,2|8,0:0|0:0,0:0:0:0:
350,31,41858,2,0,P|354:65|356:100,1,69.9999978637695,2|0,0:0|0:0,0:0:0:0:
369,255,42233,1,4,0:3:0:0:
369,278,42420,1,8,0:0:0:0:
442,299,42608,6,0,P|357:307|282:318,1,139.999995727539,6|8,0:0|0:0,0:0:0:0:
217,343,43170,1,8,0:0:0:0:
151,214,43358,2,0,P|193:242|217:266,1,69.9999978637695,2|0,0:0|0:0,0:0:0:0:
66,356,43733,2,0,P|110:345|143:322,1,69.9999978637695,8|8,0:0|0:0,0:0:0:0:
20,74,44108,5,14,0:0:0:0:
86,136,44295,1,8,0:0:0:0:
83,145,44358,1,8,0:0:0:0:
54,204,44483,2,0,P|63:259|69:287,1,69.9999978637695,8|8,0:0|0:0,0:0:0:0:
259,198,44858,5,2,0:0:0:0:
185,129,45045,1,8,0:0:0:0:
314,36,45233,1,8,0:0:0:0:
371,106,45420,1,8,0:0:0:0:
287,127,45608,6,0,P|278:209|271:283,1,139.999995727539,6|8,0:0|0:0,0:0:0:0:
318,318,46170,1,8,0:0:0:0:
419,239,46358,2,0,P|379:220|341:208,1,69.9999978637695,10|0,0:0|0:0,0:0:0:0:
447,328,46733,2,0,P|395:356|371:372,1,69.9999978637695,8|8,0:0|0:0,0:0:0:0:
193,273,47108,5,6,0:0:0:0:
137,195,47295,1,8,0:0:0:0:
141,187,47358,1,8,0:0:0:0:
184,134,47483,2,0,P|176:81|173:52,1,69.9999978637695,8|8,0:0|0:0,0:0:0:0:
103,274,47858,5,2,0:0:0:0:
214,206,48045,2,0,P|279:194|302:191,1,69.9999978637695,8|8,0:0|0:3,0:0:0:0:
365,218,48420,1,8,0:0:0:0:
402,288,48608,6,0,P|371:346|293:335,1,139.999995727539,6|8,0:0|0:0,0:0:0:0:
462,364,49170,1,8,0:0:0:0:
508,289,49358,2,0,P|496:232|489:201,1,69.9999978637695,6|0,0:0|0:0,0:0:0:0:
376,101,49733,2,0,P|409:134|434:154,1,69.9999978637695,8|8,0:0|0:0,0:0:0:0:
280,106,50108,5,10,0:0:0:0:
201,149,50295,1,8,0:0:0:0:
195,140,50358,1,8,0:0:0:0:
132,121,50483,2,0,P|102:112|49:105,1,69.9999978637695,8|8,0:0|0:0,0:0:0:0:
258,221,50858,2,0,P|195:232|102:220,1,139.999995727539,6|0,0:0|0:0,0:0:0:0:
329,179,51420,1,8,0:0:0:0:
277,54,51608,5,4,0:0:0:0:
377,30,51983,1,8,0:0:0:0:
444,104,52358,1,8,0:3:0:0:
422,193,52733,1,0,0:0:0:0:
338,230,53108,1,4,0:0:0:0:
249,188,53295,1,8,0:0:0:0:
156,223,53483,1,0,0:0:0:0:
156,328,53670,1,0,0:0:0:0:
237,377,53858,1,4,0:3:0:0:
326,342,54045,1,8,0:0:0:0:
243,295,54233,5,8,0:0:0:0:
240,277,54326,1,8,0:0:0:0:
237,258,54420,1,8,0:0:0:0:
208,117,54608,5,4,0:0:0:0:
298,79,54983,1,0,0:0:0:0:
368,11,55170,1,8,0:0:0:0:
391,109,55358,1,8,0:3:0:0:
391,109,55733,1,8,0:0:0:0:
391,109,56108,1,4,0:0:0:0:
447,188,56295,1,0,0:0:0:0:
437,285,56483,1,0,0:0:0:0:
381,365,56670,1,8,0:0:0:0:
282,362,56858,1,8,0:0:0:0:
282,362,57045,1,0,0:0:0:0:
198,310,57233,1,8,0:0:0:0:
119,367,57420,1,8,0:0:0:0:
39,310,57608,5,4,0:0:0:0:
119,253,57983,1,0,0:0:0:0:
128,155,58170,1,8,0:0:0:0:
39,196,58358,1,8,0:3:0:0:
39,196,58733,1,8,0:0:0:0:
39,196,59108,1,4,0:0:0:0:
128,155,59295,1,0,0:0:0:0:
226,156,59483,1,0,0:0:0:0:
314,197,59670,1,8,0:0:0:0:
171,270,59858,1,8,0:0:0:0:
39,196,60233,1,8,0:0:0:0:
53,99,60420,1,8,0:0:0:0:
143,60,60608,5,4,0:0:0:0:
236,30,60983,1,0,0:0:0:0:
308,95,61170,1,8,0:0:0:0:
329,1,61358,1,8,0:3:0:0:
329,1,61733,1,8,0:0:0:0:
329,1,62108,1,4,0:0:0:0:
327,98,62295,1,0,0:0:0:0:
422,120,62483,1,0,0:0:0:0:
420,217,62670,1,8,0:0:0:0:
324,240,62858,1,8,0:0:0:0:
324,240,63233,1,8,0:0:0:0:
316,337,63420,1,0,0:0:0:0:
235,280,63608,5,4,0:0:0:0:
56,337,63983,1,0,0:0:0:0:
50,239,64170,1,8,0:0:0:0:
137,280,64358,1,8,0:0:0:0:
235,280,64733,1,8,0:0:0:0:
316,337,64920,1,8,0:0:0:0:
396,280,65108,1,2,0:0:0:0:
316,223,65483,1,2,0:0:0:0:
235,280,65858,1,2,0:0:0:0:
155,223,66045,1,8,0:0:0:0:
139,242,66139,1,8,0:0:0:0:
123,260,66233,1,8,0:0:0:0:
75,161,66420,1,0,0:0:0:0:
152,90,66608,5,10,0:0:0:0:
238,128,66795,1,8,0:0:0:0:
233,149,66889,1,8,0:0:0:0:
230,166,66983,1,10,0:0:0:0:
323,84,67170,5,8,0:0:0:0:
318,65,67264,1,8,0:0:0:0:
313,46,67358,1,10,0:0:0:0:
391,11,67545,1,0,0:0:0:0:
474,41,67733,1,10,0:0:0:0:
488,123,67920,1,0,0:0:0:0:
395,165,68108,5,10,0:0:0:0:
347,240,68295,1,8,0:0:0:0:
359,269,68389,1,8,0:0:0:0:
368,296,68483,1,10,0:0:0:0:
278,307,68670,5,8,0:0:0:0:
272,334,68764,1,8,0:0:0:0:
266,359,68858,1,10,0:0:0:0:
182,340,69045,1,10,0:0:0:0:
99,315,69233,1,10,0:0:0:0:
23,169,69608,5,10,0:0:0:0:
98,121,69795,1,8,0:0:0:0:
105,96,69889,1,8,0:0:0:0:
111,73,69983,1,10,0:0:0:0:
214,200,70170,5,8,0:0:0:0:
209,172,70264,1,8,0:0:0:0:
204,143,70358,1,10,0:0:0:0:
286,52,70545,1,0,0:0:0:0:
398,91,70733,1,10,0:0:0:0:
398,212,70920,1,2,0:0:0:0:
336,151,71108,5,10,0:0:0:0:
472,144,71295,1,8,0:0:0:0:
481,120,71389,1,8,0:0:0:0:
489,97,71483,1,10,0:0:0:0:
505,238,71670,5,8,0:0:0:0:
496,261,71764,1,8,0:0:0:0:
487,285,71858,1,10,0:0:0:0:
406,326,72045,1,2,0:0:0:0:
329,282,72233,1,10,0:0:0:0:
150,357,72608,5,10,0:0:0:0:
97,281,72795,1,8,0:0:0:0:
104,253,72889,1,8,0:0:0:0:
110,227,72983,1,10,0:0:0:0:
7,141,73170,5,8,0:0:0:0:
13,112,73264,1,8,0:0:0:0:
19,86,73358,1,10,0:0:0:0:
104,53,73545,1,0,0:0:0:0:
185,99,73733,1,10,0:0:0:0:
100,145,73920,1,0,0:0:0:0:
183,11,74108,5,10,0:0:0:0:
267,58,74295,1,8,0:0:0:0:
295,48,74389,1,8,0:0:0:0:
322,36,74483,1,10,0:0:0:0:
379,101,74670,1,8,0:0:0:0:
409,86,74764,1,8,0:0:0:0:
435,74,74858,1,10,0:0:0:0:
345,313,75233,5,8,0:0:0:0:
232,270,75420,1,0,0:0:0:0:
118,325,75608,1,10,0:0:0:0:
135,204,75795,5,8,0:0:0:0:
146,226,75889,1,8,0:0:0:0:
155,248,75983,1,10,0:0:0:0:
233,362,76170,1,2,0:0:0:0:
307,252,76358,1,10,0:0:0:0:
307,252,76733,5,10,0:0:0:0:
223,145,76920,1,2,0:0:0:0:
310,47,77108,1,10,0:0:0:0:
313,163,77295,5,8,0:0:0:0:
315,146,77389,1,8,0:0:0:0:
317,130,77483,1,10,0:0:0:0:
146,24,77670,5,8,0:0:0:0:
151,50,77764,1,8,0:0:0:0:
156,78,77858,2,0,P|144:147|129:235,1,139.999995727539,10|8,0:0|0:0,0:0:0:0:
119,302,78420,1,0,0:0:0:0:
102,383,78608,5,14,0:0:0:0:
102,383,78983,1,8,0:0:0:0:
179,349,79170,1,8,0:0:0:0:
259,373,79358,2,0,P|293:367|327:359,1,69.9999978637695,2|0,0:0|0:0,0:0:0:0:
402,320,79733,5,8,0:0:0:0:
343,291,79858,1,0,0:0:0:0:
344,281,79920,1,8,0:0:0:0:
423,252,80108,2,0,P|420:217|415:182,1,69.9999978637695,2|0,0:0|0:0,0:0:0:0:
373,98,80483,1,8,0:0:0:0:
372,86,80545,1,0,0:0:0:0:
302,156,80670,1,8,0:0:0:0:
206,117,80858,2,0,P|187:116|169:118,2,34.9999989318848,2|0|0,0:0|0:0|0:0,0:0:0:0:
196,220,81233,5,8,0:0:0:0:
162,253,81326,1,8,0:0:0:0:
188,316,81467,1,8,0:0:0:0:
232,371,81608,6,0,P|165:349|96:349,1,139.999995727539,6|8,0:0|0:0,0:0:0:0:
33,268,82170,1,8,0:0:0:0:
83,183,82358,2,0,P|82:149|77:114,1,69.9999978637695,2|0,0:0|0:0,0:0:0:0:
153,60,82733,1,8,0:0:0:0:
241,91,82858,1,0,0:0:0:0:
241,102,82920,1,8,0:0:0:0:
328,36,83108,6,0,P|359:53|392:66,1,69.9999978637695,2|0,0:0|0:0,0:0:0:0:
477,178,83483,2,0,P|469:199|457:220,1,46.666665242513,10|0,0:0|0:0,0:0:0:0:
451,232,83670,1,8,0:0:0:0:
347,293,83857,5,2,0:0:0:0:
283,224,84045,1,0,0:0:0:0:
135,293,84233,2,0,P|105:289|76:280,1,59.9999999999999,8|0,0:0|0:0,0:0:0:0:
53,259,84608,6,0,L|57:225,1,34.9999989318848,2|0,0:0|0:0,0:0:0:0:
116,171,84795,2,0,L|112:137,1,34.9999989318848,2|0,0:0|0:0,0:0:0:0:
57,66,84983,1,8,0:0:0:0:
135,18,85170,1,8,0:0:0:0:
192,83,85358,1,8,0:3:0:0:
192,83,85733,2,0,P|190:113|191:143,1,59.9999999999999,8|0,0:0|0:0,0:0:0:0:
199,186,86108,6,0,P|196:203|191:219,1,34.9999989318848,2|0,0:0|0:0,0:0:0:0:
138,280,86295,2,0,P|142:297|147:313,1,34.9999989318848,2|0,0:0|0:0,0:0:0:0:
193,384,86483,1,0,0:0:0:0:
259,327,86670,1,8,0:0:0:0:
349,363,86858,5,8,0:3:0:0:
273,309,87045,1,0,0:0:0:0:
250,217,87233,1,8,0:3:0:0:
271,126,87420,1,0,0:0:0:0:
294,305,87608,5,8,0:3:0:0:
269,217,87795,1,0,0:0:0:0:
290,128,87983,1,0,0:0:0:0:
353,66,88170,1,8,0:0:0:0:
249,212,88358,1,8,0:3:0:0:
140,68,88733,1,8,0:0:0:0:
36,212,89108,5,10,0:0:0:0:
25,301,89295,1,0,0:0:0:0:
127,361,89483,1,2,0:0:0:0:
139,272,89670,1,8,0:0:0:0:
250,237,89858,1,8,0:0:0:0:
242,327,90045,1,0,0:0:0:0:
414,362,90233,1,8,0:0:0:0:
414,362,90608,6,0,P|423:292|429:254,1,99.9999999999999,4|0,0:0|0:0,0:0:0:0:
418,160,91170,1,0,0:0:0:0:
499,121,91358,2,0,P|487:200|482:232,1,99.9999999999999,2|0,0:0|0:0,0:0:0:0:
256,139,92108,6,0,P|300:137|308:82,1,99.9999999999999,2|0,0:0|0:0,0:0:0:0:
247,29,92670,1,0,0:0:0:0:
176,73,92858,2,0,P|177:99|178:138,2,50,2|0|0,0:0|0:0|0:0,0:0:0:0:
64,236,93608,6,0,P|118:220|178:210,1,99.9999999999999,2|0,0:0|0:0,0:0:0:0:
268,305,94170,1,0,0:0:0:0:
197,305,94358,2,0,P|214:258|246:209,1,99.9999999999999,2|0,0:0|0:0,0:0:0:0:
483,197,95108,6,0,P|446:257|416:239,2,99.9999999999999,2|0|2,0:0|0:0|0:0,0:0:0:0:
426,154,96045,1,0,0:0:0:0:
426,154,96233,1,8,0:3:0:0:
279,35,96608,6,0,P|284:102|292:153,1,99.9999999999999,2|0,0:0|0:0,0:0:0:0:
235,180,97170,1,0,0:0:0:0:
164,159,97358,2,0,P|168:98|213:96,1,99.9999999999999,2|0,0:0|0:0,0:0:0:0:
34,255,98108,6,0,P|99:268|147:287,1,99.9999999999999,2|0,0:0|0:0,0:0:0:0:
193,316,98670,1,0,0:0:0:0:
193,316,98858,1,2,0:0:0:0:
338,352,99233,5,0,0:0:0:0:
338,352,99420,1,0,0:0:0:0:
338,352,99608,2,0,P|354:275|359:249,1,99.9999999999999,2|0,0:0|0:0,0:0:0:0:
451,192,100358,2,0,P|442:145|435:89,1,99.9999999999999,2|0,0:0|0:0,0:0:0:0:
317,105,101108,5,2,0:0:0:0:
305,170,101295,1,0,0:0:0:0:
239,175,101483,1,0,0:0:0:0:
209,117,101670,1,0,0:0:0:0:
259,68,101858,2,0,P|269:33|277:12,1,50,10|0,0:0|0:0,0:0:0:0:
136,108,102233,2,0,P|129:77|119:53,1,50,8|0,0:3|0:0,0:0:0:0:
14,56,102608,5,4,0:0:0:0:
52,130,102983,1,0,0:0:0:0:
34,212,103170,1,8,0:0:0:0:
114,186,103358,1,8,0:3:0:0:
114,186,103733,1,8,0:0:0:0:
114,186,104108,1,4,0:0:0:0:
99,268,104295,1,0,0:0:0:0:
178,239,104483,1,0,0:0:0:0:
178,323,104670,1,8,0:0:0:0:
253,286,104858,1,8,0:0:0:0:
307,349,105045,1,0,0:0:0:0:
307,349,105233,1,8,0:0:0:0:
366,289,105420,1,8,0:0:0:0:
421,352,105608,5,4,0:0:0:0:
476,288,105983,1,0,0:0:0:0:
502,208,106170,1,8,0:0:0:0:
423,222,106358,1,8,0:3:0:0:
423,222,106733,1,8,0:0:0:0:
423,222,107108,1,4,0:0:0:0:
398,139,107295,1,0,0:0:0:0:
337,197,107483,1,0,0:0:0:0:
274,140,107670,1,8,0:0:0:0:
336,83,107858,1,8,0:0:0:0:
336,83,108045,1,8,0:0:0:0:
276,23,108233,1,8,0:3:0:0:
212,78,108608,5,4,0:0:0:0:
141,33,108983,1,0,0:0:0:0:
68,75,109170,1,8,0:0:0:0:
142,116,109358,1,8,0:0:0:0:
142,116,109733,1,8,0:0:0:0:
142,116,110108,1,4,0:0:0:0:
226,130,110295,1,0,0:0:0:0:
280,65,110483,1,0,0:0:0:0:
363,68,110670,1,8,0:0:0:0:
226,130,110858,5,8,0:0:0:0:
280,193,111233,1,8,0:0:0:0:
363,195,111420,1,8,0:0:0:0:
419,132,111608,5,4,0:0:0:0:
479,190,111983,1,0,0:0:0:0:
509,268,112170,1,8,0:0:0:0:
425,255,112358,1,8,0:3:0:0:
363,195,112733,1,8,0:0:0:0:
319,266,112920,1,8,0:0:0:0:
257,376,113108,5,2,0:0:0:0:
161,237,113483,1,2,0:0:0:0:
60,371,113858,1,2,0:0:0:0:
161,329,114045,1,0,0:0:0:0:
71,273,114233,1,8,0:0:0:0:
68,243,114326,1,8,0:0:0:0:
66,212,114420,1,8,0:0:0:0:
94,108,114608,5,10,0:0:0:0:
194,88,114795,1,8,0:0:0:0:
189,120,114889,1,8,0:0:0:0:
184,153,114983,1,10,0:0:0:0:
330,200,115170,5,8,0:0:0:0:
324,234,115264,1,8,0:0:0:0:
319,266,115358,1,10,0:0:0:0:
246,219,115545,1,2,0:0:0:0:
288,129,115733,1,10,0:0:0:0:
380,133,115920,1,0,0:0:0:0:
416,222,116108,5,10,0:0:0:0:
477,148,116295,1,8,0:0:0:0:
478,120,116389,1,8,0:0:0:0:
478,91,116483,1,10,0:0:0:0:
414,232,116670,5,8,0:0:0:0:
415,256,116764,1,8,0:0:0:0:
417,284,116858,1,10,0:0:0:0:
327,303,117045,1,2,0:0:0:0:
247,272,117233,1,10,0:0:0:0:
219,52,117608,5,10,0:0:0:0:
141,98,117795,1,8,0:0:0:0:
137,126,117889,1,8,0:0:0:0:
134,152,117983,1,10,0:0:0:0:
316,52,118170,5,8,0:0:0:0:
320,80,118264,1,8,0:0:0:0:
323,106,118358,1,10,0:0:0:0:
395,152,118545,1,2,0:0:0:0:
373,243,118733,1,10,0:0:0:0:
352,334,118920,1,0,0:0:0:0:
257,345,119108,5,10,0:0:0:0:
238,256,119295,1,8,0:0:0:0:
231,228,119389,1,8,0:0:0:0:
225,200,119483,1,10,0:0:0:0:
59,266,119670,5,8,0:0:0:0:
64,241,119764,1,8,0:0:0:0:
68,216,119858,1,10,0:0:0:0:
82,129,120045,1,2,0:0:0:0:
100,38,120233,1,10,0:0:0:0:
333,26,120608,5,10,0:0:0:0:
402,84,120795,1,8,0:0:0:0:
396,109,120889,1,8,0:0:0:0:
391,131,120983,1,10,0:0:0:0:
285,217,121170,5,8,0:0:0:0:
279,190,121264,1,8,0:0:0:0:
272,164,121358,1,10,0:0:0:0:
369,204,121545,1,2,0:0:0:0:
294,287,121733,1,10,0:0:0:0:
202,238,121920,1,0,0:0:0:0:
386,298,122108,5,10,0:0:0:0:
318,366,122295,1,8,0:0:0:0:
287,360,122389,1,8,0:0:0:0:
255,353,122483,1,10,0:0:0:0:
158,371,122670,1,8,0:0:0:0:
129,361,122764,1,8,0:0:0:0:
103,354,122858,1,10,0:0:0:0:
59,158,123233,5,8,0:0:0:0:
179,129,123420,1,2,0:0:0:0:
299,104,123608,1,10,0:0:0:0:
160,0,123795,5,8,0:0:0:0:
162,25,123889,1,8,0:0:0:0:
164,47,123983,1,10,0:0:0:0:
179,129,124170,1,2,0:0:0:0:
192,219,124358,1,10,0:0:0:0:
429,129,124733,5,10,0:0:0:0:
349,218,124920,1,2,0:0:0:0:
411,325,125108,1,10,0:0:0:0:
488,216,125295,5,8,0:0:0:0:
467,228,125389,1,8,0:0:0:0:
447,241,125483,1,10,0:0:0:0:
319,309,125670,1,8,0:0:0:0:
298,321,125764,1,8,0:0:0:0:
278,334,125858,1,10,0:0:0:0:
189,315,126045,1,2,0:0:0:0:
104,289,126233,1,10,0:0:0:0:
255,171,126608,5,4,0:0:0:0:
236,175,127170,1,0,0:0:0:0:
166,155,127358,1,8,0:3:0:0:
161,168,127920,1,0,0:0:0:0:
91,188,128108,1,4,0:3:0:0:
85,200,128670,1,0,2:0:0:0:
135,252,128858,1,8,0:3:0:0:
135,252,129233,1,4,0:3:0:0:
135,252,129608,5,4,0:0:0:0:
141,272,130170,1,0,0:0:0:0:
211,252,130358,1,8,0:3:0:0:
211,264,130920,1,0,0:0:0:0:
281,284,131108,1,4,0:3:0:0:
283,273,131670,1,0,0:0:0:0:
353,253,131858,1,8,0:3:0:0:
353,253,132233,1,4,0:3:0:0:
353,253,132608,5,4,0:0:0:0:
376,255,133170,1,0,0:0:0:0:
432,209,133358,1,8,0:3:0:0:
433,195,133920,1,0,0:0:0:0:
377,149,134108,1,4,0:3:0:0:
378,132,134670,1,0,0:0:0:0:
434,86,134858,1,8,0:3:0:0:
434,86,135233,1,4,0:3:0:0:
434,86,135607,5,4,0:0:0:0:
436,75,136170,1,0,0:0:0:0:
380,29,136358,1,8,0:3:0:0:
378,44,136920,1,0,0:0:0:0:
316,81,137108,6,0,P|286:78|256:72,1,59.9999981689453,4|0,0:3|0:0,0:0:0:0:
198,30,137483,2,0,P|168:35|138:38,1,59.9999981689453,8|0,0:3|0:0,0:0:0:0:
83,85,137858,2,0,P|53:82|23:76,1,59.9999981689453,4|0,0:3|0:0,0:0:0:0:
117,153,138233,1,4,0:3:0:0:
81,352,138608,6,0,P|134:345|183:339,1,99.9999999999999,6|8,0:0|0:0,0:0:0:0:
333,356,139170,1,0,0:0:0:0:
404,339,139358,2,0,P|389:291|378:242,1,99.9999999999999,2|8,0:0|0:0,0:0:0:0:
374,91,139920,1,0,0:0:0:0:
395,21,140108,6,0,P|356:24|296:25,1,99.9999999999999,2|8,0:0|0:0,0:0:0:0:
140,27,140670,1,0,0:0:0:0:
88,86,140858,2,0,P|85:108|80:136,1,50,8|0,0:3|0:0,0:0:0:0:
177,308,141233,2,0,P|177:276|186:233,1,74.9999999999999,4|0,0:3|0:0,0:0:0:0:
195,200,141608,6,0,P|205:247|250:263,1,99.9999999999999,6|8,0:0|0:0,0:0:0:0:
386,152,142170,1,0,0:0:0:0:
311,195,142358,2,0,P|313:145|318:95,1,99.9999999999999,2|8,0:0|0:0,0:0:0:0:
468,59,142920,1,0,0:0:0:0:
474,131,143108,6,0,P|433:158|385:151,1,99.9999999999999,2|8,0:0|0:0,0:0:0:0:
479,280,143670,1,0,0:0:0:0:
486,351,143858,2,0,P|458:348|436:344,1,50,8|0,0:3|0:0,0:0:0:0:
229,311,144233,2,0,P|267:309|303:300,1,74.9999999999999,8|0,0:3|0:0,0:0:0:0:
311,275,144608,6,0,P|261:273|213:258,1,99.9999999999999,6|8,0:0|0:0,0:0:0:0:
93,206,145170,1,0,0:0:0:0:
40,260,145358,2,0,P|43:310|45:360,1,99.9999999999999,2|8,0:0|0:0,0:0:0:0:
168,201,145920,1,0,0:0:0:0:
228,159,146108,6,0,P|229:109|233:59,1,99.9999999999999,2|8,0:0|0:0,0:0:0:0:
364,194,146670,1,0,0:0:0:0:
358,122,146858,2,0,P|335:110|311:111,1,50,8|0,0:3|0:0,0:0:0:0:
157,172,147233,2,0,P|152:209|152:246,1,74.9999999999999,8|0,0:3|0:0,0:0:0:0:
144,263,147608,6,0,P|95:253|51:274,1,99.9999999999999,6|8,0:0|0:0,0:0:0:0:
201,356,148170,1,0,0:0:0:0:
249,305,148358,2,0,P|298:301|348:300,1,99.9999999999999,2|8,0:0|0:0,0:0:0:0:
487,317,148920,1,0,0:0:0:0:
424,284,149108,5,2,0:0:0:0:
408,215,149295,1,8,0:3:0:0:
435,150,149483,1,8,0:3:0:0:
479,96,149670,1,4,0:3:0:0:
425,40,149858,2,0,P|383:41|348:33,1,74.9999999999999,8|0,0:3|0:0,0:0:0:0:
329,48,150233,2,0,P|328:85|322:122,1,74.9999999999999,8|0,0:3|0:0,0:0:0:0:
261,152,150608,6,0,P|225:149|142:140,1,99.9999999999999,6|8,0:0|0:0,0:0:0:0:
100,107,151170,2,0,P|91:75|86:53,1,50,10|0,0:0|0:0,0:0:0:0:
35,162,151545,1,2,0:0:0:0:
35,162,151733,1,10,0:0:0:0:
35,162,151920,2,0,P|27:215|25:231,1,50,10|0,0:0|0:0,0:0:0:0:
104,255,152295,1,2,0:0:0:0:
104,255,152483,1,10,0:0:0:0:
104,255,152670,2,0,P|98:292|97:316,1,50,10|0,0:0|0:0,0:0:0:0:
178,211,153045,1,2,0:0:0:0:
178,211,153233,1,10,0:0:0:0:
178,211,153420,1,10,0:0:0:0:
233,250,153608,6,0,P|279:243|342:238,1,99.9999999999999,2|8,0:0|0:0,0:0:0:0:
376,182,154170,2,0,P|363:155|327:155,1,50,10|0,0:0|0:0,0:0:0:0:
404,252,154545,1,2,0:0:0:0:
404,252,154733,1,10,0:0:0:0:
404,252,154920,2,0,P|437:268|459:264,1,50,10|0,0:0|0:0,0:0:0:0:
506,218,155295,1,2,0:0:0:0:
506,218,155483,1,10,0:0:0:0:
506,218,155670,2,0,P|458:239|410:279,1,99.9999999999999,10|0,0:0|0:0,0:0:0:0:
358,302,156233,1,2,0:0:0:0:
175,344,156608,6,0,P|188:288|240:298,1,99.9999999999999,2|8,0:0|0:0,0:0:0:0:
279,321,157170,2,0,P|270:352|268:373,1,50,10|0,0:0|0:0,0:0:0:0:
291,243,157545,1,2,0:0:0:0:
291,243,157733,1,10,0:0:0:0:
291,243,157920,1,10,0:0:0:0:
229,202,158108,6,0,P|216:143|208:86,1,99.9999999999999,2|8,0:0|0:0,0:0:0:0:
113,105,158670,2,0,P|138:137|147:159,1,50,10|0,0:0|0:0,0:0:0:0:
166,40,159045,1,2,0:0:0:0:
166,40,159233,1,2,0:0:0:0:
166,40,159420,1,10,0:0:0:0:
243,37,159608,6,0,B|306:28|274:65|357:39,1,99.9999999999999,2|8,0:0|0:0,0:0:0:0:
434,25,160170,2,0,P|421:52|413:82,1,50,10|0,0:0|0:0,0:0:0:0:
355,117,160545,1,2,0:0:0:0:
355,117,160733,1,10,0:0:0:0:
421,158,160920,1,10,0:0:0:0:
416,175,161014,1,2,0:0:0:0:
411,192,161108,5,2,0:0:0:0:
351,231,161295,1,0,0:0:0:0:
284,207,161483,1,10,0:0:0:0:
353,242,161670,1,8,0:0:0:0:
369,312,161858,2,0,P|361:340|354:372,1,50,2|0,0:0|0:0,0:0:0:0:
232,363,162233,5,8,0:0:0:0:
235,351,162326,1,8,0:0:0:0:
239,337,162420,1,8,0:0:0:0:
244,324,162514,1,8,0:0:0:0:
250,305,162608,6,0,P|215:298|181:289,1,69.9999978637695,10|8,0:0|0:0,0:0:0:0:
106,246,162889,1,8,0:0:0:0:
118,214,162983,2,0,P|152:206|186:197,1,69.9999978637695,10|0,0:0|0:0,0:0:0:0:
264,167,163358,1,10,0:0:0:0:
344,190,163545,1,2,0:0:0:0:
418,151,163733,1,10,0:0:0:0:
500,163,163920,1,8,0:0:0:0:
500,128,164014,1,8,0:0:0:0:
494,93,164108,6,0,P|460:82|429:67,1,69.9999978637695,10|0,0:0|0:0,0:0:0:0:
373,23,164389,1,8,0:0:0:0:
338,29,164483,2,0,P|306:43|273:54,1,69.9999978637695,10|0,0:0|0:0,0:0:0:0:
203,61,164764,1,8,0:0:0:0:
174,78,164858,2,0,P|169:112|168:147,1,69.9999978637695,10|2,0:0|0:0,0:0:0:0:
177,229,165139,1,0,0:0:0:0:
177,229,165233,1,10,0:0:0:0:
109,264,165420,1,8,0:3:0:0:
190,302,165608,6,0,P|223:295|259:291,1,69.9999978637695,10|0,0:0|0:0,0:0:0:0:
327,256,165889,1,8,0:0:0:0:
317,224,165983,2,0,P|283:217|247:213,1,69.9999978637695,10|0,0:0|0:0,0:0:0:0:
63,187,166358,1,10,0:0:0:0:
153,121,166545,1,2,0:0:0:0:
181,12,166733,1,10,0:0:0:0:
303,39,166920,1,8,0:0:0:0:
317,69,167014,1,8,0:0:0:0:
332,98,167108,6,0,P|367:96|402:94,1,69.9999978637695,10|0,0:0|0:0,0:0:0:0:
453,148,167389,1,8,0:0:0:0:
435,178,167483,2,0,P|400:176|365:174,1,69.9999978637695,10|0,0:0|0:0,0:0:0:0:
320,228,167764,1,8,0:0:0:0:
338,258,167858,2,0,P|372:256|407:254,1,69.9999978637695,10|0,0:0|0:0,0:0:0:0:
505,252,168139,1,8,0:0:0:0:
505,252,168233,1,10,0:0:0:0:
424,367,168420,1,8,0:3:0:0:
287,323,168608,6,0,P|252:320|217:314,1,69.9999978637695,10|0,0:0|0:0,0:0:0:0:
153,281,168889,1,8,0:0:0:0:
127,302,168983,2,0,P|120:336|114:370,1,69.9999978637695,10|0,0:0|0:0,0:0:0:0:
44,247,169358,1,10,0:0:0:0:
48,163,169545,1,2,0:0:0:0:
102,99,169733,1,10,0:0:0:0:
182,75,169920,1,8,0:0:0:0:
209,93,170014,1,8,0:0:0:0:
245,99,170108,6,0,P|279:101|314:95,1,69.9999978637695,10|0,0:0|0:0,0:0:0:0:
357,32,170389,1,8,0:0:0:0:
382,52,170483,2,0,P|392:85|392:120,1,69.9999978637695,10|0,0:0|0:0,0:0:0:0:
373,199,170764,1,8,0:0:0:0:
356,229,170858,2,0,P|321:236|286:236,1,69.9999978637695,10|0,0:0|0:0,0:0:0:0:
173,194,171233,5,10,0:0:0:0:
103,285,171420,1,2,0:0:0:0:
213,326,171608,1,10,0:0:0:0:
286,236,171795,5,8,0:0:0:0:
299,218,171889,1,8,0:0:0:0:
315,199,171983,1,10,0:0:0:0:
409,296,172170,1,2,0:0:0:0:
478,195,172358,2,0,P|458:141|444:110,1,69.9999978637695,10|0,0:0|0:0,0:0:0:0:
341,79,172733,5,10,0:0:0:0:
420,50,172920,1,2,0:0:0:0:
289,19,173108,2,0,P|256:31|221:35,1,69.9999978637695,10|0,0:0|0:0,0:0:0:0:
242,109,173389,1,8,0:0:0:0:
213,123,173483,2,0,P|179:111|146:97,1,69.9999978637695,10|0,0:0|0:0,0:0:0:0:
175,204,173764,1,8,0:0:0:0:
204,218,173858,2,0,P|237:206|270:192,1,69.9999978637695,10|0,0:0|0:0,0:0:0:0:
294,113,174139,1,8,0:0:0:0:
293,79,174233,1,10,0:0:0:0:
192,24,174420,1,2,0:0:0:0:
60,60,174608,6,0,P|88:101|107:142,1,69.9999978637695,10|0,0:0|0:0,0:0:0:0:
20,171,174889,1,8,0:0:0:0:
48,181,174983,2,0,P|82:205|112:234,1,69.9999978637695,10|0,0:0|0:0,0:0:0:0:
177,236,175264,1,8,0:0:0:0:
174,268,175358,1,10,0:0:0:0:
265,312,175545,1,2,0:0:0:0:
347,258,175733,1,10,0:0:0:0:
261,208,175920,1,0,0:0:0:0:
357,348,176108,6,0,P|413:331|457:329,1,69.9999978637695,10|0,0:0|0:0,0:0:0:0:
485,277,176389,1,8,0:0:0:0:
476,251,176482,2,0,P|442:236|415:265,1,69.9999978637695,10|0,0:0|0:0,0:0:0:0:
396,180,176764,1,8,0:0:0:0:
377,202,176858,2,0,P|381:139|399:49,1,139.999995727539,10|10,0:0|0:0,0:0:0:0:
468,15,177420,1,8,0:3:0:0:
311,15,177608,6,0,P|308:63|302:109,1,69.9999978637695,10|0,0:0|0:0,0:0:0:0:
239,122,177889,1,8,0:0:0:0:
220,113,177983,2,0,P|207:90|240:52,1,69.9999978637695,10|0,0:0|0:0,0:0:0:0:
313,174,178358,1,10,0:0:0:0:
231,223,178545,1,2,0:0:0:0:
136,190,178733,1,10,0:0:0:0:
95,85,178920,1,8,0:0:0:0:
104,65,179014,1,8,0:0:0:0:
115,45,179108,6,0,P|123:86|130:124,1,69.9999978637695,10|0,0:0|0:0,0:0:0:0:
64,162,179389,1,8,0:0:0:0:
54,183,179483,2,0,P|61:232|97:241,1,69.9999978637695,10|0,0:0|0:0,0:0:0:0:
164,270,179764,1,8,0:0:0:0:
155,287,179858,5,10,0:0:0:0:
212,196,180045,1,2,0:0:0:0:
316,215,180233,1,10,0:0:0:0:
268,292,180420,1,8,0:3:0:0:
281,315,180514,1,8,0:0:0:0:
291,336,180608,6,0,P|344:311|376:298,1,69.9999978637695,10|0,0:0|0:0,0:0:0:0:
447,304,180889,1,8,0:0:0:0:
465,311,180983,2,0,P|487:334|513:370,1,69.9999978637695,10|0,0:0|0:0,0:0:0:0:
398,235,181358,1,10,0:0:0:0:
389,147,181545,1,2,0:0:0:0:
427,65,181733,1,10,0:0:0:0:
501,17,181920,1,0,0:0:0:0:
349,78,182108,6,0,P|298:105|267:86,1,69.9999978637695,10|0,0:0|0:0,0:0:0:0:
207,96,182389,1,8,0:0:0:0:
214,78,182483,2,0,P|224:38|237:5,1,69.9999978637695,10|0,0:0|0:0,0:0:0:0:
122,32,182764,1,8,0:0:0:0:
127,55,182858,2,0,P|131:109|132:152,1,69.9999978637695,10|2,0:0|0:0,0:0:0:0:
68,226,183233,5,10,0:0:0:0:
166,296,183420,1,2,0:0:0:0:
270,229,183608,1,10,0:0:0:0:
217,167,183795,5,8,0:0:0:0:
204,185,183889,1,8,0:0:0:0:
188,204,183983,1,10,0:0:0:0:
265,307,184170,1,2,0:0:0:0:
369,233,184358,2,0,P|389:179|403:148,1,69.9999978637695,10|0,0:0|0:0,0:0:0:0:
279,232,184733,5,10,0:0:0:0:
372,318,184920,1,2,0:0:0:0:
496,248,185108,2,0,P|464:241|446:281,1,69.9999978637695,10|0,0:0|0:0,0:0:0:0:
445,284,185389,1,8,0:0:0:0:
452,302,185483,1,10,0:0:0:0:
483,167,185670,1,0,0:0:0:0:
422,65,185858,2,0,P|379:53|349:48,2,69.9999978637695,10|0|10,0:0|0:0|0:0,0:0:0:0:
270,89,186608,6,0,P|210:94|150:103,1,120,10|8,0:0|0:0,0:0:0:0:
122,86,186983,2,0,P|83:94|53:120,1,79.9999999999999,10|0,0:0|0:0,0:0:0:0:
23,208,187264,1,8,0:0:0:0:
43,233,187358,1,10,0:0:0:0:
122,177,187545,1,2,0:0:0:0:
119,273,187733,1,10,0:0:0:0:
117,368,187920,1,0,0:0:0:0:
40,320,188108,5,10,0:0:0:0:
202,322,188295,1,8,0:0:0:0:
232,330,188389,1,8,0:0:0:0:
262,339,188483,1,10,0:0:0:0:
309,189,188670,1,8,0:0:0:0:
278,179,188764,1,8,0:0:0:0:
247,167,188858,2,0,P|250:127|253:87,1,79.9999999999999,10|2,0:0|0:0,0:0:0:0:
92,194,189233,1,10,0:0:0:0:
92,194,189420,1,8,0:3:0:0:
64,30,189608,6,0,P|123:34|183:35,1,120,10|8,0:0|0:0,0:0:0:0:
222,16,189983,2,0,P|261:17|301:25,1,79.9999999999999,10|0,0:0|0:0,0:0:0:0:
362,120,190264,1,8,0:0:0:0:
378,103,190358,1,10,0:0:0:0:
459,46,190545,1,2,0:0:0:0:
459,142,190733,1,10,0:0:0:0:
459,237,190920,1,0,0:0:0:0:
360,306,191108,5,10,0:0:0:0:
247,265,191295,1,8,0:0:0:0:
216,274,191389,1,8,0:0:0:0:
184,281,191483,1,10,0:0:0:0:
155,129,191670,1,8,0:0:0:0:
123,123,191764,1,8,0:0:0:0:
91,116,191858,2,0,P|88:155|82:195,1,79.9999999999999,10|2,0:0|0:0,0:0:0:0:
45,358,192233,1,10,0:0:0:0:
45,358,192420,1,8,0:3:0:0:
194,356,192608,6,0,P|253:351|313:347,1,120,10|0,0:0|0:0,0:0:0:0:
349,365,192983,2,0,P|388:361|427:352,1,79.9999999999999,10|0,0:0|0:0,0:0:0:0:
502,298,193264,1,8,0:0:0:0:
489,283,193358,1,10,0:0:0:0:
446,197,193545,1,2,0:0:0:0:
349,197,193733,1,10,0:0:0:0:
253,197,193920,1,0,0:0:0:0:
171,302,194108,5,10,0:0:0:0:
76,159,194295,1,8,0:0:0:0:
72,190,194389,1,8,0:0:0:0:
69,221,194483,1,10,0:0:0:0:
229,107,194670,1,8,0:0:0:0:
235,75,194764,1,8,0:0:0:0:
239,43,194858,2,0,P|179:33|120:25,1,120,10|8,0:0|0:0,0:0:0:0:
0,13,195233,5,10,0:0:0:0:
166,120,195420,1,2,0:0:0:0:
29,13,195608,2,0,P|30:73|29:133,1,120,10|8,0:0|0:0,0:0:0:0:
25,272,195983,5,10,0:0:0:0:
198,140,196170,1,2,0:0:0:0:
54,290,196358,2,0,P|110:311|166:332,1,120,10|8,0:0|0:0,0:0:0:0:
316,366,196733,5,10,0:0:0:0:
233,159,196920,1,2,0:0:0:0:
347,365,197108,2,0,P|384:329|433:281,1,120,10|8,0:0|0:0,0:0:0:0:
466,165,197483,6,0,P|431:207|383:180,1,120,10|8,0:0|0:0,0:0:0:0:
351,49,197858,2,0,P|385:6|433:33,1,120,10|0,0:0|0:0,0:0:0:0:
462,99,198233,5,10,0:0:0:0:
419,109,198326,1,8,0:0:0:0:
379,115,198420,1,10,0:0:0:0:
339,123,198514,1,8,0:0:0:0:
306,147,198608,6,0,P|247:140|188:128,1,120,10|8,0:0|0:0,0:0:0:0:
48,113,198983,1,10,0:0:0:0:
68,257,199170,1,2,0:0:0:0:
45,82,199358,6,0,P|103:68|161:55,1,120,10|8,0:0|0:0,0:0:0:0:
299,28,199733,1,10,0:0:0:0:
192,227,199920,1,2,0:0:0:0:
327,27,200108,6,0,P|343:84|362:141,1,120,10|8,0:0|0:0,0:0:0:0:
364,272,200483,2,0,P|396:224|453:223,1,120,10|8,0:0|0:0,0:0:0:0:
344,367,200858,2,0,P|290:340|231:337,1,120,10|8,0:0|0:0,0:0:0:0:
148,345,201233,1,10,0:0:0:0:
108,339,201326,1,8,0:0:0:0:
68,331,201420,1,10,0:0:0:0:
39,302,201514,1,8,0:0:0:0:
45,255,201608,5,10,0:0:0:0:
45,255,201795,1,0,0:0:0:0:
106,180,201983,5,10,0:0:0:0:
173,112,202170,1,2,0:0:0:0:
237,40,202358,5,10,0:0:0:0:
237,40,202545,1,0,0:0:0:0:
297,114,202733,5,10,0:0:0:0:
351,192,202920,1,2,0:0:0:0:
406,270,203108,6,0,P|406:309|407:349,1,79.9999999999999,10|0,0:0|0:0,0:0:0:0:
327,312,203389,1,8,0:0:0:0:
305,288,203483,1,10,0:0:0:0:
351,192,203670,1,2,0:0:0:0:
448,118,203858,5,10,0:0:0:0:
412,99,203951,1,8,0:0:0:0:
374,84,204045,1,8,0:0:0:0:
334,80,204139,1,8,0:0:0:0:
295,90,204233,1,10,0:0:0:0:
258,105,204326,1,8,0:0:0:0:
225,128,204420,1,8,0:0:0:0:
201,160,204514,1,8,0:0:0:0:
188,198,204608,6,0,P|152:268|98:257,1,120,10|8,0:0|0:0,0:0:0:0:
65,221,204983,2,0,P|53:156|53:113,1,79.9999999999999,10|0,0:0|0:0,0:0:0:0:
292,200,205358,2,0,P|280:251|262:371,1,160,10|10,0:0|0:0,0:0:0:0:
349,370,205920,1,0,0:0:0:0:
508,230,206108,6,0,P|460:218|391:271,1,120,10|8,0:0|0:0,0:0:0:0:
359,190,206483,2,0,P|351:125|349:89,1,79.9999999999999,10|0,0:0|0:0,0:0:0:0:
405,40,206858,1,10,0:0:0:0:
443,120,207045,1,0,0:0:0:0:
268,114,207233,1,10,0:0:0:0:
305,28,207420,1,10,0:0:0:0:
353,115,207608,5,10,0:0:0:0:
260,123,207795,1,8,0:0:0:0:
242,116,207889,1,8,0:0:0:0:
224,103,207983,1,10,0:0:0:0:
189,23,208170,1,0,0:0:0:0:
298,42,208358,2,0,P|256:104|228:161,1,120,10|8,0:0|0:0,0:0:0:0:
171,176,208733,2,0,P|186:226|203:269,1,79.9999999999999,10|8,0:0|0:0,0:0:0:0:
277,333,209108,5,10,0:0:0:0:
355,291,209295,1,8,0:0:0:0:
363,268,209389,1,8,0:0:0:0:
364,245,209483,1,10,0:0:0:0:
347,163,209670,1,0,0:0:0:0:
450,283,209858,5,10,0:0:0:0:
360,232,210045,1,0,0:0:0:0:
268,241,210233,1,10,0:0:0:0:
208,310,210420,1,8,0:0:0:0:
146,232,210608,6,0,P|175:271|137:327,1,120,2|8,0:0|0:0,0:0:0:0:
76,348,210983,2,0,P|24:335|-7:329,1,79.9999999999999,10|0,0:0|0:0,0:0:0:0:
127,134,211358,2,0,P|178:146|302:174,1,160,10|10,0:0|0:0,0:0:0:0:
65,183,211920,1,8,0:0:0:0:
108,51,212108,5,2,0:0:0:0:
204,38,212295,1,0,0:0:0:0:
276,89,212483,1,10,0:0:0:0:
281,83,212545,1,2,0:0:0:0:
337,47,212670,1,2,0:0:0:0:
425,81,212858,2,0,P|412:121|391:245,1,160,10|10,0:0|0:0,0:0:0:0:
458,291,213420,1,8,0:0:0:0:
509,211,213608,5,10,0:0:0:0:
491,194,213701,1,8,0:0:0:0:
468,182,213795,1,8,0:0:0:0:
377,146,213983,1,10,0:0:0:0:
354,135,214076,1,8,0:0:0:0:
328,131,214170,1,8,0:0:0:0:
243,148,214358,1,10,0:0:0:0:
166,198,214545,1,0,0:0:0:0:
72,204,214733,1,10,0:0:0:0:
16,169,214858,1,2,0:0:0:0:
11,158,214920,1,8,0:0:0:0:
65,92,215108,6,0,P|83:46|95:9,2,79.9999999999999,10|0|10,0:0|0:0|0:0,0:0:0:0:
7,24,215670,1,0,0:0:0:0:
164,76,215858,2,0,P|206:51|334:46,1,160,10|10,0:0|0:0,0:0:0:0:
