osu file format v14

[General]
AudioFilename: audio.mp3
AudioLeadIn: 0
PreviewTime: 61007
Countdown: 1
SampleSet: Normal
StackLeniency: 0.7
Mode: 0
LetterboxInBreaks: 0
WidescreenStoryboard: 1

[Editor]
Bookmarks: 1679,11784,21889,31994,42100,52205,57257,81257,82521,92626,102731,112836,126731,132889,142994,151994,153257,173468,182942,193521,196047,212626,213889,223994,233626
DistanceSpacing: 2.5
BeatDivisor: 4
GridSize: 32
TimelineZoom: 2.2

[Metadata]
Title:Nami no Zankyou
TitleUnicode:波の残響
Artist:Barbarian On The Groove feat. Shimotsuki Haruka
ArtistUnicode:Barbarian On The Groove feat. 霜月はるか
Creator:Lasse
Version:Affection
Source:夢か現かマトリョーシカ
Tags:hishiro chizuru amb1d3x yume ka utsutsu matryoshka エフォルダムソフトcrown Effordom Soft japanese rock pop eroge visual novel
BeatmapID:2618287
BeatmapSetID:1259546

[Difficulty]
HPDrainRate:5.4
CircleSize:4
OverallDifficulty:9
ApproachRate:9.2
SliderMultiplier:1.7
SliderTickRate:1

[Events]
//Background and Video events
0,0,"unrelatedbg3.jpg",0,0
//Break Periods
//Storyboard Layer 0 (Background)
//Storyboard Layer 1 (Fail)
//Storyboard Layer 2 (Pass)
//Storyboard Layer 3 (Foreground)
//Storyboard Layer 4 (Overlay)
//Storyboard Sound Samples

[TimingPoints]
1679,315.789473684211,4,2,78,54,1,0
1679,-142.857142857143,4,2,78,54,0,0
6100,-142.857142857143,4,1,52,62,0,0
6257,-142.857142857143,4,1,51,62,0,0
6573,-125,4,2,78,56,0,0
9257,-111.111111111111,4,2,78,58,0,0
11152,-111.111111111111,4,1,51,64,0,0
11310,-111.111111111111,4,1,52,64,0,0
11784,-90.9090909090909,4,1,34,68,0,0
11942,-90.9090909090909,4,1,35,68,0,0
16205,-90.9090909090909,4,1,52,68,0,0
16679,-90.9090909090909,4,1,35,68,0,0
21257,-90.9090909090909,4,1,52,68,0,0
21889,-166.666666666667,4,2,35,50,0,0
31994,-153.846153846154,4,2,35,52,0,0
41626,-142.857142857143,4,1,35,67,0,0
42100,-100,4,1,34,65,0,0
42415,-100,4,1,35,65,0,0
48415,-100,4,1,36,65,0,0
48731,-100,4,1,35,65,0,0
52047,-100,4,1,36,65,0,0
52205,-100,4,1,34,65,0,0
52521,-100,4,1,35,65,0,0
57257,-90.9090909090909,4,1,34,67,0,0
57573,-90.9090909090909,4,1,35,67,0,0
59784,-90.9090909090909,4,1,36,67,0,0
60100,-90.9090909090909,4,1,35,67,0,0
60889,-90.9090909090909,4,1,35,60,0,0
61047,-90.9090909090909,4,1,35,64,0,0
61521,-90.9090909090909,4,1,35,66,0,0
61836,-90.9090909090909,4,1,35,68,0,0
62152,-83.3333333333333,4,1,34,72,0,0
62310,-83.3333333333333,4,1,35,72,0,0
67363,-83.3333333333333,4,1,34,72,0,0
67679,-83.3333333333333,4,1,35,72,0,0
68626,-83.3333333333333,4,1,36,72,0,0
68942,-83.3333333333333,4,1,35,72,0,0
69889,-83.3333333333333,4,1,34,72,0,0
70205,-83.3333333333333,4,1,35,72,0,0
71784,-83.3333333333333,4,1,36,72,0,0
71942,-83.3333333333333,4,1,35,72,0,0
72257,-83.3333333333333,4,1,34,72,0,0
72415,-83.3333333333333,4,1,35,72,0,0
77468,-100,4,1,34,70,0,0
77784,-100,4,1,35,68,0,0
79363,-100,4,1,35,70,0,0
79994,-83.3333333333333,4,1,36,72,0,0
80310,-83.3333333333333,4,1,35,72,0,0
82521,-90.9090909090909,4,1,34,68,0,0
82679,-90.9090909090909,4,1,35,68,0,0
86942,-90.9090909090909,4,1,52,68,0,0
87415,-90.9090909090909,4,1,35,68,0,0
91994,-90.9090909090909,4,1,52,68,0,0
92626,-111.111111111111,4,1,34,60,0,0
92942,-111.111111111111,4,1,35,60,0,0
102731,-111.111111111111,4,1,34,60,0,0
103047,-111.111111111111,4,1,35,60,0,0
112679,-111.111111111111,4,1,36,60,0,0
112836,-99.9999999999999,4,1,34,65,0,0
113152,-99.9999999999999,4,1,35,65,0,0
119152,-99.9999999999999,4,1,36,65,0,0
119468,-99.9999999999999,4,1,35,65,0,0
122784,-99.9999999999999,4,1,36,65,0,0
122942,-99.9999999999999,4,1,34,65,0,0
123257,-99.9999999999999,4,1,35,65,0,0
127994,-90.9090909090909,4,1,34,67,0,0
128310,-90.9090909090909,4,1,35,67,0,0
130521,-90.9090909090909,4,1,36,67,0,0
130836,-90.9090909090909,4,1,35,67,0,0
131626,-90.9090909090909,4,1,35,60,0,0
131784,-90.9090909090909,4,1,35,64,0,0
132257,-90.9090909090909,4,1,35,66,0,0
132572,-90.9090909090909,4,1,35,68,0,0
132889,-83.3333333333333,4,1,34,72,0,0
133047,-83.3333333333333,4,1,35,72,0,0
138100,-83.3333333333333,4,1,34,72,0,0
138415,-83.3333333333333,4,1,35,72,0,0
139363,-83.3333333333333,4,1,36,72,0,0
139679,-83.3333333333333,4,1,35,72,0,0
140626,-83.3333333333333,4,1,34,72,0,0
140942,-83.3333333333333,4,1,35,72,0,0
142521,-83.3333333333333,4,1,36,72,0,0
142679,-83.3333333333333,4,1,35,72,0,0
142994,-83.3333333333333,4,1,34,72,0,0
143152,-83.3333333333333,4,1,35,72,0,0
148205,-100,4,1,34,70,0,0
148521,-100,4,1,35,68,0,0
150100,-100,4,1,35,70,0,0
150731,-83.3333333333333,4,1,36,72,0,0
151047,-83.3333333333333,4,1,35,72,0,0
153257,-90.9090909090909,4,1,34,68,0,0
153415,-90.9090909090909,4,1,35,68,0,0
158310,-83.3333333333333,4,1,34,70,0,0
158468,-83.3333333333333,4,1,35,70,0,0
163363,-74.6268656716418,4,1,34,72,0,0
163521,-74.6268656716418,4,1,35,72,0,0
168415,-66.6666666666667,4,1,34,74,0,0
168573,-66.6666666666667,4,1,35,74,0,0
173468,-500,4,2,35,68,0,0
173547,-500,4,2,35,20,0,0
176942,-500,4,2,35,30,0,0
177257,-133.333333333333,4,2,35,60,0,0
177573,-133.333333333333,4,2,35,30,0,0
177889,-133.333333333333,4,2,35,62,0,0
178205,-133.333333333333,4,2,35,30,0,0
178521,-400,4,2,35,64,0,0
178600,-400,4,2,35,20,0,0
182626,-400,4,2,35,30,0,0
182942,-100,4,1,35,62,0,0
183573,-100,4,1,34,65,0,0
183889,-100,4,1,35,65,0,0
188626,-90.9090909090909,4,1,34,68,0,0
188942,-90.9090909090909,4,1,35,68,0,0
191152,-90.9090909090909,4,1,34,70,0,0
191468,-90.9090909090909,4,1,35,70,0,0
193521,-200,4,1,35,72,0,0
196047,-76.9230769230769,4,1,35,74,0,0
198731,-76.9230769230769,4,1,34,74,0,0
199047,-76.9230769230769,4,1,35,74,0,0
199994,-76.9230769230769,4,1,36,74,0,0
200310,-76.9230769230769,4,1,35,74,0,0
201257,-76.9230769230769,4,1,34,74,0,0
201573,-76.9230769230769,4,1,35,74,0,0
203152,-76.9230769230769,4,1,36,74,0,0
203310,-76.9230769230769,4,1,35,74,0,0
203626,-76.9230769230769,4,1,34,74,0,0
203784,-76.9230769230769,4,1,35,74,0,0
208836,-100,4,1,34,70,0,0
209152,-100,4,1,35,68,0,0
210731,-100,4,1,35,70,0,0
211363,-83.3333333333333,4,1,36,74,0,0
211679,-83.3333333333333,4,1,35,74,0,0
213889,-90.9090909090909,4,1,34,68,0,0
214047,-90.9090909090909,4,1,35,68,0,0
218310,-90.9090909090909,4,1,52,68,0,0
218784,-90.9090909090909,4,1,35,68,0,0
223363,-90.9090909090909,4,1,52,68,0,0
223994,-83.3333333333333,4,1,34,70,0,0
224152,-83.3333333333333,4,1,35,70,0,0
228415,-83.3333333333333,4,1,52,70,0,0
228889,-76.9230769230769,4,1,35,72,0,0
231573,-71.4285714285714,4,1,35,74,0,0
233468,-71.4285714285714,4,1,52,72,0,0

[Colours]
Combo1 : 250,180,240
Combo2 : 120,200,230
Combo3 : 255,230,130
Combo4 : 160,230,150

[HitObjects]
113,73,1679,6,0,B|77:50|32:56|4:87,1,118.999996368408,14|8,0:1|2:2,0:2:0:0:
96,154,2152,2,0,B|58:173|40:215|54:254,1,118.999996368408,8|8,0:1|0:1,0:2:0:0:
165,339,2784,6,0,B|221:326|295:326,1,118.999996368408,8|8,0:2|0:1,0:2:0:0:
348,368,3257,1,8,0:2:0:0:
413,324,3415,1,8,0:1:0:0:
413,324,3494,1,8,0:2:0:0:
413,324,3573,2,8,L|422:243,2,59.4999981842042,8|8|8,0:1|0:1|0:2,0:1:0:0:
284,226,4205,6,0,B|251:177|268:111,1,118.999996368408,10|8,0:1|0:2,0:2:0:0:
353,61,4679,2,0,B|386:110|368:175,1,118.999996368408,8|8,0:1|0:1,0:2:0:0:
265,314,5310,6,0,L|147:331,1,118.999996368408,8|8,0:2|0:1,0:2:0:0:
72,381,5784,2,0,L|59:306,1,59.4999981842042,8|8,0:2|0:1,0:2:0:0:
0,233,6100,5,10,0:1:0:0:
121,174,6257,1,10,0:1:0:0:
121,174,6573,6,0,B|83:143|82:90|122:51,1,136,14|0,0:1|0:2,0:2:0:0:
237,137,7047,1,8,0:2:0:0:
237,137,7205,2,0,B|229:185|183:212|130:196,1,136,8|8,0:1|0:1,0:1:0:0:
259,341,7836,6,0,B|267:293|313:266|366:282,1,136,8|8,0:2|0:1,0:1:0:0:
433,316,8310,2,0,L|441:383,1,68,8|8,0:2|0:1,0:2:0:0:
476,250,8626,2,0,L|488:183,2,68,8|8|8,0:1|0:1|0:2,0:2:0:0:
329,119,9257,6,0,B|498:91,1,152.999995330811,10|8,0:1|0:2,0:2:0:0:
422,22,9731,2,0,B|271:47,1,152.999995330811,8|8,0:1|0:1,0:2:0:0:
146,166,10363,6,0,B|106:134|87:82|117:28,1,152.999995330811,8|8,0:2|0:1,0:2:0:0:
252,142,10836,2,0,L|238:226,1,76.4999976654053,8|8,0:2|0:1,0:2:0:0:
211,337,11152,5,10,0:1:0:0:
73,232,11310,1,10,0:1:0:0:
73,232,11784,5,14,0:1:0:0:
136,300,11942,1,0,0:2:0:0:
211,244,12100,1,8,0:2:0:0:
148,176,12257,1,2,0:2:0:0:
148,176,12336,1,0,0:2:0:0:
148,176,12415,2,0,B|134:129|161:77,1,93.5000028533936,8|8,0:1|0:1,0:2:0:0:
309,6,12731,5,10,0:2:0:0:
375,80,12889,2,0,B|416:144|509:116|505:41,1,187.000005706787,8|8,0:1|0:1,0:2:0:0:
386,194,13363,2,0,B|375:242|386:304,1,93.5000028533936,8|8,0:2|0:1,0:2:0:0:
443,350,13679,5,2,0:2:0:0:
295,292,13836,1,8,0:1:0:0:
466,229,13994,1,8,0:2:0:0:
349,26,14310,5,10,0:1:0:0:
305,97,14468,1,0,0:2:0:0:
265,23,14626,1,8,0:2:0:0:
396,107,14784,1,2,0:2:0:0:
396,107,14863,1,0,0:2:0:0:
396,107,14942,2,0,L|518:87,1,93.5000028533936,8|8,0:1|0:1,0:2:0:0:
311,221,15257,5,10,0:2:0:0:
208,138,15415,2,0,B|124:83|12:97,1,187.000005706787,8|8,0:1|0:1,0:2:0:0:
165,235,15889,2,0,B|132:271|122:330,1,93.5000028533936,8|0,0:2|0:2,0:2:0:0:
338,211,16205,5,10,0:1:0:0:
384,384,16363,1,10,0:1:0:0:
500,197,16679,6,0,B|512:11,1,187.000005706787,14|0,0:1|0:2,0:2:0:0:
359,119,17152,1,10,0:2:0:0:
238,95,17310,1,2,0:2:0:0:
238,95,17389,1,0,0:2:0:0:
238,95,17468,2,0,B|132:75,1,93.5000028533936,8|8,0:1|0:1,0:2:0:0:
0,205,17784,5,10,0:2:0:0:
108,293,17942,2,0,B|168:324|238:284|235:208,1,187.000005706787,8|8,0:1|0:1,0:1:0:0:
378,349,18415,2,0,B|328:349|287:368,1,93.5000028533936,8|8,0:2|0:1,0:2:0:0:
404,188,18731,5,2,0:2:0:0:
483,273,18889,1,8,0:1:0:0:
497,88,19047,1,8,0:2:0:0:
198,7,19363,5,10,0:1:0:0:
302,89,19521,1,0,0:2:0:0:
178,138,19679,1,8,0:2:0:0:
64,63,19836,5,2,0:2:0:0:
64,63,19915,1,0,0:2:0:0:
64,63,19994,1,8,0:1:0:0:
90,290,20152,1,8,0:1:0:0:
317,264,20310,1,10,0:2:0:0:
382,185,20468,2,0,B|332:142|321:71|381:22,1,187.000005706787,8|8,0:1|0:1,0:2:0:0:
503,214,20942,2,0,B|500:267|487:305,1,93.5000028533936,8|0,0:2|0:2,0:2:0:0:
276,384,21257,5,10,0:1:0:0:
307,137,21415,1,10,0:1:0:0:
112,332,21889,6,0,B|162:344|211:319,1,101.999996887207,14|0,0:1|0:2,0:2:0:0:
152,226,22363,2,0,B|102:214|53:239,1,101.999996887207,10|8,0:2|0:1,0:2:0:0:
8,177,22836,1,10,0:1:0:0:
149,20,23310,5,8,0:2:0:0:
421,90,23626,1,8,0:1:0:0:
370,25,23784,1,8,0:2:0:0:
390,165,23942,1,8,0:2:0:0:
501,77,24100,1,4,0:3:0:0:
412,336,24415,6,0,B|520:317,1,101.999996887207,10|0,0:1|0:2,0:2:0:0:
461,239,24889,2,0,B|360:256,1,101.999996887207,10|8,0:2|0:1,0:2:0:0:
360,256,25363,1,10,0:1:0:0:
130,369,25836,5,8,0:2:0:0:
43,91,26152,1,8,0:1:0:0:
1,215,26310,1,8,0:2:0:0:
253,44,26626,1,8,0:3:0:0:
425,166,26942,6,0,B|411:220|428:266,1,101.999996887207,14|0,0:1|0:2,0:2:0:0:
323,214,27415,2,0,B|337:160|319:113,1,101.999996887207,10|8,0:2|0:1,0:2:0:0:
253,44,27889,1,10,0:1:0:0:
0,198,28363,5,8,0:2:0:0:
239,244,28679,1,8,0:1:0:0:
202,349,28836,1,8,0:2:0:0:
130,264,28994,1,8,0:2:0:0:
167,159,29152,1,4,0:3:0:0:
401,354,29468,6,0,B|450:364|450:364|497:343,1,101.999996887207,10|0,0:1|0:2,0:2:0:0:
445,269,29942,2,0,B|455:219|455:219|434:172,1,101.999996887207,10|8,0:2|0:1,0:2:0:0:
362,225,30415,1,10,0:1:0:0:
268,0,30731,5,8,0:2:0:0:
306,98,30889,1,8,0:2:0:0:
207,137,31047,1,8,0:1:0:0:
169,37,31205,1,8,0:2:0:0:
38,262,31521,5,8,0:2:0:0:
99,125,31679,1,4,0:3:0:0:
0,164,31836,1,8,0:2:0:0:
137,225,31994,2,0,B|194:238|243:207,1,110.499994941712,14|0,0:1|0:2,0:2:0:0:
318,300,32468,2,0,B|260:286|211:317,1,110.499994941712,10|8,0:2|0:1,0:2:0:0:
212,317,32942,1,10,0:1:0:0:
453,384,33415,5,8,0:2:0:0:
512,146,33731,1,8,0:1:0:0:
353,208,33889,1,8,0:2:0:0:
378,39,34047,1,8,0:2:0:0:
414,130,34205,1,4,0:3:0:0:
275,42,34363,5,8,0:2:0:0:
275,42,34442,1,8,0:2:0:0:
275,42,34521,2,0,B|165:30,1,110.499994941712,10|0,0:1|0:2,0:2:0:0:
128,115,34994,2,0,B|238:127,1,110.499994941712,10|8,0:2|0:1,0:2:0:0:
280,204,35468,1,10,0:1:0:0:
0,356,35942,5,8,0:2:0:0:
151,134,36257,1,8,0:1:0:0:
20,115,36415,1,8,0:2:0:0:
131,378,36731,1,4,0:3:0:0:
359,289,37047,6,0,B|343:236|343:236|365:182,1,110.499994941712,14|0,0:1|0:2,0:2:0:0:
466,191,37521,2,0,B|482:244|482:244|460:298,1,110.499994941712,10|8,0:2|0:1,0:2:0:0:
461,295,37994,1,10,0:1:0:0:
256,128,38468,5,8,0:2:0:0:
357,197,38784,5,8,0:1:0:0:
134,132,38942,1,8,0:2:0:0:
352,53,39100,1,8,0:1:0:0:
222,245,39257,1,8,0:2:0:0:
214,14,39415,1,8,0:2:0:0:
214,14,39494,1,8,0:2:0:0:
214,14,39573,1,14,0:1:0:0:
55,43,41626,5,8,1:2:0:0:
335,14,41784,1,8,1:2:0:0:
364,294,41942,1,8,1:2:0:0:
271,271,42100,6,0,B|254:325|177:348|131:296,2,170,14|8|8,0:1|0:2|0:1,0:2:0:0:
154,192,42889,1,8,0:1:0:0:
190,105,43047,2,0,B|215:20,1,85,8|0,0:2|0:2,0:2:0:0:
409,132,43363,6,0,B|384:217,1,85,10|8,0:1|0:1,0:2:0:0:
271,271,43679,1,8,0:2:0:0:
379,352,43836,2,0,B|431:392|506:354|508:295,1,170,10|8,0:1|0:1,0:2:0:0:
508,153,44310,1,10,0:2:0:0:
330,76,44468,5,2,0:2:0:0:
330,76,44547,1,0,0:2:0:0:
330,76,44626,2,0,B|151:58,2,170,14|8|8,0:1|0:2|0:1,0:2:0:0:
417,120,45415,1,8,0:1:0:0:
411,22,45573,1,8,0:2:0:0:
336,174,45731,1,0,0:2:0:0:
241,84,45889,6,0,B|241:40|218:-3,1,85,10|0,0:1|0:2,0:2:0:0:
41,166,46205,2,0,B|41:210|64:253,1,85,10|8,0:2|0:1,0:2:0:0:
256,384,46521,5,2,0:2:0:0:
136,312,46679,1,8,0:2:0:0:
256,248,46836,1,10,0:2:0:0:
376,312,46994,1,8,0:2:0:0:
484,274,47152,6,0,B|520:195|484:109,1,170,14|8,0:1|0:2,0:2:0:0:
347,20,47626,1,8,0:1:0:0:
347,20,47705,1,8,0:1:0:0:
347,20,47784,2,0,L|336:114,1,85,2|8,0:2|0:1,0:2:0:0:
191,210,48100,2,0,L|200:125,1,85,8|0,0:2|0:2,0:2:0:0:
37,19,48415,6,0,B|-11:90|14:182,1,170,14|8,0:1|0:2,0:2:0:0:
139,61,48889,2,0,B|175:35|219:38,1,85,8|0,0:1|0:2,0:2:0:0:
391,98,49205,5,10,0:1:0:0:
241,197,49363,1,8,0:2:0:0:
402,278,49521,1,8,0:2:0:0:
484,221,49679,6,0,B|519:304|474:384,1,170,14|8,0:1|0:2,0:2:0:0:
310,303,50152,2,0,L|225:290,1,85,10|0,0:1|0:2,0:2:0:0:
241,197,50468,2,0,L|326:210,1,85,10|8,0:1|0:2,0:2:0:0:
137,230,50784,5,8,0:1:0:0:
137,230,50863,1,8,0:1:0:0:
137,230,50942,1,10,0:1:0:0:
181,74,51100,1,8,0:2:0:0:
37,286,51415,5,8,0:1:0:0:
81,130,51573,1,8,0:2:0:0:
237,174,51731,1,8,0:3:0:0:
193,330,51889,1,4,0:3:0:0:
417,283,52047,5,8,0:3:0:0:
417,283,52126,1,8,0:3:0:0:
417,283,52205,2,0,B|449:353|377:408|326:373,2,170,14|8|8,0:1|0:2|0:1,0:2:0:0:
306,180,52994,1,8,0:1:0:0:
410,138,53152,2,0,B|501:109,1,85,8|0,0:2|0:2,0:2:0:0:
258,0,53468,5,10,0:1:0:0:
258,0,53626,2,0,B|261:43|242:82,1,85,8|8,0:1|0:2,0:2:0:0:
115,192,53942,2,0,B|72:194|35:219,1,85,10|0,0:1|0:2,0:2:0:0:
274,247,54257,2,0,B|297:282|337:301,1,85,10|8,0:1|0:2,0:2:0:0:
159,114,54573,5,2,0:2:0:0:
159,114,54652,1,0,0:2:0:0:
159,114,54731,2,0,B|100:38|66:100|16:28,2,170,14|8|8,0:1|0:2|0:1,0:2:0:0:
197,206,55521,1,8,0:1:0:0:
286,159,55679,2,0,L|374:115,1,85,8|0,0:2|0:2,0:2:0:0:
512,203,55994,5,10,0:1:0:0:
479,290,56152,1,0,0:2:0:0:
386,272,56310,1,10,0:2:0:0:
419,184,56468,1,8,0:1:0:0:
421,382,56626,5,2,0:2:0:0:
229,322,56784,1,8,0:2:0:0:
320,143,56942,1,10,0:2:0:0:
512,203,57100,1,8,0:2:0:0:
333,247,57257,6,0,B|125:221,1,187.000005706787,14|8,0:1|0:2,0:2:0:0:
31,253,57731,1,8,0:1:0:0:
31,253,57810,1,8,0:1:0:0:
31,253,57889,2,0,B|22:206|48:162,1,93.5000028533936,2|8,0:2|0:1,0:2:0:0:
229,276,58205,2,0,B|238:323|211:366,1,93.5000028533936,8|0,0:2|0:2,0:2:0:0:
364,196,58521,6,0,B|409:255|488:239|513:173,1,187.000005706787,14|8,0:1|0:2,0:2:0:0:
319,13,58994,1,8,0:1:0:0:
319,13,59073,1,8,0:1:0:0:
319,13,59152,1,2,0:2:0:0:
263,202,59310,1,8,0:1:0:0:
161,69,59468,1,8,0:2:0:0:
422,147,59626,1,8,0:2:0:0:
500,253,59784,6,0,B|544:311|486:396|423:374,1,187.000005706787,14|8,0:1|0:2,0:2:0:0:
271,126,60257,2,0,B|208:104|150:189|194:247,1,187.000005706787,8|8,0:1|0:1,0:2:0:0:
422,171,60731,2,0,L|533:143,1,93.5000028533936,8|8,0:2|0:1,0:2:0:0:
361,0,61047,5,10,0:2:0:0:
282,216,61205,1,8,0:1:0:0:
282,216,61363,1,8,0:1:0:0:
263,14,61521,5,10,0:2:0:0:
333,307,61679,1,8,0:1:0:0:
75,160,61836,5,8,0:2:0:0:
387,88,61994,1,8,0:2:0:0:
53,255,62152,6,0,B|-18:245|-48:148|4:90,1,203.999993774414,14|8,0:1|0:1,0:2:0:0:
209,284,62626,2,0,B|214:355|123:403|57:365,1,203.999993774414,8|8,0:2|0:1,0:2:0:0:
97,130,63100,1,8,0:1:0:0:
228,187,63257,2,0,B|279:200|334:158,1,101.999996887207,8|0,0:2|0:2,0:2:0:0:
453,0,63573,5,10,0:1:0:0:
438,127,63731,1,8,0:1:0:0:
423,254,63889,1,8,0:2:0:0:
290,349,64047,5,2,0:2:0:0:
290,349,64126,1,0,0:2:0:0:
290,349,64205,1,8,0:1:0:0:
265,174,64363,1,8,0:1:0:0:
241,0,64521,1,8,0:2:0:0:
347,175,64679,6,0,B|345:260|237:285|198:223,1,203.999993774414,14|8,0:1|0:1,0:2:0:0:
0,89,65152,2,0,B|20:8|118:-9|162:48,1,203.999993774414,8|8,0:2|0:1,0:2:0:0:
9,281,65626,1,8,0:1:0:0:
191,203,65784,1,8,0:2:0:0:
126,383,65942,5,0,0:2:0:0:
126,383,66021,1,0,0:2:0:0:
126,383,66100,2,0,L|116:275,1,101.999996887207,10|8,0:1|0:1,0:2:0:0:
407,235,66415,2,0,L|417:127,1,101.999996887207,10|0,0:2|0:2,0:2:0:0:
141,58,66731,5,10,0:1:0:0:
369,318,66889,1,8,0:2:0:0:
280,7,67047,1,10,0:2:0:0:
224,367,67205,1,8,0:1:0:0:
450,216,67363,6,0,B|438:298|341:331|286:259,2,203.999993774414,14|8|10,0:1|0:2|0:1,0:2:0:0:
191,43,68152,1,8,0:1:0:0:
225,341,68310,1,8,0:2:0:0:
362,171,68468,1,0,0:1:0:0:
87,179,68626,6,0,B|10:156|10:42|77:14,1,203.999993774414,14|8,0:1|0:2,0:2:0:0:
261,141,69100,2,0,L|237:247,1,101.999996887207,10|0,0:1|0:2,0:2:0:0:
512,119,69415,5,10,0:1:0:0:
333,259,69573,1,10,0:2:0:0:
458,384,69731,1,0,0:2:0:0:
458,384,69810,1,0,0:2:0:0:
458,384,69889,2,0,B|517:281|442:193,2,203.999993774414,12|8|8,0:1|0:2|0:1,0:2:0:0:
358,360,70679,1,8,0:1:0:0:
259,335,70836,1,8,0:2:0:0:
167,315,70994,5,0,0:2:0:0:
167,315,71073,1,0,0:2:0:0:
167,315,71152,1,14,0:1:0:0:
390,212,71310,1,8,0:2:0:0:
150,110,71468,1,0,0:2:0:0:
399,24,71626,5,10,0:1:0:0:
399,24,71705,1,8,0:1:0:0:
399,24,71784,1,12,0:2:0:0:
229,231,71942,1,10,0:2:0:0:
94,0,72100,1,8,0:3:0:0:
8,77,72257,6,0,B|-38:176|0:275,1,203.999993774414,14|8,0:1|0:1,0:2:0:0:
286,382,72731,2,0,B|332:284|292:185,1,203.999993774414,8|8,0:2|0:1,0:2:0:0:
181,225,73205,5,8,0:1:0:0:
408,268,73363,1,8,0:2:0:0:
451,51,73521,1,0,0:2:0:0:
356,0,73679,6,0,L|340:107,1,101.999996887207,10|8,0:1|0:1,0:2:0:0:
317,221,73994,1,10,0:2:0:0:
211,144,74152,1,2,0:2:0:0:
211,144,74231,1,0,0:2:0:0:
211,144,74310,1,8,0:1:0:0:
458,186,74468,1,10,0:1:0:0:
304,377,74626,1,8,0:2:0:0:
160,242,74784,6,0,B|203:311|119:399|52:350,1,203.999993774414,14|8,0:1|0:1,0:2:0:0:
264,78,75257,2,0,B|281:0|370:-29|439:37,1,203.999993774414,8|8,0:2|0:1,0:2:0:0:
490,118,75731,1,8,0:1:0:0:
441,244,75889,1,8,0:2:0:0:
356,279,76047,5,0,0:2:0:0:
356,279,76126,1,0,0:2:0:0:
356,279,76205,1,10,0:1:0:0:
505,315,76363,1,8,0:1:0:0:
252,217,76521,5,10,0:2:0:0:
393,148,76679,1,0,0:2:0:0:
162,271,76836,5,10,0:1:0:0:
322,368,76994,1,8,0:2:0:0:
69,190,77152,5,10,0:2:0:0:
194,61,77310,1,8,0:1:0:0:
299,109,77468,6,0,B|361:148|428:124|448:38,1,170,14|0,0:1|0:2,0:2:0:0:
260,244,77942,1,8,0:2:0:0:
260,244,78021,1,0,0:1:0:0:
260,244,78100,2,0,B|245:298|284:340,1,85,2|8,0:2|0:1,0:2:0:0:
103,215,78415,2,0,B|-6:230,1,85,8|0,0:2|0:2,0:2:0:0:
162,66,78731,5,14,0:1:0:0:
266,93,78889,2,0,B|281:38|240:-3,1,85,8|0,0:1|0:2,0:2:0:0:
195,165,79205,5,8,0:2:0:0:
195,165,79284,1,0,0:2:0:0:
195,165,79363,1,2,0:2:0:0:
351,200,79521,1,8,0:1:0:0:
246,323,79679,1,8,0:2:0:0:
90,287,79836,1,0,0:2:0:0:
394,294,79994,6,0,B|462:284|492:180|431:134,1,203.999993774414,14|8,0:1|0:2,0:2:0:0:
30,186,80468,2,0,B|-31:140|-1:36|70:26,1,203.999993774414,10|8,0:1|0:1,0:2:0:0:
272,244,80942,1,10,0:2:0:0:
73,318,81100,1,8,0:2:0:0:
73,318,81179,1,8,0:2:0:0:
73,318,81257,1,14,0:1:0:0:
512,222,82521,5,14,0:1:0:0:
429,266,82679,1,0,0:2:0:0:
386,180,82836,1,8,0:2:0:0:
467,139,82994,1,2,0:2:0:0:
467,139,83073,1,0,0:2:0:0:
467,139,83152,2,0,B|492:90|468:41,1,93.5000028533936,8|8,0:1|0:1,0:2:0:0:
247,10,83468,5,10,0:2:0:0:
212,125,83626,2,0,L|237:344,1,187.000005706787,8|8,0:1|0:1,0:2:0:0:
101,236,84100,2,0,L|-8:248,1,93.5000028533936,8|8,0:2|0:1,0:2:0:0:
79,107,84415,5,2,0:2:0:0:
226,147,84573,1,8,0:1:0:0:
185,0,84731,1,8,0:2:0:0:
0,268,85047,5,10,0:1:0:0:
101,236,85205,1,0,0:2:0:0:
78,339,85363,1,8,0:2:0:0:
23,165,85521,1,2,0:2:0:0:
23,165,85600,1,0,0:2:0:0:
23,165,85679,2,0,B|19:113|45:66,1,93.5000028533936,8|8,0:1|0:1,0:2:0:0:
242,0,85994,5,10,0:2:0:0:
344,128,86152,2,0,B|441:167|512:82,1,187.000005706787,8|8,0:1|0:1,0:2:0:0:
265,231,86626,2,0,B|210:237|159:287,1,93.5000028533936,8|0,0:2|0:2,0:2:0:0:
81,376,86942,5,10,0:1:0:0:
129,139,87100,1,10,0:1:0:0:
365,349,87415,6,0,B|407:407|489:397|514:322,1,187.000005706787,14|0,0:1|0:2,0:2:0:0:
349,211,87889,1,10,0:2:0:0:
413,129,88047,1,2,0:2:0:0:
413,129,88126,1,0,0:2:0:0:
413,129,88205,2,0,B|429:81|423:36,1,93.5000028533936,8|8,0:1|0:1,0:2:0:0:
261,175,88521,5,10,0:2:0:0:
148,241,88679,2,0,B|95:284|11:260|-1:187,1,187.000005706787,8|8,0:1|0:1,0:1:0:0:
147,131,89152,2,0,B|141:86|161:38,1,93.5000028533936,8|8,0:2|0:1,0:2:0:0:
240,22,89389,1,8,0:2:0:0:
240,22,89468,2,0,L|343:6,1,93.5000028533936,2|8,0:2|0:1,0:0:0:0:
415,177,89784,2,0,L|507:162,1,93.5000028533936,8|8,0:2|0:1,0:0:0:0:
353,312,90100,5,10,0:1:0:0:
437,373,90257,1,0,0:2:0:0:
506,294,90415,1,8,0:2:0:0:
423,184,90573,5,2,0:2:0:0:
423,184,90652,1,0,0:2:0:0:
423,184,90731,1,8,0:1:0:0:
256,352,90889,1,8,0:1:0:0:
89,184,91047,1,10,0:2:0:0:
173,136,91205,2,0,B|214:185|297:185|338:136,1,187.000005706787,8|8,0:1|0:1,0:2:0:0:
81,89,91679,2,0,B|74:46|101:-1,1,93.5000028533936,8|0,0:2|0:2,0:2:0:0:
292,205,91994,5,10,0:1:0:0:
0,287,92152,1,10,0:1:0:0:
350,374,92626,6,0,B|277:340|177:355,1,152.999995330811,14|8,0:1|0:2,0:2:0:0:
357,274,93100,1,0,0:2:0:0:
416,193,93257,2,0,B|428:158|426:117,1,76.4999976654053,10|8,0:1|0:1,0:2:0:0:
244,0,93573,5,10,0:2:0:0:
238,111,93731,2,0,L|231:263,1,152.999995330811,10|0,0:1|0:2,0:2:0:0:
0,233,94205,1,10,0:2:0:0:
33,360,94363,2,0,B|67:410|137:392|144:330,1,152.999995330811,2|8,0:2|0:1,0:1:0:0:
73,138,94836,1,10,0:2:0:0:
7,241,94994,1,2,0:2:0:0:
7,241,95073,1,0,0:2:0:0:
7,241,95152,1,8,0:1:0:0:
192,20,95468,5,10,0:2:0:0:
271,87,95626,1,0,0:2:0:0:
373,45,95784,2,0,B|411:22|449:22,1,76.4999976654053,10|8,0:1|0:1,0:2:0:0:
330,193,96100,1,10,0:2:0:0:
435,257,96257,1,10,0:1:0:0:
435,257,96336,1,0,0:2:0:0:
435,257,96415,2,0,B|471:282|486:322,1,76.4999976654053,0|8,0:2|0:1,0:2:0:0:
224,252,96731,1,10,0:2:0:0:
130,341,96889,2,0,B|92:381|23:372|-1:318,1,152.999995330811,2|0,0:2|0:2,0:2:0:0:
165,146,97363,1,10,0:2:0:0:
111,43,97521,1,8,0:1:0:0:
271,87,97679,6,0,B|318:116|381:90|391:31,1,152.999995330811,14|8,0:1|0:2,0:2:0:0:
269,189,98152,1,2,0:2:0:0:
240,284,98310,2,0,B|232:326|251:362,1,76.4999976654053,10|8,0:1|0:1,0:2:0:0:
178,215,98626,5,10,0:2:0:0:
326,315,98784,2,0,B|366:352|435:336|451:280,1,152.999995330811,10|8,0:1|0:1,0:2:0:0:
303,85,99257,1,8,0:2:0:0:
181,121,99415,2,0,L|18:109,1,152.999995330811,10|8,0:1|0:1,0:2:0:0:
200,241,99889,1,10,0:2:0:0:
119,379,100047,1,8,0:2:0:0:
311,322,100205,6,0,B|383:295|461:298,1,152.999995330811,10|8,0:1|0:2,0:2:0:0:
288,208,100679,1,10,0:1:0:0:
372,116,100836,2,0,B|389:85|385:41,1,76.4999976654053,2|8,0:2|0:1,0:2:0:0:
142,0,101152,5,10,0:2:0:0:
216,135,101310,1,2,0:2:0:0:
216,135,101389,1,0,0:2:0:0:
216,135,101468,2,0,B|236:213|235:286,1,152.999995330811,8|8,0:1|0:2,0:2:0:0:
226,366,101942,1,10,0:1:0:0:
512,79,102257,5,8,0:2:0:0:
429,164,102415,1,8,0:2:0:0:
396,49,102573,1,8,0:2:0:0:
509,244,102731,6,0,B|447:206|363:204,1,152.999995330811,14|8,0:1|0:2,0:2:0:0:
256,256,103205,1,0,0:2:0:0:
155,113,103363,2,0,L|164:23,1,76.4999976654053,10|8,0:1|0:1,0:2:0:0:
25,155,103679,5,10,0:2:0:0:
153,201,103836,2,0,B|249:193|185:146|303:137,1,152.999995330811,10|8,0:1|0:1,0:2:0:0:
172,292,104310,1,10,0:2:0:0:
285,221,104468,2,0,B|381:228|317:275|435:284,1,152.999995330811,2|8,0:2|0:1,0:2:0:0:
286,138,104942,1,10,0:2:0:0:
419,201,105100,1,2,0:2:0:0:
419,201,105179,1,0,0:2:0:0:
419,201,105257,1,8,0:1:0:0:
248,16,105573,5,10,0:2:0:0:
174,93,105731,1,0,0:2:0:0:
78,44,105889,2,0,B|40:28|2:31,1,76.4999976654053,10|8,0:1|0:1,0:2:0:0:
174,93,106205,1,10,0:2:0:0:
79,189,106363,1,10,0:1:0:0:
79,189,106442,1,0,0:2:0:0:
79,189,106521,2,0,B|58:223|50:259,1,76.4999976654053,0|8,0:2|0:1,0:2:0:0:
174,93,106836,1,10,0:2:0:0:
257,211,106994,2,0,B|289:262|349:264|390:230,1,152.999995330811,2|8,0:2|0:1,0:2:0:0:
174,93,107468,1,10,0:2:0:0:
253,15,107626,1,8,0:1:0:0:
413,144,107784,6,0,B|446:103|444:42|394:10,1,152.999995330811,14|8,0:1|0:2,0:2:0:0:
257,211,108257,1,2,0:2:0:0:
138,189,108415,2,0,L|57:174,1,76.4999976654053,10|8,0:1|0:1,0:2:0:0:
169,363,108731,5,10,0:2:0:0:
287,305,108889,2,0,B|321:236|268:236|301:154,1,152.999995330811,10|8,0:1|0:1,0:2:0:0:
467,46,109363,1,10,0:2:0:0:
510,187,109521,2,0,B|488:250|415:254|387:198,1,152.999995330811,10|8,0:1|0:1,0:2:0:0:
335,28,109994,1,10,0:2:0:0:
300,156,110152,1,8,0:2:0:0:
141,13,110310,6,0,B|89:43|83:104|105:147,1,152.999995330811,10|8,0:1|0:2,0:2:0:0:
176,244,110784,1,10,0:1:0:0:
74,331,110942,2,0,B|36:350|-12:336,1,76.4999976654053,8|8,0:1|0:1,0:2:0:0:
189,231,111257,5,10,0:2:0:0:
255,377,111415,1,2,0:2:0:0:
255,377,111494,1,0,0:2:0:0:
255,377,111573,1,8,0:1:0:0:
401,311,111731,1,8,0:2:0:0:
151,109,112047,5,8,0:1:0:0:
99,260,112205,1,8,0:2:0:0:
37,86,112363,1,8,0:3:0:0:
211,24,112521,1,4,0:3:0:0:
273,198,112679,1,8,0:3:0:0:
358,145,112836,6,0,B|393:189|473:183|495:118,2,170,14|8|8,0:1|0:2|0:1,0:2:0:0:
245,239,113626,1,8,0:1:0:0:
362,295,113784,2,0,B|405:287|460:282,1,85,8|0,0:2|0:2,0:2:0:0:
152,353,114100,6,0,B|110:349|67:341,1,85,10|8,0:1|0:1,0:2:0:0:
245,239,114415,1,8,0:2:0:0:
323,177,114573,2,0,B|363:138|364:63|314:24,1,170,10|8,0:1|0:1,0:2:0:0:
179,158,115047,1,10,0:2:0:0:
343,279,115205,5,2,0:2:0:0:
343,279,115284,1,0,0:2:0:0:
343,279,115363,2,0,L|526:286,2,170,14|8|8,0:1|0:2|0:1,0:2:0:0:
248,298,116152,1,8,0:1:0:0:
314,371,116310,1,8,0:2:0:0:
277,206,116468,1,0,0:2:0:0:
155,301,116626,6,0,B|142:384,1,85,10|0,0:1|0:2,0:2:0:0:
56,202,116942,2,0,B|68:118,1,85,10|8,0:2|0:1,0:2:0:0:
81,22,117257,5,2,0:2:0:0:
256,128,117415,1,8,0:2:0:0:
431,22,117573,1,10,0:2:0:0:
256,208,117731,1,8,0:2:0:0:
390,284,117889,6,0,B|447:318|508:274|504:208,1,170,14|8,0:1|0:2,0:2:0:0:
266,44,118363,1,8,0:1:0:0:
266,44,118442,1,8,0:1:0:0:
266,44,118521,2,0,L|255:138,1,85,2|8,0:2|0:1,0:2:0:0:
350,193,118836,2,0,L|361:99,1,85,8|0,0:2|0:2,0:2:0:0:
115,37,119152,6,0,B|58:3|-3:47|1:113,1,170,14|8,0:1|0:2,0:2:0:0:
70,252,119626,2,0,L|166:240,1,85,8|0,0:1|0:2,0:2:0:0:
360,241,119942,5,10,0:1:0:0:
263,352,120100,1,8,0:2:0:0:
324,140,120257,1,8,0:2:0:0:
511,279,120415,6,0,B|515:344|454:388|397:354,1,170,14|8,0:1|0:2,0:2:0:0:
276,254,120889,2,0,L|360:240,1,85,10|0,0:1|0:2,0:2:0:0:
201,115,121205,2,0,L|187:31,1,85,10|8,0:1|0:2,0:2:0:0:
80,96,121521,5,8,0:1:0:0:
80,96,121600,1,8,0:1:0:0:
80,96,121679,1,10,0:1:0:0:
313,51,121836,1,8,0:2:0:0:
96,300,122152,5,8,0:1:0:0:
308,340,122310,1,8,0:2:0:0:
418,183,122468,1,8,0:3:0:0:
206,142,122626,1,4,0:3:0:0:
351,56,122784,5,8,0:3:0:0:
351,56,122863,1,8,0:3:0:0:
351,56,122942,2,0,B|434:81|513:26,2,170,14|8|8,0:1|0:2|0:1,0:2:0:0:
205,1,123731,1,8,0:1:0:0:
182,158,123889,2,0,B|164:277,1,85,8|0,0:2|0:2,0:2:0:0:
32,114,124205,6,0,B|9:76|16:32,1,85,10|8,0:1|0:1,0:0:0:0:
206,146,124521,1,10,0:2:0:0:
247,280,124679,2,0,B|254:324|231:362,1,85,10|0,0:1|0:2,0:2:0:0:
379,149,124994,2,0,B|417:129|465:124,1,85,10|8,0:1|0:2,0:2:0:0:
173,51,125310,5,2,0:2:0:0:
173,51,125389,1,0,0:2:0:0:
173,51,125468,2,0,B|79:99|4:20,2,170,14|8|8,0:1|0:2|0:1,0:2:0:0:
319,0,126257,1,8,0:1:0:0:
407,130,126415,2,0,B|407:174|393:213,1,85,8|0,0:2|0:2,0:2:0:0:
104,210,126731,5,10,0:1:0:0:
134,313,126889,1,0,0:2:0:0:
237,283,127047,1,10,0:2:0:0:
207,180,127205,1,8,0:1:0:0:
130,107,127363,5,2,0:2:0:0:
31,285,127521,1,8,0:2:0:0:
209,384,127679,1,10,0:2:0:0:
308,206,127836,1,8,0:2:0:0:
385,344,127994,6,0,B|443:392|525:349|512:276,1,187.000005706787,14|8,0:1|0:2,0:2:0:0:
374,130,128468,1,8,0:1:0:0:
374,130,128547,1,8,0:1:0:0:
374,130,128626,2,0,B|381:37,1,93.5000028533936,2|8,0:2|0:1,0:2:0:0:
206,97,128942,2,0,B|94:85,1,93.5000028533936,8|0,0:2|0:2,0:2:0:0:
0,278,129257,6,0,B|-23:202|51:154|110:179,1,187.000005706787,14|8,0:1|0:2,0:2:0:0:
256,320,129731,1,8,0:1:0:0:
256,320,129810,1,8,0:1:0:0:
256,320,129889,1,2,0:2:0:0:
128,384,130047,1,8,0:1:0:0:
256,192,130205,1,8,0:2:0:0:
384,384,130363,1,8,0:2:0:0:
512,200,130521,6,0,B|515:281|416:304|380:236,1,187.000005706787,14|8,0:1|0:2,0:2:0:0:
106,98,130994,2,0,B|103:19|202:-3|234:57,1,187.000005706787,8|8,0:1|0:1,0:2:0:0:
300,283,131468,2,0,L|276:387,1,93.5000028533936,8|8,0:2|0:1,0:2:0:0:
115,199,131784,5,10,0:2:0:0:
325,146,131942,1,8,0:1:0:0:
325,146,132100,1,8,0:1:0:0:
86,90,132257,5,10,0:2:0:0:
369,236,132415,1,8,0:1:0:0:
152,8,132573,5,8,0:2:0:0:
321,317,132731,1,8,0:2:0:0:
468,228,132889,6,0,B|523:184|515:86|459:49,1,203.999993774414,14|8,0:1|0:1,0:2:0:0:
211,207,133363,2,0,B|155:250|163:348|219:385,1,203.999993774414,8|8,0:2|0:1,0:2:0:0:
367,225,133836,1,8,0:1:0:0:
271,109,133994,2,0,L|151:87,1,101.999996887207,8|0,0:2|0:2,0:2:0:0:
452,0,134310,5,10,0:1:0:0:
479,153,134468,1,8,0:1:0:0:
506,306,134626,1,8,0:2:0:0:
355,381,134784,5,2,0:2:0:0:
355,381,134863,1,0,0:2:0:0:
355,381,134942,1,8,0:1:0:0:
322,199,135100,1,8,0:1:0:0:
290,18,135257,1,8,0:2:0:0:
207,108,135415,6,0,B|155:181|76:169|28:131,1,203.999993774414,14|8,0:1|0:1,0:2:0:0:
309,281,135889,2,0,B|362:209|441:221|489:259,1,203.999993774414,8|8,0:2|0:1,0:2:0:0:
233,377,136363,1,8,0:1:0:0:
207,108,136521,1,8,0:2:0:0:
408,195,136679,5,0,0:2:0:0:
408,195,136757,1,0,0:2:0:0:
408,195,136836,2,0,B|460:187|511:161,1,101.999996887207,10|8,0:1|0:1,0:2:0:0:
104,189,137152,2,0,B|52:197|1:223,1,101.999996887207,10|0,0:2|0:2,0:2:0:0:
371,321,137468,5,10,0:1:0:0:
172,50,137626,1,8,0:2:0:0:
247,372,137784,1,10,0:2:0:0:
304,12,137942,1,8,0:1:0:0:
365,152,138100,6,0,B|421:211|510:180|513:99,2,203.999993774414,14|8|10,0:1|0:2|0:1,0:2:0:0:
188,25,138889,1,8,0:1:0:0:
306,304,139047,1,8,0:2:0:0:
417,71,139205,1,0,0:1:0:0:
151,244,139363,6,0,B|95:303|6:272|3:191,1,203.999993774414,14|8,0:1|0:2,0:2:0:0:
188,25,139836,2,0,B|175:79|199:134,1,101.999996887207,10|0,0:1|0:2,0:2:0:0:
317,279,140152,5,10,0:1:0:0:
378,22,140310,1,10,0:2:0:0:
491,188,140468,1,0,0:2:0:0:
491,188,140547,1,0,0:2:0:0:
491,188,140626,2,0,B|539:286|489:387,2,203.999993774414,12|8|8,0:1|0:2|0:1,0:2:0:0:
413,121,141415,1,8,0:1:0:0:
315,152,141573,1,8,0:2:0:0:
239,99,141731,5,0,0:2:0:0:
239,99,141810,1,0,0:2:0:0:
239,99,141889,1,14,0:1:0:0:
365,292,142047,1,8,0:2:0:0:
500,97,142205,1,0,0:2:0:0:
367,17,142363,5,10,0:1:0:0:
367,17,142442,1,8,0:1:0:0:
367,17,142521,1,12,0:2:0:0:
237,237,142679,1,10,0:2:0:0:
501,295,142836,1,8,0:3:0:0:
330,384,142994,6,0,B|243:369|116:373,1,203.999993774414,14|8,0:1|0:1,0:2:0:0:
336,262,143468,2,0,B|395:234|418:139|355:88,1,203.999993774414,8|8,0:2|0:1,0:2:0:0:
262,28,143942,5,8,0:1:0:0:
184,284,144100,1,8,0:2:0:0:
5,229,144257,1,0,0:2:0:0:
0,131,144415,6,0,B|1:76|25:26,1,101.999996887207,10|8,0:1|0:1,0:2:0:0:
269,161,144731,1,10,0:2:0:0:
125,185,144889,1,2,0:2:0:0:
125,185,144968,1,0,0:2:0:0:
125,185,145047,1,8,0:1:0:0:
175,42,145205,1,10,0:1:0:0:
218,303,145363,1,8,0:2:0:0:
403,140,145521,6,0,B|358:70|441:-14|511:32,1,203.999993774414,14|8,0:1|0:1,0:2:0:0:
372,263,145994,2,0,B|417:333|334:417|264:371,1,203.999993774414,8|8,0:2|0:1,0:2:0:0:
133,318,146468,1,8,0:1:0:0:
126,174,146626,1,8,0:2:0:0:
238,76,146784,5,0,0:2:0:0:
238,76,146863,1,0,0:2:0:0:
238,76,146942,1,10,0:1:0:0:
191,244,147100,1,8,0:1:0:0:
45,184,147257,5,10,0:2:0:0:
92,16,147415,1,0,0:2:0:0:
341,38,147573,5,10,0:1:0:0:
294,206,147731,1,8,0:2:0:0:
457,224,147889,5,10,0:2:0:0:
504,56,148047,1,8,0:1:0:0:
281,219,148205,6,0,B|237:271|238:328|281:383,1,170,14|0,0:1|0:2,0:2:0:0:
428,256,148679,1,8,0:2:0:0:
428,256,148757,1,0,0:1:0:0:
428,256,148836,2,0,L|512:248,1,85,2|8,0:2|0:1,0:2:0:0:
361,119,149152,2,0,B|369:74|348:37,1,85,8|0,0:2|0:2,0:2:0:0:
103,120,149468,5,14,0:1:0:0:
61,216,149626,2,0,B|53:261|73:297,1,85,8|0,0:1|0:2,0:2:0:0:
297,297,149942,5,8,0:2:0:0:
297,297,150021,1,0,0:2:0:0:
297,297,150100,1,2,0:2:0:0:
206,384,150257,1,8,0:1:0:0:
261,175,150415,1,8,0:2:0:0:
415,324,150573,1,0,0:2:0:0:
512,158,150731,6,0,B|498:233|399:260|352:197,1,203.999993774414,14|8,0:1|0:2,0:2:0:0:
70,90,151205,2,0,B|83:14|183:-12|229:50,1,203.999993774414,10|8,0:1|0:1,0:2:0:0:
301,294,151679,1,10,0:2:0:0:
118,380,151836,1,8,0:2:0:0:
118,380,151915,1,8,0:2:0:0:
118,380,151994,1,14,0:1:0:0:
481,101,153257,5,14,0:2:0:0:
434,193,153415,1,8,0:1:0:0:
343,144,153573,1,8,0:1:0:0:
411,345,153731,5,14,0:2:0:0:
348,263,153889,1,8,0:1:0:0:
255,307,154047,1,8,0:1:0:0:
261,73,154205,5,14,0:2:0:0:
198,155,154363,1,8,0:1:0:0:
105,111,154521,1,8,0:1:0:0:
165,377,154679,5,14,0:2:0:0:
102,295,154836,1,8,0:1:0:0:
9,339,154994,1,8,0:1:0:0:
60,176,155152,6,0,B|58:125|90:90,1,93.5000028533936,14|8,0:2|0:1,0:2:0:0:
128,62,155389,1,8,0:2:0:0:
174,54,155468,1,8,0:2:0:0:
218,68,155547,1,8,0:2:0:0:
252,100,155626,1,8,0:3:0:0:
262,145,155705,1,8,0:3:0:0:
256,192,155784,5,14,0:2:0:0:
364,247,155942,1,8,0:1:0:0:
474,195,156100,1,8,0:1:0:0:
256,192,156257,5,14,0:2:0:0:
249,70,156415,1,8,0:1:0:0:
149,1,156573,1,8,0:1:0:0:
256,192,156731,5,14,0:2:0:0:
154,258,156889,1,8,0:1:0:0:
144,379,157047,1,8,0:1:0:0:
256,192,157205,6,0,B|290:255|366:263|416:218,1,187.000005706787,14|8,0:2|0:2,0:2:0:0:
512,66,157679,2,0,B|416:59,1,93.5000028533936,14|8,0:1|0:1,0:2:0:0:
386,95,157915,1,8,0:2:0:0:
339,100,157994,1,8,0:2:0:0:
295,82,158073,1,8,0:2:0:0:
274,39,158152,1,8,0:2:0:0:
231,18,158231,1,8,0:2:0:0:
180,25,158310,5,14,0:2:0:0:
152,144,158468,1,8,0:1:0:0:
62,60,158626,1,8,0:1:0:0:
309,94,158784,5,14,0:2:0:0:
337,213,158942,1,8,0:1:0:0:
427,129,159100,1,8,0:1:0:0:
150,177,159257,5,14,0:2:0:0:
122,296,159415,1,8,0:1:0:0:
32,212,159573,1,8,0:1:0:0:
344,247,159731,5,14,0:2:0:0:
372,366,159889,1,8,0:1:0:0:
462,282,160047,1,8,0:1:0:0:
317,167,160205,6,0,B|341:117|313:60,1,101.999996887207,14|8,0:2|0:1,0:2:0:0:
285,27,160442,1,8,0:2:0:0:
234,20,160521,1,8,0:2:0:0:
192,49,160600,1,8,0:2:0:0:
184,99,160679,1,8,0:3:0:0:
207,143,160757,1,8,0:3:0:0:
206,194,160836,5,14,0:2:0:0:
92,125,160994,1,8,0:1:0:0:
15,233,161152,1,8,0:1:0:0:
237,231,161310,5,14,0:2:0:0:
234,364,161468,1,8,0:1:0:0:
366,376,161626,1,8,0:1:0:0:
253,184,161784,5,14,0:2:0:0:
369,120,161942,1,8,0:1:0:0:
314,0,162100,1,8,0:1:0:0:
149,137,162257,6,0,B|108:202|3:185|-1:99,1,203.999993774414,14|8,0:2|0:2,0:2:0:0:
221,0,162731,2,0,L|233:101,1,101.999996887207,14|8,0:1|0:1,0:2:0:0:
249,150,162968,1,8,0:2:0:0:
291,177,163047,1,8,0:2:0:0:
341,170,163126,1,8,0:2:0:0:
369,127,163205,1,8,0:2:0:0:
413,101,163284,1,8,0:2:0:0:
469,109,163363,5,14,0:2:0:0:
506,240,163521,1,8,0:1:0:0:
474,373,163679,1,8,0:1:0:0:
340,309,163836,5,14,0:2:0:0:
372,176,163994,1,8,0:1:0:0:
335,45,164152,1,8,0:1:0:0:
192,86,164310,5,14,0:2:0:0:
229,217,164468,1,8,0:1:0:0:
197,350,164626,1,8,0:1:0:0:
63,286,164784,5,14,0:2:0:0:
95,153,164942,1,8,0:1:0:0:
58,22,165100,1,8,0:1:0:0:
210,109,165257,6,0,B|264:117|319:79,1,113.899994612274,14|8,0:2|0:1,0:2:0:0:
360,46,165494,1,8,0:2:0:0:
412,33,165573,1,8,0:2:0:0:
461,55,165652,1,8,0:2:0:0:
486,102,165731,1,8,0:3:0:0:
478,155,165810,1,8,0:3:0:0:
444,197,165889,5,14,0:2:0:0:
326,125,166047,1,8,0:1:0:0:
209,53,166205,1,8,0:1:0:0:
203,329,166363,5,14,0:2:0:0:
324,263,166521,1,8,0:1:0:0:
444,197,166679,1,8,0:1:0:0:
209,53,166836,5,14,0:2:0:0:
206,191,166994,1,8,0:1:0:0:
203,328,167152,1,8,0:1:0:0:
415,360,167310,6,0,B|491:358|537:242|443:196,1,227.799989224549,14|8,0:2|0:2,0:2:0:0:
203,328,167784,2,0,B|75:317,1,113.899994612274,14|8,0:1|0:1,0:2:0:0:
36,306,168021,1,8,0:2:0:0:
6,260,168100,1,8,0:2:0:0:
17,207,168179,1,8,0:2:0:0:
66,187,168257,1,8,0:2:0:0:
113,212,168336,1,8,0:2:0:0:
172,201,168415,5,14,0:2:0:0:
266,64,168573,1,8,0:1:0:0:
109,8,168731,1,8,0:1:0:0:
210,202,168889,5,14,0:2:0:0:
336,93,169047,1,8,0:1:0:0:
199,0,169205,1,8,0:1:0:0:
246,213,169363,5,14,0:2:0:0:
396,140,169521,1,8,0:1:0:0:
288,15,169679,1,8,0:1:0:0:
278,232,169836,5,14,0:2:0:0:
442,201,169994,1,8,0:1:0:0:
370,52,170152,1,8,0:1:0:0:
170,169,170310,6,0,B|141:226|159:293,1,127.500004863739,14|8,0:2|0:1,0:2:0:0:
175,349,170547,1,8,0:2:0:0:
224,377,170626,1,8,0:2:0:0:
280,369,170705,1,8,0:2:0:0:
312,321,170784,1,8,0:3:0:0:
365,299,170863,1,8,0:3:0:0:
420,313,170942,5,14,0:2:0:0:
510,144,171100,1,8,0:1:0:0:
376,0,171257,1,8,0:1:0:0:
312,321,171415,5,14,0:2:0:0:
402,152,171573,1,8,0:1:0:0:
268,8,171731,1,8,0:1:0:0:
204,329,171889,5,14,0:2:0:0:
294,160,172047,1,8,0:1:0:0:
160,16,172205,1,8,0:1:0:0:
39,91,172363,6,0,B|-22:155|-9:266|54:322,1,255.000009727478,14|8,0:2|0:2,0:2:0:0:
229,120,172836,2,0,L|371:102,1,127.500004863739,14|8,0:1|0:1,0:2:0:0:
382,155,173073,1,8,0:2:0:0:
433,180,173152,1,8,0:2:0:0:
487,162,173231,1,8,0:2:0:0:
506,108,173310,1,8,0:2:0:0:
481,56,173389,1,8,0:2:0:0:
424,46,173468,6,0,B|463:155|378:169|341:268|485:358|547:237|499:191,1,374,14|0,3:1|0:2,0:2:0:0:
336,57,177257,6,0,B|279:30|211:41,1,127.500004863739,14|0,2:1|0:2,0:2:0:0:
176,327,177889,6,0,B|233:354|300:342,1,127.500004863739,14|0,2:1|0:2,0:2:0:0:
176,130,178521,6,0,B|189:209|142:252|145:228|101:247|81:318|81:318|-18:222|-11:90|93:40,1,552.5,14|0,3:1|0:2,0:2:0:0:
437,140,182942,5,8,0:2:0:0:
290,114,183100,1,8,0:1:0:0:
382,8,183257,1,8,0:2:0:0:
343,244,183415,1,8,0:2:0:0:
501,366,183573,6,0,B|435:324|322:334,1,170,14|8,0:1|0:2,0:2:0:0:
474,227,184047,1,2,0:2:0:0:
509,133,184205,2,0,B|511:86|497:49,1,85,10|8,0:1|0:1,0:2:0:0:
308,7,184521,5,10,0:2:0:0:
233,98,184679,1,2,0:2:0:0:
233,98,184757,1,0,0:2:0:0:
233,98,184836,2,0,B|169:136|110:109|94:51,1,170,8|8,0:1|0:2,0:2:0:0:
331,156,185310,2,0,B|393:152|436:208|408:271,1,170,10|8,0:1|0:1,0:2:0:0:
310,374,185784,1,8,0:2:0:0:
205,236,185942,1,0,0:2:0:0:
68,369,186100,6,0,B|39:283|85:203,2,170,14|8|10,0:1|0:2|0:1,0:2:0:0:
203,322,186889,1,8,0:1:0:0:
336,383,187047,1,10,0:2:0:0:
476,328,187205,5,2,0:2:0:0:
476,328,187284,1,0,0:2:0:0:
476,328,187363,2,0,B|519:246|486:160,1,170,12|8,0:1|0:2,0:2:0:0:
325,219,187836,2,0,B|292:305|336:383,1,170,10|8,0:1|0:2,0:2:0:0:
419,249,188310,1,10,0:2:0:0:
322,116,188468,1,8,0:2:0:0:
192,210,188626,6,0,B|89:254|18:184,1,187.000005706787,14|8,0:1|0:2,0:2:0:0:
243,321,189100,2,0,B|346:277|416:346,1,187.000005706787,8|8,0:1|0:1,0:2:0:0:
279,164,189573,2,0,B|265:116|274:71,1,93.5000028533936,8|0,0:2|0:2,0:2:0:0:
466,19,189889,6,0,B|514:79|454:157|385:118,1,187.000005706787,14|8,0:1|0:2,0:2:0:0:
86,11,190363,2,0,B|34:72|90:149|166:110,1,187.000005706787,8|8,0:1|0:1,0:2:0:0:
365,20,190836,1,8,0:2:0:0:
245,197,190994,1,8,0:2:0:0:
337,333,191152,6,0,B|451:310|401:384|512:369,1,187.000005706787,14|8,0:1|0:2,0:2:0:0:
244,227,191626,2,0,B|129:204|179:278|68:263,1,187.000005706787,8|8,0:1|0:1,0:2:0:0:
283,129,192100,2,0,B|277:71|313:27,1,93.5000028533936,8|8,0:2|0:1,0:2:0:0:
393,0,192415,5,10,0:2:0:0:
195,61,192573,1,8,0:1:0:0:
195,61,192731,1,8,0:1:0:0:
410,119,192889,5,10,0:2:0:0:
100,42,193047,1,8,0:1:0:0:
490,50,193205,5,8,0:2:0:0:
406,384,193363,1,8,0:2:0:0:
256,192,193521,5,14,3:1:0:0:
293,357,195731,5,8,0:2:0:0:
225,49,195889,1,8,0:2:0:0:
3,183,196047,6,0,B|-8:260|88:319|153:247,1,220.999989883423,14|8,0:1|0:1,0:2:0:0:
376,115,196521,2,0,B|387:37|290:-21|225:50,1,220.999989883423,8|8,0:2|0:1,0:2:0:0:
361,243,196994,1,8,0:1:0:0:
160,132,197152,1,8,0:2:0:0:
46,272,197310,5,0,0:2:0:0:
46,272,197389,1,0,0:2:0:0:
46,272,197468,1,10,0:1:0:0:
153,246,197626,1,8,0:1:0:0:
246,305,197784,1,10,0:2:0:0:
353,279,197942,1,0,0:2:0:0:
443,79,198100,5,10,0:1:0:0:
372,374,198257,1,8,0:2:0:0:
69,79,198415,1,10,0:2:0:0:
140,374,198573,1,8,0:1:0:0:
368,184,198731,6,0,B|427:253|535:195|511:104,2,220.999989883423,14|8|10,0:1|0:2|0:1,0:2:0:0:
221,56,199521,1,8,0:1:0:0:
399,6,199679,1,8,0:2:0:0:
321,300,199836,1,0,0:1:0:0:
147,165,199994,6,0,B|80:103|-20:174|14:261,1,220.999989883423,14|8,0:1|0:2,0:2:0:0:
193,377,200468,2,0,L|216:239,1,110.499994941712,10|0,0:1|0:2,0:2:0:0:
332,82,200784,5,10,0:1:0:0:
435,290,200942,1,10,0:2:0:0:
512,92,201100,1,0,0:2:0:0:
512,92,201179,1,0,0:2:0:0:
512,92,201257,2,0,B|543:175|447:245|384:179,2,220.999989883423,12|8|8,0:1|0:2|0:1,0:2:0:0:
424,23,202047,1,8,0:1:0:0:
320,61,202205,1,8,0:2:0:0:
228,19,202363,5,0,0:2:0:0:
228,19,202442,1,0,0:2:0:0:
228,19,202521,1,10,0:1:0:0:
384,179,202679,1,8,0:2:0:0:
224,335,202836,1,0,0:2:0:0:
169,254,202994,5,10,0:1:0:0:
169,254,203073,1,8,0:1:0:0:
169,254,203152,1,12,0:2:0:0:
406,371,203310,1,10,0:2:0:0:
504,126,203468,1,8,0:3:0:0:
421,72,203626,6,0,B|308:123|214:47,1,220.999989883423,14|8,0:1|0:1,0:2:0:0:
8,278,204100,2,0,B|121:227|215:303,1,220.999989883423,8|8,0:2|0:1,0:2:0:0:
286,163,204573,5,8,0:1:0:0:
353,377,204731,1,8,0:2:0:0:
488,197,204889,1,0,0:2:0:0:
404,94,205047,6,0,L|383:212,1,110.499994941712,10|8,0:1|0:1,0:2:0:0:
214,315,205363,1,10,0:2:0:0:
133,99,205521,1,2,0:2:0:0:
133,99,205600,1,0,0:2:0:0:
133,99,205679,1,8,0:1:0:0:
307,156,205836,1,10,0:1:0:0:
39,257,205994,1,8,0:2:0:0:
227,338,206152,6,0,B|323:301|446:317,1,220.999989883423,14|8,0:1|0:1,0:2:0:0:
217,111,206626,2,0,B|121:148|-2:131,1,220.999989883423,8|8,0:2|0:1,0:2:0:0:
239,0,207100,1,8,0:1:0:0:
300,174,207257,1,8,0:2:0:0:
335,287,207415,5,0,0:2:0:0:
335,287,207494,1,0,0:2:0:0:
335,287,207573,1,10,0:1:0:0:
467,151,207731,1,8,0:1:0:0:
281,171,207889,5,10,0:2:0:0:
483,311,208047,1,0,0:2:0:0:
240,327,208205,5,10,0:1:0:0:
484,136,208363,1,8,0:2:0:0:
178,155,208521,5,10,0:2:0:0:
501,322,208679,1,8,0:1:0:0:
277,228,208836,6,0,B|319:267|402:240|406:176,1,170,14|0,0:1|0:2,0:2:0:0:
221,82,209310,1,8,0:2:0:0:
221,82,209389,1,0,0:1:0:0:
221,82,209468,2,0,B|163:11,1,85,2|8,0:2|0:1,0:2:0:0:
95,178,209784,2,0,B|9:200,1,85,8|0,0:2|0:2,0:2:0:0:
149,372,210100,5,14,0:1:0:0:
232,336,210257,2,0,L|241:248,1,85,8|0,0:1|0:2,0:2:0:0:
390,119,210573,5,8,0:2:0:0:
390,119,210652,1,0,0:2:0:0:
390,119,210731,1,2,0:2:0:0:
505,242,210889,1,8,0:1:0:0:
482,63,211047,1,8,0:2:0:0:
411,297,211205,1,0,0:2:0:0:
307,143,211363,6,0,B|329:224|437:224|460:156,1,203.999993774414,14|8,0:1|0:2,0:2:0:0:
196,19,211836,2,0,B|128:19|87:120|154:171,1,203.999993774414,10|8,0:1|0:1,0:2:0:0:
411,33,212310,1,10,0:2:0:0:
481,304,212468,1,8,0:2:0:0:
481,304,212547,1,8,0:2:0:0:
481,304,212626,1,14,0:1:0:0:
0,345,213889,5,14,0:1:0:0:
88,377,214047,1,0,0:2:0:0:
159,315,214205,1,8,0:2:0:0:
70,281,214363,1,2,0:2:0:0:
70,281,214442,1,0,0:2:0:0:
70,281,214521,2,0,B|50:237|54:189,1,93.5000028533936,8|8,0:1|0:1,0:2:0:0:
230,28,214836,5,10,0:2:0:0:
318,110,214994,2,0,B|379:156|452:126|459:56,1,187.000005706787,8|8,0:1|0:1,0:2:0:0:
380,239,215468,2,0,B|426:214|475:213,1,93.5000028533936,8|8,0:2|0:1,0:2:0:0:
312,361,215784,5,2,0:2:0:0:
250,206,215942,1,8,0:1:0:0:
96,337,216100,1,8,0:2:0:0:
21,83,216415,5,10,0:1:0:0:
118,138,216573,1,0,0:2:0:0:
107,42,216731,1,8,0:2:0:0:
35,182,216889,1,2,0:2:0:0:
35,182,216968,1,0,0:2:0:0:
35,182,217047,2,0,B|22:226|45:275,1,93.5000028533936,8|8,0:1|0:1,0:2:0:0:
210,371,217363,5,10,0:2:0:0:
267,271,217521,2,0,B|306:199|221:167|268:91,1,187.000005706787,8|8,0:1|0:1,0:2:0:0:
419,214,217994,2,0,B|541:203,1,93.5000028533936,8|0,0:2|0:2,0:2:0:0:
348,23,218310,5,10,0:1:0:0:
267,271,218468,1,10,0:1:0:0:
0,99,218784,6,0,B|115:83|37:34|166:19,1,187.000005706787,14|0,0:1|0:2,0:2:0:0:
289,133,219257,1,10,0:2:0:0:
162,183,219415,1,2,0:2:0:0:
162,183,219494,1,0,0:2:0:0:
162,183,219573,2,0,B|50:168,1,93.5000028533936,8|8,0:1|0:1,0:2:0:0:
316,44,219889,5,10,0:2:0:0:
389,163,220047,2,0,B|375:236|456:279|513:242,1,187.000005706787,8|8,0:1|0:1,0:1:0:0:
370,384,220521,2,0,B|369:335|332:280,1,93.5000028533936,8|8,0:2|0:1,0:2:0:0:
273,260,220757,1,8,0:2:0:0:
273,260,220836,2,0,B|145:281,1,93.5000028533936,2|8,0:2|0:1,0:0:0:0:
329,144,221152,2,0,B|457:123,1,93.5000028533936,8|8,0:2|0:1,0:0:0:0:
175,0,221468,5,10,0:1:0:0:
112,156,221626,1,0,0:2:0:0:
51,44,221784,1,8,0:2:0:0:
234,121,221942,1,2,0:2:0:0:
234,121,222021,1,0,0:2:0:0:
234,121,222100,1,8,0:1:0:0:
280,33,222257,1,8,0:1:0:0:
453,15,222415,5,10,0:2:0:0:
503,146,222573,2,0,B|533:240|489:329,1,187.000005706787,8|8,0:1|0:1,0:2:0:0:
358,226,223047,2,0,B|314:209|265:210,1,93.5000028533936,8|0,0:2|0:2,0:2:0:0:
83,266,223363,5,10,0:1:0:0:
164,14,223521,1,10,0:1:0:0:
372,248,223994,5,14,0:1:0:0:
458,319,224152,1,0,0:2:0:0:
508,218,224310,1,8,0:2:0:0:
422,147,224468,1,2,0:2:0:0:
422,147,224547,1,0,0:2:0:0:
422,147,224626,2,0,L|396:45,1,101.999996887207,8|8,0:1|0:1,0:2:0:0:
216,12,224942,5,10,0:2:0:0:
142,114,225100,2,0,B|94:176|-10:143|0:63,1,203.999993774414,8|8,0:1|0:1,0:2:0:0:
131,290,225573,2,0,B|137:240|174:198,1,101.999996887207,8|8,0:2|0:1,0:2:0:0:
300,109,225889,5,2,0:2:0:0:
368,256,226047,1,8,0:1:0:0:
504,128,226205,1,8,0:2:0:0:
200,5,226521,5,10,0:1:0:0:
175,104,226679,1,0,0:2:0:0:
275,75,226836,1,8,0:2:0:0:
101,33,226994,1,2,0:2:0:0:
101,33,227073,1,0,0:2:0:0:
101,33,227152,2,0,B|46:15|-5:23,1,101.999996887207,8|8,0:1|0:1,0:2:0:0:
157,199,227468,5,10,0:2:0:0:
282,238,227626,2,0,B|336:293|427:268|428:178,1,203.999993774414,8|8,0:1|0:1,0:2:0:0:
235,384,228100,2,0,B|237:328|202:289,1,101.999996887207,8|0,0:2|0:2,0:2:0:0:
48,147,228415,5,10,0:1:0:0:
0,384,228573,1,10,0:1:0:0:
310,245,228889,6,0,B|370:305|454:293|501:211,1,220.999989883423,14|0,0:1|0:2,0:2:0:0:
356,31,229363,1,10,0:2:0:0:
248,75,229521,1,2,0:2:0:0:
248,75,229600,1,0,0:2:0:0:
248,75,229679,2,0,L|123:53,1,110.499994941712,8|8,0:1|0:1,0:2:0:0:
0,181,229994,5,10,0:2:0:0:
75,308,230152,2,0,B|141:364|236:305|218:222,1,220.999989883423,8|8,0:1|0:1,0:1:0:0:
356,12,230626,2,0,B|327:59|343:118,1,110.499994941712,8|8,0:2|0:1,0:2:0:0:
343,118,230863,1,8,0:2:0:0:
343,118,230942,1,2,0:2:0:0:
452,157,231100,1,8,0:1:0:0:
351,333,231257,1,8,0:2:0:0:
460,372,231415,1,8,0:1:0:0:
312,228,231573,5,10,0:1:0:0:
195,309,231731,1,0,0:2:0:0:
61,258,231889,1,8,0:2:0:0:
23,129,232047,5,2,0:2:0:0:
23,129,232126,1,0,0:2:0:0:
23,129,232205,1,8,0:1:0:0:
79,372,232363,1,8,0:1:0:0:
322,316,232521,1,10,0:2:0:0:
264,238,232679,6,0,B|315:128|190:133|248:14,1,237.999992736817,8|8,0:1|0:1,0:2:0:0:
396,238,233152,2,0,L|530:212,1,118.999996368408,8|0,0:2|0:2,0:2:0:0:
122,12,233468,5,10,0:1:0:0:
64,364,233626,1,10,0:1:0:0:
