osu file format v14

[General]
AudioFilename: Everywhere With You.mp3
AudioLeadIn: 2000
PreviewTime: 47101
Countdown: 0
SampleSet: Soft
StackLeniency: 0.5
Mode: 0
LetterboxInBreaks: 0
WidescreenStoryboard: 1

[Editor]
Bookmarks: 11375,22723,58921,80341
DistanceSpacing: 0.8
BeatDivisor: 4
GridSize: 4
TimelineZoom: 1.800006

[Metadata]
Title:Everywhere With You
TitleUnicode:Everywhere With You
Artist:Barbarian On The Groove feat. Shimotsuki Haruka
ArtistUnicode:Barbarian On The Groove feat. 霜月はるか
Creator:Shiyzo
Version:Normal
Source:W.L.O.世界恋愛機構
Tags:Akabeisoft2 Kusaka ending ed Aina bassy World Love Organization Vocal Collection pop Eroge Anime Video game Visual novel Japanese Short version -Doodle
BeatmapID:2547392
BeatmapSetID:1224833

[Difficulty]
HPDrainRate:4
CircleSize:3.5
OverallDifficulty:4
ApproachRate:5
SliderMultiplier:1.15
SliderTickRate:1

[Events]
//Background and Video events
0,0,"thumb-1920-146428.jpg",0,0
//Break Periods
//Storyboard Layer 0 (Background)
//Storyboard Layer 1 (Fail)
//Storyboard Layer 2 (Pass)
//Storyboard Layer 3 (Foreground)
//Storyboard Layer 4 (Overlay)
//Storyboard Sound Samples

[TimingPoints]
464,344.827586206897,4,2,1,75,1,0
33567,-111.111111111111,4,2,1,65,0,0
41843,-105.263157894737,4,2,1,55,0,0
47360,-100,4,2,1,95,0,1
58222,-100,4,2,1,95,0,0
58395,-100,4,2,1,95,0,1
69429,-100,4,2,1,75,0,0
93899,329.67032967033,4,2,1,75,1,0
94556,275.229357798165,4,2,1,65,1,0
94881,331.491712707182,4,2,1,65,1,0
95067,350.877192982456,4,2,1,65,1,0
95352,273.972602739726,4,2,1,65,1,0
95674,273.972602739726,4,2,1,65,1,0
95769,350.877192982456,4,2,1,65,1,0
96653,344.827586206897,4,2,1,85,1,0
100790,-100,4,2,1,5,0,0

[Colours]
Combo1 : 114,133,35
Combo2 : 255,156,108
Combo3 : 255,128,128
Combo4 : 0,128,192
Combo5 : 163,215,40

[HitObjects]
412,236,464,6,0,P|365:246|330:306,1,115,4|8,1:0|0:0,0:0:0:0:
247,338,1153,1,10,0:0:0:0:
247,338,1326,2,0,L|233:264,2,57.5,2|8|2,1:0|0:0|0:0,0:0:0:0:
139,309,2015,2,0,L|149:248,2,57.5,2|8|2,1:0|0:0|0:0,0:0:0:0:
52,262,2705,2,0,P|67:219|49:147,1,115,2|2,1:0|0:0,0:0:0:0:
38,127,3222,6,0,P|123:132|166:118,1,115,8|8,0:0|0:0,0:0:0:0:
235,87,3912,1,8,0:0:0:0:
235,87,4084,1,0,1:0:0:0:
324,106,4429,2,0,P|339:158|303:227,1,115,0|0,1:0|1:0,0:0:0:0:
254,280,5119,1,0,1:0:0:0:
254,280,5291,1,10,0:3:0:0:
323,340,5636,1,12,0:0:0:0:
402,293,5981,6,0,P|444:261|455:198,1,115,8|8,0:0|0:0,0:0:0:0:
429,114,6670,1,10,0:0:0:0:
429,114,6843,2,0,L|363:109,2,57.5,2|8|2,1:0|0:0|0:0,0:0:0:0:
392,25,7532,2,0,L|334:18,2,57.5,2|8|2,1:0|0:0|0:0,0:0:0:0:
291,93,8222,2,0,P|263:150|292:215,1,115,2|2,1:0|0:0,0:0:0:0:
294,239,8739,6,0,L|176:251,1,115,8|8,0:0|0:0,0:0:0:0:
120,179,9429,1,8,0:0:0:0:
120,179,9601,1,0,1:0:0:0:
65,112,9946,2,0,P|122:94|196:108,1,115,0|2,1:0|1:0,0:0:0:0:
268,121,10636,1,2,0:0:0:0:
268,121,10808,2,0,P|321:139|389:120,1,115,10|10,0:0|0:0,0:0:0:0:
460,87,11498,5,4,1:0:0:0:
451,178,11843,1,8,0:0:0:0:
476,266,12188,2,0,P|422:270|359:250,1,115,2|8,1:0|0:0,0:0:0:0:
325,227,12705,2,0,P|266:231|204:261,1,115,2|0,1:0|1:0,0:0:0:0:
178,280,13222,1,10,0:0:0:0:
235,352,13567,1,2,1:0:0:0:
143,362,13912,2,0,P|73:350|16:357,1,115,8|0,0:0|1:0,0:0:0:0:
44,263,14601,5,8,0:0:0:0:
0,181,14946,2,0,P|41:173|112:204,1,115,10|8,0:0|0:0,0:0:0:0:
140,164,15464,2,0,L|108:45,1,115,2|0,1:0|1:0,0:0:0:0:
95,9,15981,1,10,0:0:0:0:
188,6,16326,2,0,P|244:16|319:4,1,115,2|10,1:0|0:0,0:0:0:0:
391,25,17015,6,0,P|444:53|462:103,1,115,2|8,1:0|0:0,0:0:0:0:
370,116,17705,2,0,P|370:170|406:232,1,115,2|8,1:0|0:0,0:0:0:0:
415,265,18222,2,0,P|371:300|315:294,1,115,2|0,1:0|1:0,0:0:0:0:
275,270,18739,1,8,0:0:0:0:
188,239,19084,1,0,1:0:0:0:
167,328,19429,2,0,L|103:331,1,57.5,10|2,0:0|0:0,0:0:0:0:
126,373,19775,6,0,L|11:384,1,115,2|8,1:0|0:0,0:0:0:0:
36,278,20464,2,0,P|60:252|32:172,1,115,2|8,1:0|0:0,0:0:0:0:
13,145,20981,2,0,L|135:158,1,115,2|2,1:0|1:0,0:0:0:0:
173,163,21498,1,10,0:0:0:0:
258,130,21843,2,0,L|372:117,1,115,2|14,1:0|0:0,0:0:0:0:
463,104,22532,5,4,1:0:0:0:
491,16,22877,1,8,0:0:0:0:
399,20,23222,2,0,P|348:35|279:27,1,115,2|8,1:0|0:0,0:0:0:0:
244,12,23739,2,0,P|183:46|170:103,1,115,2|0,1:0|1:0,0:0:0:0:
168,132,24257,1,10,0:0:0:0:
89,85,24601,1,2,1:0:0:0:
5,122,24946,2,0,P|4:184|52:235,1,115,10|0,0:0|1:0,0:0:0:0:
126,224,25636,5,8,0:0:0:0:
104,313,25981,2,0,P|155:304|225:322,1,115,2|8,1:0|0:0,0:0:0:0:
261,327,26498,2,0,P|277:272|246:213,1,115,2|0,1:0|1:0,0:0:0:0:
230,182,27015,1,10,0:0:0:0:
172,109,27360,2,0,P|195:74|218:3,1,115,2|10,1:0|0:0,0:0:0:0:
301,43,28050,6,0,L|316:162,1,115,2|8,1:0|0:0,0:0:0:0:
399,195,28739,2,0,L|407:71,1,115,2|8,1:0|0:0,0:0:0:0:
409,33,29257,2,0,P|454:48|495:115,1,115,2|0,1:0|1:0,0:0:0:0:
499,146,29774,1,8,0:0:0:0:
492,237,30119,1,0,1:0:0:0:
503,327,30464,1,10,0:0:0:0:
420,366,30809,6,0,P|364:352|310:369,1,115,2|10,1:0|0:0,0:0:0:0:
221,362,31498,2,0,L|232:293,1,57.5,2|0,1:0|1:0,0:0:0:0:
236,259,31843,1,10,0:0:0:0:
236,259,32015,1,2,1:0:0:0:
240,167,32360,2,0,L|120:134,1,115,2|10,1:0|0:0,0:0:0:0:
84,120,32877,2,0,P|56:155|58:241,1,115,10|6,0:0|0:3,0:0:0:0:
76,311,33567,5,4,1:2:0:0:
159,327,33912,1,2,1:0:0:0:
241,321,34257,2,0,P|236:297|250:227,1,51.7499984207154,10|0,0:0|1:0,0:0:0:0:
280,180,34774,2,0,L|159:185,1,103.499996841431,6|0,1:0|1:0,0:0:0:0:
135,187,35291,2,0,P|93:138|124:99,1,103.499996841431,0|10,1:0|0:0,0:0:0:0:
159,45,35981,1,10,0:0:0:0:
238,22,36326,5,6,1:2:0:0:
312,57,36670,1,0,0:0:0:0:
392,37,37015,2,0,P|415:78|407:146,1,103.499996841431,2|8,1:0|0:0,0:0:0:0:
394,170,37532,2,0,L|509:166,1,103.499996841431,6|0,1:0|1:0,0:0:0:0:
504,207,38050,2,0,P|483:248|493:311,1,103.499996841431,0|14,1:0|0:0,0:0:0:0:
463,382,38739,1,10,0:0:0:0:
380,372,39084,5,4,1:0:0:0:
297,370,39429,2,0,P|289:318|309:259,1,103.499996841431,2|8,1:0|0:0,0:0:0:0:
314,229,39946,2,0,L|241:213,1,51.7499984207154,2|8,1:0|0:0,0:0:0:0:
294,190,40291,2,0,L|191:167,1,103.499996841431,6|8,1:0|0:0,0:0:0:0:
111,151,40981,1,0,1:0:0:0:
111,151,41153,2,0,P|91:210|114:267,1,103.499996841431,14|10,0:0|0:0,0:0:0:0:
140,326,41843,6,0,P|96:337|35:302,1,109.24999708271,6|0,1:0|1:0,0:0:0:0:
0,230,42532,2,0,P|-1:177|0:109,1,109.24999708271,10|0,0:0|1:2,0:0:0:0:
3,33,43222,2,0,P|48:44|125:10,1,109.24999708271,2|0,1:2|0:2,0:0:0:0:
194,34,43912,2,0,L|199:161,1,109.24999708271,14|0,0:0|1:0,0:0:0:0:
199,230,44601,6,0,L|266:220,1,54.6249985413552,6|10,1:2|0:0,0:0:0:0:
294,299,45119,1,10,0:0:0:0:
380,283,45464,1,10,0:0:0:0:
422,358,45808,1,14,0:0:0:0:
509,365,46153,1,14,0:0:0:0:
502,274,46498,1,14,0:0:0:0:
502,274,46670,2,0,P|463:232|482:168,1,109.24999708271,14|8,0:0|0:3,0:0:0:0:
473,91,47360,6,0,P|411:99|346:78,1,115,6|10,1:0|0:0,0:0:0:0:
274,54,48050,2,0,L|282:179,1,115,2|10,1:0|0:0,0:0:0:0:
189,159,48739,1,2,1:0:0:0:
180,250,49084,1,10,0:0:0:0:
272,259,49429,1,2,1:0:0:0:
279,350,49774,1,10,0:0:0:0:
188,364,50119,1,2,1:0:0:0:
108,327,50464,1,10,0:0:0:0:
108,327,50636,6,0,P|93:284|108:201,1,115,2|0,0:0|3:0,0:0:0:0:
112,171,51153,1,8,0:0:0:0:
139,83,51498,2,0,L|259:70,1,115,0|10,0:0|0:0,0:0:0:0:
345,72,52188,6,0,L|345:144,1,57.5,0|2,1:0|1:0,0:0:0:0:
390,126,52532,2,0,L|387:193,1,57.5,14|8,0:0|0:0,0:0:0:0:
433,189,52877,2,0,L|419:319,1,115,6|10,1:0|0:0,0:0:0:0:
360,373,53567,2,0,P|330:328|345:253,1,115,2|8,1:0|0:0,0:0:0:0:
317,232,54084,2,0,L|242:243,1,57.5,2|0,1:0|0:0,0:0:0:0:
266,194,54429,2,0,L|191:205,1,57.5,2|8,1:0|0:0,0:0:0:0:
117,215,54946,6,0,P|102:190|102:147,1,57.5,2|2,1:0|1:0,0:0:0:0:
65,194,55291,2,0,P|50:169|50:126,1,57.5,10|10,0:0|0:0,0:0:0:0:
20,103,55636,2,0,P|60:60|134:45,1,115,6|10,1:2|0:0,0:0:0:0:
154,25,56153,2,0,P|157:79|193:137,1,115,2|2,0:0|1:0,0:0:0:0:
279,129,56843,6,0,L|281:196,1,57.5,14|0,0:0|0:0,0:0:0:0:
326,190,57188,2,0,L|315:257,1,57.5,14|0,0:0|0:0,0:0:0:0:
319,296,57532,1,8,0:0:0:0:
319,296,57705,1,14,0:0:0:0:
400,339,58050,1,8,0:3:0:0:
465,281,58395,6,0,P|446:239|460:167,1,115,6|10,1:0|0:0,0:0:0:0:
481,84,59084,2,0,L|361:94,1,115,2|10,1:0|0:0,0:0:0:0:
296,33,59774,1,2,1:0:0:0:
204,24,60119,1,10,0:0:0:0:
113,9,60464,1,2,1:0:0:0:
132,98,60808,1,10,0:0:0:0:
208,148,61153,1,2,1:0:0:0:
288,203,61498,1,10,0:0:0:0:
288,203,61670,6,0,P|223:239|162:229,1,115,2|0,0:0|3:0,0:0:0:0:
137,236,62188,1,8,0:0:0:0:
131,328,62532,2,0,L|245:336,1,115,0|10,0:0|0:0,0:0:0:0:
336,343,63222,6,0,L|338:272,1,57.5,0|2,1:2|1:0,0:0:0:0:
379,304,63567,2,0,L|381:233,1,57.5,14|8,0:0|0:0,0:0:0:0:
381,200,63912,2,0,P|358:144|320:104,1,115,6|10,1:0|0:0,0:0:0:0:
335,60,64429,2,0,P|394:68|448:55,1,115,2|0,0:0|1:0,0:0:0:0:
481,140,65119,2,0,P|456:167|420:250,1,115,2|0,1:0|1:0,0:0:0:0:
415,282,65636,1,8,0:0:0:0:
385,369,65981,6,0,L|314:355,1,57.5,0|2,1:0|1:0,0:0:0:0:
325,311,66326,2,0,L|254:297,1,57.5,10|8,0:0|0:0,0:0:0:0:
276,254,66670,2,0,P|234:206|253:146,1,115,4|10,1:2|0:0,0:0:0:0:
258,115,67188,2,0,P|204:100|144:130,1,115,2|2,0:0|1:0,0:0:0:0:
60,107,67877,6,0,L|30:170,1,57.5,14|0,0:0|0:0,0:0:0:0:
80,166,68222,2,0,L|50:229,1,57.5,14|0,0:0|0:0,0:0:0:0:
42,264,68567,1,10,0:0:0:0:
42,264,68739,1,14,0:0:0:0:
19,353,69084,1,4,0:3:0:0:
110,340,69429,6,0,P|196:315|237:335,1,115,4|10,1:0|0:0,0:0:0:0:
301,357,70119,1,2,1:0:0:0:
301,357,70291,1,2,1:0:0:0:
380,309,70636,2,0,L|380:180,1,115,6|0,1:0|1:0,0:0:0:0:
376,147,71153,2,0,P|411:112|416:44,2,115,8|0|10,0:0|1:0|0:0,0:0:0:0:
326,69,72188,6,0,L|196:68,1,115,2|14,1:0|0:0,0:0:0:0:
135,16,72877,1,4,1:2:0:0:
135,16,73050,1,2,1:0:0:0:
43,26,73395,2,0,P|58:72|46:144,1,115,6|0,1:0|1:0,0:0:0:0:
31,179,73912,2,0,P|86:185|158:193,2,115,10|2|8,0:0|1:0|0:0,0:0:0:0:
49,269,74946,6,0,L|120:277,1,57.5,0|0,1:0|1:0,0:0:0:0:
88,318,75291,2,0,L|207:331,1,115,10|10,0:0|1:2,0:0:0:0:
247,338,75808,1,2,1:0:0:0:
334,365,76153,2,0,P|338:314|291:259,1,115,6|0,1:0|1:0,0:0:0:0:
264,237,76670,2,0,L|399:227,2,115,8|0|10,0:0|1:0|0:0,0:0:0:0:
200,169,77705,2,0,P|208:127|185:45,1,115,2|8,1:0|0:0,0:0:0:0:
235,40,78222,6,0,L|292:53,1,57.5,2|8,1:0|0:0,0:0:0:0:
336,67,78567,2,0,L|393:54,1,57.5,10|4,0:3|0:3,0:0:0:0:
427,24,78912,2,0,L|443:190,1,115,10|0,0:0|1:0,0:0:0:0:
441,184,79429,1,14,0:0:0:0:
184,287,80464,6,0,P|225:291|299:271,1,115,4|8,1:0|0:0,0:0:0:0:
373,223,81153,1,10,0:0:0:0:
373,223,81326,2,0,L|362:166,2,57.5,2|8|2,1:0|0:0|0:0,0:0:0:0:
449,171,82015,2,0,L|439:114,2,57.5,2|8|2,1:0|0:0|0:0,0:0:0:0:
454,263,82705,2,0,P|419:304|342:305,1,115,2|2,1:0|0:0,0:0:0:0:
315,305,83222,6,0,P|323:247|297:188,1,115,8|8,0:0|0:0,0:0:0:0:
217,177,83912,1,8,0:0:0:0:
217,177,84084,1,0,1:0:0:0:
128,202,84429,2,0,P|113:150|149:81,1,115,0|0,1:0|1:0,0:0:0:0:
198,29,85119,1,0,1:0:0:0:
198,29,85291,1,10,0:3:0:0:
109,5,85636,1,12,0:0:0:0:
19,25,85981,6,0,P|19:76|12:152,1,115,8|8,0:0|0:0,0:0:0:0:
90,199,86670,1,10,0:0:0:0:
90,199,86843,2,0,L|156:204,2,57.5,2|8|2,1:0|0:0|0:0,0:0:0:0:
108,289,87532,2,0,L|166:296,2,57.5,2|8|2,1:0|0:0|0:0,0:0:0:0:
22,254,88222,2,0,P|15:310|45:358,1,115,2|2,1:0|0:0,0:0:0:0:
88,373,88739,6,0,L|214:386,1,115,8|8,0:0|0:0,0:0:0:0:
292,355,89429,1,8,0:0:0:0:
292,355,89601,1,0,1:0:0:0:
383,368,89946,2,0,P|401:311|387:237,1,115,0|2,1:0|1:0,0:0:0:0:
451,184,90636,1,10,0:0:0:0:
451,184,90808,2,0,P|398:166|329:192,1,115,10|6,0:0|0:3,0:0:0:0:
273,242,91498,6,0,L|222:198,1,57.5,4|8,1:0|0:0,0:0:0:0:
162,141,92015,1,8,0:0:0:0:
146,50,92360,1,10,0:0:0:0:
235,29,92705,1,14,0:0:0:0:
260,117,93050,6,0,P|299:125|374:95,1,115,10|6,0:3|0:3,0:0:0:0:
404,72,93567,1,6,0:3:0:0:
489,118,93899,1,6,0:3:0:0:
256,192,94556,12,10,95856,0:0:0:0:
256,192,96653,12,0,100790,0:0:0:0:
