osu file format v14

[General]
AudioFilename: Everywhere With You.mp3
AudioLeadIn: 2000
PreviewTime: 47101
Countdown: 0
SampleSet: Soft
StackLeniency: 0.5
Mode: 0
LetterboxInBreaks: 0
WidescreenStoryboard: 1

[Editor]
Bookmarks: 22723,51720,58921,65168,65254,80341
DistanceSpacing: 1.4
BeatDivisor: 4
GridSize: 4
TimelineZoom: 2.200006

[Metadata]
Title:Everywhere With You
TitleUnicode:Everywhere With You
Artist:Barbarian On The Groove feat. Shimotsuki Haruka
ArtistUnicode:Barbarian On The Groove feat. 霜月はるか
Creator:Shiyzo
Version:Hard
Source:W.L.O.世界恋愛機構
Tags:Akabeisoft2 Kusaka ending ed Aina bassy World Love Organization Vocal Collection pop Eroge Anime Video game Visual novel Japanese Short version -Doodle
BeatmapID:2547390
BeatmapSetID:1224833

[Difficulty]
HPDrainRate:5
CircleSize:4
OverallDifficulty:6
ApproachRate:7.5
SliderMultiplier:1.4
SliderTickRate:1

[Events]
//Background and Video events
0,0,"thumb-1920-146428.jpg",0,0
//Break Periods
//Storyboard Layer 0 (Background)
//Storyboard Layer 1 (Fail)
//Storyboard Layer 2 (Pass)
//Storyboard Layer 3 (Foreground)
//Storyboard Layer 4 (Overlay)
//Storyboard Sound Samples

[TimingPoints]
464,344.827586206897,4,2,1,85,1,0
5895,-100,4,2,1,85,0,0
5981,-100,4,2,1,85,0,0
11498,-111.111111111111,4,2,1,75,0,0
41843,-111.111111111111,4,2,1,75,0,0
47273,-111.111111111111,4,2,1,75,0,0
47360,-100,4,2,1,95,0,1
58308,-100,4,2,1,95,0,0
58395,-100,4,2,1,95,0,1
64170,-100,4,2,1,95,0,1
64257,-100,4,2,1,95,0,1
69343,-100,4,2,1,95,0,1
69429,-100,4,2,1,85,0,0
77964,-100,4,2,1,85,0,0
78050,-100,4,2,1,85,0,0
93899,329.67032967033,4,2,1,75,1,0
94556,275.229357798165,4,2,1,65,1,0
94881,331.491712707182,4,2,1,65,1,0
95067,350.877192982456,4,2,1,65,1,0
95352,273.972602739726,4,2,1,65,1,0
95674,273.972602739726,4,2,1,65,1,0
95769,350.877192982456,4,2,1,65,1,0
96653,344.827586206897,4,2,1,85,1,0
100790,-100,4,2,1,5,0,0

[Colours]
Combo1 : 0,128,192
Combo2 : 255,156,108
Combo3 : 255,128,128

[HitObjects]
96,223,464,6,0,L|190:240,1,70,4|0,1:0|0:0,0:0:0:0:
162,313,808,2,0,L|68:330,1,70,8|0,0:0|0:0,0:0:0:0:
19,277,1153,1,10,0:0:0:0:
19,188,1326,2,0,P|20:142|97:83,1,140,2|2,1:0|0:0,0:0:0:0:
259,30,2015,6,0,L|276:115,1,70,2|8,1:0|0:0,0:0:0:0:
360,101,2360,2,0,L|373:32,1,70,2|8,0:0|0:3,0:0:0:0:
458,33,2705,2,0,L|471:101,1,70,2|4,1:0|0:3,0:0:0:0:
499,192,3050,1,2,0:0:0:0:
361,251,3222,6,0,P|407:251|466:338,1,140,8|8,0:0|0:0,0:0:0:0:
289,327,3912,2,0,P|281:268|276:237,1,70,8|0,0:0|1:0,0:0:0:0:
236,180,4257,1,8,0:0:0:0:
196,259,4429,2,0,P|190:293|186:328,1,70,0|8,1:0|0:0,0:0:0:0:
104,325,4774,6,0,P|96:266|91:235,2,70,0|10|0,1:0|0:0|1:0,0:0:0:0:
21,227,5291,2,0,L|33:140,1,70,10|0,0:3|1:0,0:0:0:0:
117,141,5636,2,0,L|100:29,1,105,12|0,0:0|0:0,0:0:0:0:
121,17,5981,6,0,P|193:31|211:17,1,70,8|0,0:0|0:0,0:0:0:0:
269,126,6326,2,0,P|197:140|179:126,1,70,8|0,0:0|0:0,0:0:0:0:
117,141,6670,1,10,0:0:0:0:
29,132,6843,2,0,P|40:197|49:279,1,140,2|2,1:0|0:0,0:0:0:0:
202,314,7532,6,0,L|120:302,1,70,2|8,1:0|0:0,0:0:0:0:
182,228,7877,2,0,L|264:216,1,70,2|8,0:0|0:3,0:0:0:0:
202,136,8222,2,0,L|120:124,1,70,2|8,1:0|0:0,0:0:0:0:
191,55,8567,1,2,0:0:0:0:
274,17,8739,6,0,P|305:78|308:148,1,140,8|8,0:0|0:0,0:0:0:0:
503,167,9429,1,8,0:0:0:0:
474,81,9601,2,0,L|444:10,1,70,0|8,1:0|0:0,0:0:0:0:
425,148,9946,2,0,L|356:134,1,70,0|8,1:0|0:0,0:0:0:0:
271,165,10291,6,0,P|261:217|274:263,2,70,2|10|2,1:0|0:0|0:0,0:0:0:0:
295,83,10808,1,10,0:0:0:0:
215,33,10981,2,0,L|205:-6,2,35,10|8|10,0:0|0:0|0:0,0:0:0:0:
165,151,11326,1,10,0:0:0:0:
96,65,11498,6,0,P|61:118|62:183,1,125.999996154785,4|8,1:0|0:0,0:0:0:0:
67,185,12188,2,0,L|92:329,1,125.999996154785,2|8,1:0|0:0,0:0:0:0:
182,345,12705,2,0,P|213:322|316:341,1,125.999996154785,2|0,1:0|1:0,0:0:0:0:
386,345,13222,2,0,P|386:290|404:211,1,125.999996154785,10|2,0:0|1:0,0:0:0:0:
436,138,13739,2,0,L|498:127,1,62.9999980773926,0|8,1:0|0:0,0:0:0:0:
430,60,14084,2,0,L|367:49,1,62.9999980773926,2|0,0:0|1:0,0:0:0:0:
243,93,14601,5,8,0:0:0:0:
249,101,14946,2,0,L|176:225,1,125.999996154785,10|8,0:0|0:0,0:0:0:0:
187,298,15464,2,0,P|231:313|302:277,1,125.999996154785,2|0,1:0|1:0,0:0:0:0:
361,207,15981,6,0,L|291:186,1,62.9999980773926,10|0,0:0|0:0,0:0:0:0:
203,126,16326,2,0,L|272:105,1,62.9999980773926,2|0,1:0|1:0,0:0:0:0:
356,43,16670,2,0,L|286:22,1,62.9999980773926,10|8,0:0|0:0,0:0:0:0:
408,119,17015,6,0,P|408:208|410:270,1,125.999996154785,2|8,1:0|0:0,0:0:0:0:
474,323,17532,1,8,0:0:0:0:
471,330,17619,1,8,0:0:0:0:
465,334,17705,2,0,P|423:334|385:353,1,62.9999980773926,2|0,1:0|1:0,0:0:0:0:
312,362,18050,1,8,0:0:0:0:
233,302,18222,6,0,P|232:251|248:170,1,125.999996154785,2|0,1:0|1:0,0:0:0:0:
312,99,18739,1,8,0:0:0:0:
304,103,19084,6,0,L|226:66,1,62.9999980773926,0|2,1:0|1:0,0:0:0:0:
165,35,19429,1,10,0:0:0:0:
78,70,19601,1,2,0:0:0:0:
163,129,19774,6,0,P|155:176|162:274,1,125.999996154785,2|8,1:0|0:0,0:0:0:0:
163,357,20291,1,8,0:0:0:0:
163,357,20377,1,8,0:0:0:0:
163,357,20464,2,0,P|114:363|82:361,1,62.9999980773926,2|0,1:0|1:0,0:0:0:0:
0,369,20808,1,8,0:0:0:0:
40,254,20981,6,0,P|88:273|171:240,1,125.999996154785,2|2,1:0|1:0,0:0:0:0:
252,293,21498,2,0,L|237:217,1,62.9999980773926,10|8,0:0|0:0,0:0:0:0:
107,124,21843,2,0,L|119:185,1,62.9999980773926,2|0,1:0|1:0,0:0:0:0:
214,61,22188,2,8,L|199:-15,1,62.9999980773926,14|8,0:0|0:0,0:0:0:0:
324,152,22532,6,0,L|394:274,1,125.999996154785,4|8,1:0|0:0,0:0:0:0:
394,268,23222,2,0,P|440:249|456:162,1,125.999996154785,2|8,1:0|0:0,0:0:0:0:
472,92,23739,2,0,L|330:51,1,125.999996154785,2|0,1:0|1:0,0:0:0:0:
251,61,24257,2,0,L|129:95,1,125.999996154785,10|2,0:0|1:0,0:0:0:0:
17,28,24774,2,0,P|33:62|28:96,1,62.9999980773926,0|10,1:0|0:0,0:0:0:0:
19,172,25119,1,10,0:0:0:0:
113,192,25291,2,0,P|133:225|219:240,1,125.999996154785,0|8,1:0|0:0,0:0:0:0:
298,188,25808,1,8,0:0:0:0:
298,188,25895,1,8,0:0:0:0:
298,188,25981,6,0,P|354:189|415:257,1,125.999996154785,2|8,1:0|0:0,0:0:0:0:
409,349,26498,2,0,P|353:348|292:280,1,125.999996154785,2|0,1:0|1:0,0:0:0:0:
217,179,27015,2,0,L|212:252,1,62.9999980773926,10|0,0:0|0:0,0:0:0:0:
123,364,27360,2,0,L|123:295,1,62.9999980773926,2|0,1:0|1:0,0:0:0:0:
14,210,27705,2,0,L|19:283,1,62.9999980773926,10|8,0:0|0:0,0:0:0:0:
86,183,28050,6,0,P|84:138|43:57,1,125.999996154785,2|8,1:0|0:0,0:0:0:0:
116,6,28567,1,8,0:0:0:0:
116,6,28653,1,8,0:0:0:0:
116,6,28739,2,0,L|180:29,1,62.9999980773926,2|0,1:0|1:0,0:0:0:0:
262,64,29084,1,8,0:0:0:0:
331,4,29257,2,0,P|309:42|318:130,1,125.999996154785,2|0,1:0|1:0,0:0:0:0:
233,213,29774,6,0,L|311:221,1,62.9999980773926,8|0,0:0|0:0,0:0:0:0:
380,279,30119,1,0,1:0:0:0:
426,191,30291,2,0,P|434:150|454:115,1,62.9999980773926,2|10,1:0|0:0,0:0:0:0:
484,47,30636,1,2,0:0:0:0:
443,131,30808,6,0,P|391:135|312:128,1,125.999996154785,2|10,1:0|0:0,0:0:0:0:
214,70,31326,1,8,0:0:0:0:
205,72,31412,1,8,0:0:0:0:
202,82,31498,2,0,L|213:210,1,125.999996154785,2|10,1:0|0:0,0:0:0:0:
93,158,32015,2,0,L|118:299,1,125.999996154785,2|2,1:0|1:0,0:0:0:0:
30,347,32532,5,10,0:0:0:0:
111,367,32705,1,10,0:0:0:0:
195,345,32877,2,0,P|237:319|315:339,1,125.999996154785,10|6,0:0|0:3,0:0:0:0:
399,369,33395,1,4,0:3:0:0:
384,275,33567,1,4,1:2:0:0:
394,273,33912,6,0,L|402:204,1,62.9999980773926,2|0,1:0|0:0,0:0:0:0:
418,116,34257,1,10,0:0:0:0:
418,116,34429,1,0,1:0:0:0:
232,70,34774,2,0,P|245:116|188:196,1,125.999996154785,6|0,1:0|1:0,0:0:0:0:
138,234,35291,5,0,1:0:0:0:
174,319,35464,1,0,1:0:0:0:
266,324,35636,2,0,B|295:316|295:316|346:251,1,94.499997116089,10|0,0:0|0:0,0:0:0:0:
355,224,35981,2,0,L|339:170,3,31.4999990386963,10|8|8|8,0:0|0:0|0:0|0:0,0:1:0:0:
362,252,36326,6,0,L|381:334,1,62.9999980773926,6|0,1:2|0:0,0:0:0:0:
449,384,36670,2,0,L|463:322,1,62.9999980773926,0|8,0:0|0:0,0:0:0:0:
455,222,37015,2,0,P|477:181|470:143,2,62.9999980773926,2|0|8,1:0|1:0|0:0,0:0:0:0:
435,81,37532,6,0,P|355:88|306:88,1,125.999996154785,6|0,1:0|1:0,0:0:0:0:
254,172,38050,2,0,P|306:172|341:175,1,62.9999980773926,0|0,1:0|1:0,0:0:0:0:
392,229,38395,2,0,L|455:222,1,62.9999980773926,14|0,0:0|0:0,0:0:0:0:
459,327,38739,2,0,L|396:318,1,62.9999980773926,10|10,0:0|0:0,0:0:0:0:
309,311,39084,6,0,L|169:325,1,125.999996154785,4|2,1:0|1:0,0:0:0:0:
97,294,39601,1,0,1:0:0:0:
32,351,39774,2,0,P|46:313|37:263,1,62.9999980773926,8|2,0:0|1:0,0:0:0:0:
111,81,40291,2,0,L|134:234,1,125.999996154785,6|8,1:0|0:0,0:0:0:0:
209,164,40808,6,0,L|213:101,1,62.9999980773926,0|0,1:0|1:0,0:0:0:0:
242,9,41153,2,0,P|203:8|162:26,1,62.9999980773926,14|0,0:0|0:0,0:0:0:0:
111,81,41498,1,10,0:0:0:0:
30,38,41670,1,8,0:0:0:0:
11,132,41843,6,0,P|26:182|16:267,1,125.999996154785,6|0,1:0|1:0,0:0:0:0:
0,357,42360,1,0,1:0:0:0:
102,366,42532,2,0,L|172:383,1,62.9999980773926,10|0,0:0|0:0,0:0:0:0:
259,378,42877,2,0,L|320:363,1,62.9999980773926,0|0,1:2|0:0,0:0:0:0:
217,283,43222,6,0,B|197:243|212:203,1,62.9999980773926,2|8,1:2|0:0,0:0:0:0:
304,216,43567,2,0,B|305:171|287:156,1,62.9999980773926,0|0,0:2|1:0,0:0:0:0:
237,68,43912,2,0,P|315:61|389:138,1,188.999994232178,14|8,0:0|0:0,0:0:0:0:
429,227,44601,5,6,1:2:0:0:
496,85,44774,2,0,L|490:148,1,62.9999980773926,10|0,0:0|0:0,0:0:0:0:
382,72,45119,2,0,L|388:134,1,62.9999980773926,10|0,0:0|0:0,0:0:0:0:
294,16,45464,2,0,P|293:56|275:92,1,62.9999980773926,10|0,0:0|0:0,0:0:0:0:
152,165,45808,6,0,L|228:159,1,62.9999980773926,14|0,0:0|0:0,0:0:0:0:
395,222,46153,2,0,L|319:216,1,62.9999980773926,14|0,0:0|0:0,0:0:0:0:
214,293,46498,1,14,0:0:0:0:
214,293,46670,1,14,0:0:0:0:
395,222,47015,2,0,P|411:189|479:167,1,94.499997116089,8|0,0:3|0:0,0:0:0:0:
498,173,47360,6,0,L|481:77,1,70,6|0,1:0|0:0,0:0:0:0:
394,15,47705,2,0,L|381:83,1,70,10|0,0:0|0:0,0:0:0:0:
289,172,48050,2,0,L|272:76,1,70,2|0,1:0|1:0,0:0:0:0:
185,14,48395,2,0,L|172:82,1,70,10|0,0:0|0:0,0:0:0:0:
41,176,48739,6,0,P|104:160|128:170,1,70,2|0,1:0|0:0,0:0:0:0:
220,217,49084,2,0,P|189:232|154:232,1,70,10|0,0:0|0:0,0:0:0:0:
172,83,49429,2,0,P|187:113|187:148,1,70,2|0,1:0|1:0,0:0:0:0:
74,245,49774,2,0,P|74:280|90:311,1,70,10|0,0:0|0:0,0:0:0:0:
167,366,50119,6,0,P|218:343|312:362,1,140,2|10,1:0|0:0,0:0:0:0:
391,372,50636,1,2,0:0:0:0:
317,270,50808,2,0,L|329:193,1,70,2|0,1:0|3:0,0:0:0:0:
343,104,51153,1,8,0:0:0:0:
328,201,51326,2,0,P|368:200|401:183,1,70,2|0,1:2|0:0,0:0:0:0:
459,103,51670,1,0,1:0:0:0:
502,186,51843,2,0,L|506:272,1,70,10|0,0:0|1:0,0:0:0:0:
512,378,52188,5,0,1:0:0:0:
416,350,52360,1,2,1:0:0:0:
326,384,52532,2,0,P|304:337|315:291,1,70,14|8,0:0|0:0,0:0:0:0:
320,186,52877,6,0,P|293:236|242:253,1,105,6|0,1:0|0:0,0:0:0:0:
219,260,53222,1,10,0:0:0:0:
235,162,53395,2,0,L|219:93,1,70,0|2,0:0|1:0,0:0:0:0:
130,43,53739,2,0,L|112:125,1,70,2|8,1:0|0:0,0:0:0:0:
95,204,54084,2,0,P|55:228|30:231,1,70,2|0,1:0|0:0,0:0:0:0:
147,275,54429,2,0,P|188:300|278:306,1,140,2|0,1:0|0:0,0:0:0:0:
377,275,54946,5,2,1:0:0:0:
278,305,55119,1,2,1:0:0:0:
304,214,55291,2,0,L|301:123,1,70,10|10,0:0|0:0,0:0:0:0:
214,38,55636,6,0,L|210:150,1,105,6|0,1:2|0:0,0:0:0:0:
208,176,55981,1,10,0:0:0:0:
141,251,56153,2,0,P|114:214|117:177,1,70,2|0,0:0|1:0,0:0:0:0:
55,107,56498,2,0,P|100:88|131:93,1,70,2|8,1:0|0:0,0:0:0:0:
218,75,56843,6,0,P|220:123|204:151,1,70,14|0,0:0|0:0,0:0:0:0:
307,68,57188,2,0,P|310:17|301:-12,1,70,14|0,0:0|0:0,0:0:0:0:
349,157,57532,1,8,0:0:0:0:
349,157,57705,2,0,P|339:188|351:243,1,70,14|0,0:0|3:0,0:0:0:0:
435,233,58050,2,0,L|412:338,1,105,8|0,0:3|0:0,0:0:0:0:
408,363,58395,6,0,P|471:362|498:342,1,70,6|0,1:0|0:0,0:0:0:0:
333,312,58739,2,0,P|299:322|265:315,1,70,10|0,0:0|0:0,0:0:0:0:
409,250,59084,2,0,P|443:256|476:246,1,70,2|0,1:0|1:0,0:0:0:0:
329,205,59429,2,0,P|295:215|261:208,1,70,10|0,0:0|0:0,0:0:0:0:
202,76,59774,6,0,L|190:157,1,70,2|0,1:0|0:0,0:0:0:0:
143,268,60119,2,0,L|132:198,1,70,10|0,0:0|0:0,0:0:0:0:
83,75,60464,2,0,L|71:156,1,70,2|0,1:0|1:0,0:0:0:0:
23,266,60808,2,0,L|12:196,1,70,10|0,0:0|0:0,0:0:0:0:
36,352,61153,6,0,P|85:348|176:360,1,140,2|10,1:0|0:0,0:0:0:0:
250,235,61670,2,0,P|219:249|197:276,1,70,2|2,0:0|1:2,0:0:0:0:
302,310,62015,2,0,P|333:295|355:268,1,70,0|8,3:0|0:0,0:0:0:0:
314,165,62360,2,0,L|286:94,1,70,2|0,1:2|0:0,0:0:0:0:
209,51,62705,2,0,L|183:116,1,70,0|10,1:0|0:0,0:0:0:0:
161,215,63050,1,0,1:0:0:0:
74,166,63222,5,0,1:2:0:0:
161,215,63395,1,2,1:0:0:0:
71,261,63567,2,0,L|62:340,1,70,14|8,0:0|0:0,0:0:0:0:
162,354,63912,6,0,P|209:333|267:338,1,105,6|0,1:0|0:0,0:0:0:0:
298,352,64257,2,0,L|300:268,1,70,10|2,0:0|0:0,0:0:0:0:
303,199,64602,1,0,1:0:0:0:
391,200,64774,2,0,L|466:209,1,70,0|8,1:0|0:0,0:0:0:0:
457,81,65119,2,0,P|417:105|392:108,1,70,2|0,1:0|0:0,0:0:0:0:
387,18,65464,2,0,P|312:64|310:141,1,140,0|0,1:0|0:0,0:0:0:0:
303,199,65981,5,0,1:0:0:0:
214,169,66154,1,2,1:0:0:0:
218,69,66326,2,0,L|215:-22,1,70,10|8,0:0|0:0,0:0:0:0:
123,10,66671,6,0,L|119:122,1,105,4|0,1:2|0:0,0:0:0:0:
117,149,67015,1,10,0:0:0:0:
21,95,67188,2,0,L|29:166,1,70,2|0,0:0|1:0,0:0:0:0:
12,255,67532,2,0,L|4:326,1,70,2|8,1:0|0:0,0:0:0:0:
73,384,67878,6,0,P|94:356|99:322,1,70,14|0,0:0|0:0,0:0:0:0:
194,384,68223,2,0,L|201:305,1,70,14|0,0:0|0:0,0:0:0:0:
192,220,68567,1,10,0:0:0:0:
192,220,68740,2,0,P|228:225|276:208,1,70,14|0,0:0|0:0,0:0:0:0:
343,128,69085,2,0,L|366:233,1,105,4|0,0:3|0:0,0:0:0:0:
372,258,69429,6,0,L|466:283,1,70,4|8,1:0|0:0,0:0:0:0:
510,358,69774,2,0,L|413:373,1,70,10|0,0:0|0:0,0:0:0:0:
348,384,70119,1,2,1:0:0:0:
348,384,70291,2,0,P|316:339|276:326,1,70,2|8,1:0|0:0,0:0:0:0:
221,365,70636,2,0,L|199:222,1,140,6|0,1:0|1:0,0:0:0:0:
111,233,71153,2,0,P|113:198|153:153,1,70,8|2,0:0|0:0,0:0:0:0:
205,112,71498,2,0,L|171:43,1,70,0|2,1:0|1:0,0:0:0:0:
98,0,71843,5,10,0:0:0:0:
10,37,72015,1,2,0:0:0:0:
20,132,72188,2,0,P|34:169|9:258,1,105,2|0,1:0|0:0,0:0:0:0:
11,257,72532,2,0,L|94:248,1,70,14|10,0:0|0:0,0:0:0:0:
179,241,72877,1,4,1:2:0:0:
181,335,73050,2,0,L|253:344,1,70,2|8,1:0|0:0,0:0:0:0:
354,349,73395,2,0,P|339:290|265:241,1,140,6|0,1:0|1:0,0:0:0:0:
384,198,73912,6,0,L|461:207,1,70,10|0,0:0|0:0,0:0:0:0:
511,113,74257,2,0,L|434:119,1,70,2|0,1:0|1:0,0:0:0:0:
381,25,74601,2,0,L|458:34,1,70,8|2,0:0|0:0,0:0:0:0:
293,30,74946,2,0,P|283:77|316:139,1,105,0|0,1:0|0:0,0:0:0:0:
321,150,75291,6,0,L|245:169,1,70,10|8,0:0|0:0,0:0:0:0:
165,133,75636,1,10,1:2:0:0:
165,133,75808,2,0,P|156:175|177:219,1,70,2|8,1:0|0:0,0:0:0:0:
65,99,76153,2,0,P|72:160|33:235,1,140,6|0,1:0|1:0,0:0:0:0:
2,316,76670,2,0,L|76:326,1,70,8|2,0:0|0:0,0:0:0:0:
158,294,77015,2,0,P|160:345|144:384,1,70,0|2,1:0|1:0,0:0:0:0:
256,359,77360,5,10,0:0:0:0:
257,267,77532,1,0,0:0:0:0:
187,204,77705,2,0,L|214:103,1,105,2|0,1:0|0:0,0:0:0:0:
221,73,78050,2,0,P|278:88|312:76,1,70,8|2,0:0|1:0,0:0:0:0:
382,59,78395,5,8,0:0:0:0:
479,71,78567,1,10,0:3:0:0:
418,145,78739,1,4,0:3:0:0:
512,165,78912,1,10,0:0:0:0:
512,165,79429,6,0,P|479:223|404:241,1,140,14|2,0:0|1:0,0:0:0:0:
308,204,79946,1,10,0:0:0:0:
299,204,80032,1,8,0:0:0:0:
291,201,80119,1,8,0:0:0:0:
185,253,80291,1,10,0:0:0:0:
75,295,80464,6,0,L|87:226,1,70,4|0,1:0|0:0,0:0:0:0:
144,103,80808,2,0,L|156:171,1,70,8|0,0:0|0:0,0:0:0:0:
185,253,81153,1,10,0:0:0:0:
195,343,81326,2,0,P|255:310|273:244,1,140,2|2,1:0|0:0,0:0:0:0:
444,199,82015,6,0,L|512:185,1,70,2|8,1:0|0:0,0:0:0:0:
506,106,82360,2,0,L|437:93,1,70,2|8,0:0|0:3,0:0:0:0:
435,14,82705,2,0,L|503:1,1,70,2|8,1:0|0:0,0:0:0:0:
349,17,83050,1,2,0:0:0:0:
261,12,83222,6,0,P|209:30|197:116,1,140,8|8,0:0|0:0,0:0:0:0:
97,234,83912,2,0,P|89:175|84:144,1,70,8|0,0:0|1:0,0:0:0:0:
71,75,84257,1,8,0:0:0:0:
192,106,84429,2,0,P|186:140|182:175,1,70,0|8,1:0|0:0,0:0:0:0:
227,258,84774,6,0,P|278:255|310:272,2,70,0|10|0,1:0|0:0|1:0,0:0:0:0:
124,292,85291,2,0,L|114:361,1,70,10|0,0:3|1:0,0:0:0:0:
29,297,85636,2,0,L|12:185,1,105,12|0,0:0|0:0,0:0:0:0:
10,164,85981,6,0,P|82:178|100:164,1,70,8|0,0:0|0:0,0:0:0:0:
158,82,86326,2,0,P|86:96|68:82,1,70,8|0,0:0|0:0,0:0:0:0:
36,27,86670,1,10,0:0:0:0:
158,81,86843,2,0,P|169:151|160:227,1,140,2|2,1:0|0:0,0:0:0:0:
285,283,87532,6,0,L|355:294,1,70,2|8,1:0|0:0,0:0:0:0:
231,210,87877,2,0,L|161:220,1,70,2|8,0:0|0:3,0:0:0:0:
273,129,88222,2,0,L|342:139,1,70,2|12,1:0|0:0,0:0:0:0:
243,44,88567,1,2,0:0:0:0:
367,5,88739,6,0,P|370:68|325:158,1,140,8|8,0:0|0:0,0:0:0:0:
202,173,89429,2,0,P|193:205|206:255,1,70,8|0,0:0|1:0,0:0:0:0:
226,326,89774,1,8,0:0:0:0:
286,212,89946,2,0,L|355:226,1,70,0|8,1:0|0:0,0:0:0:0:
429,189,90291,6,0,P|439:241|417:285,2,70,2|14|10,1:0|0:0|0:0,0:0:0:0:
416,167,90722,1,8,0:0:0:0:
405,149,90808,1,10,0:0:0:0:
380,63,90981,2,0,P|424:47|469:56,2,70,10|6|6,0:3|0:3|0:3,0:0:0:0:
291,98,91498,1,4,1:0:0:0:
291,98,91670,6,0,L|205:86,1,70,8|2,0:0|1:0,0:0:0:0:
272,178,92015,2,0,L|172:164,1,70,8|2,0:0|0:0,0:0:0:0:
240,257,92360,2,0,L|140:243,1,70,10|0,0:0|0:0,0:0:0:0:
90,298,92705,6,0,P|74:251|114:172,2,140,14|10|6,0:0|0:3|0:3,0:0:0:0:
139,374,93567,1,6,0:3:0:0:
330,293,93899,1,6,0:3:0:0:
308,135,94556,5,8,0:0:0:0:
314,141,94624,1,8,0:0:0:0:
319,147,94693,1,0,1:0:0:0:
256,192,94831,12,10,95856,0:0:0:0:
256,192,96653,5,4,1:0:0:0:
256,192,96739,12,0,100790,0:0:0:0:
