osu file format v14

[General]
AudioFilename: audio.mp3
AudioLeadIn: 0
PreviewTime: 53909
Countdown: 0
SampleSet: Normal
StackLeniency: 0.5
Mode: 0
LetterboxInBreaks: 0
CountdownOffset: 3
WidescreenStoryboard: 1

[Editor]
Bookmarks: 109,6109,12109,18109,24109,30109,36109,42109,48109,54109,60109,66109,72109,78109,84109
DistanceSpacing: 1.1
BeatDivisor: 2
GridSize: 16
TimelineZoom: 2.699999

[Metadata]
Title:Ame no Oto ga Niji o Yobu
TitleUnicode:雨の音が虹を呼ぶ
Artist:Barbarian On The Groove feat. Shimotsuki Haruka
ArtistUnicode:Barbarian On The Groove feat. 霜月はるか
Creator:Shiyzo
Version:yukic's Normal
Source:CROSSxBEATS
Tags:japanese j-pop j-rock rock pop videogame crossbeats REV. SUNRISE capcom XzeniFX m980 Fix yukic foss
BeatmapID:2585109
BeatmapSetID:977633

[Difficulty]
HPDrainRate:3
CircleSize:3.5
OverallDifficulty:4
ApproachRate:5.5
SliderMultiplier:1.15
SliderTickRate:2

[Events]
//Background and Video events
0,0,"rainbowcoverfinal_waifu2x_art_noise3_scale_tta_1.jpg",0,0
//Break Periods
//Storyboard Layer 0 (Background)
//Storyboard Layer 1 (Fail)
//Storyboard Layer 2 (Pass)
//Storyboard Layer 3 (Foreground)
//Storyboard Layer 4 (Overlay)
//Storyboard Sound Samples

[TimingPoints]
97,375,4,1,1,70,1,0
9003,-100,4,1,1,5,0,0
9097,-100,4,1,1,70,0,0
9378,-100,4,1,1,5,0,0
9472,-100,4,1,1,70,0,0
9940,-100,4,1,1,5,0,0
10034,-100,4,1,1,70,0,0
10222,-100,4,1,1,70,0,0
10503,-100,4,1,1,5,0,0
10597,-100,4,1,1,70,0,0
15097,-100,4,1,1,70,0,0
22878,-100,4,1,1,5,0,0
22972,-100,4,1,1,70,0,0
23440,-100,4,1,1,5,0,0
23534,-100,4,1,1,70,0,0
34878,-100,4,1,1,5,0,0
34972,-100,4,1,1,70,0,0
42097,-100,4,1,1,70,0,0
43503,-100,4,1,1,5,0,0
43597,-100,4,1,1,70,0,0
48003,-100,4,1,1,5,0,0
48097,-100,4,1,1,70,0,0
54097,-100,4,1,1,80,0,0
72097,-100,4,1,1,80,0,0
75097,-100,4,1,1,80,0,0
78097,-100,4,1,1,80,0,0
81097,-100,4,1,1,70,0,0
87097,-100,4,1,1,70,0,0
87378,-100,4,1,1,5,0,0
87472,-100,4,1,1,70,0,0
87940,-100,4,1,1,5,0,0
88034,-100,4,1,1,70,0,0
88503,-100,4,1,1,5,0,0
88597,-100,4,1,1,70,0,0
90190,-100,4,1,1,5,0,0
93847,-100,4,1,1,5,0,0

[Colours]
Combo1 : 224,116,97
Combo2 : 120,204,214
Combo3 : 128,210,123
Combo4 : 246,190,69

[HitObjects]
39,50,97,6,0,P|118:13|199:40,1,172.5,4|8,0:0|0:0,0:0:0:0:
244,77,846,1,2,0:0:0:0:
208,198,1222,2,0,P|207:254|203:327,2,115,10|2|0,0:0|0:0|0:0,0:0:0:0:
244,77,2347,1,2,0:0:0:0:
345,2,2722,1,10,0:0:0:0:
402,114,3097,6,0,P|405:196|420:306,1,172.5,4|8,0:0|0:0,0:0:0:0:
405,347,3846,1,2,0:0:0:0:
279,330,4222,2,0,P|222:334|158:341,2,115,10|2|0,0:0|0:0|0:0,0:0:0:0:
319,209,5347,2,0,L|314:131,1,57.5,10|0,0:0|0:0,0:0:0:0:
363,109,5722,2,0,L|366:51,1,57.5,10|8,0:0|0:0,0:0:0:0:
319,8,6097,6,0,P|244:47|166:17,1,172.5,4|8,0:0|0:0,0:0:0:0:
105,1,6846,1,2,0:0:0:0:
50,115,7222,2,0,P|50:173|46:230,2,115,10|2|2,0:0|0:0|0:0,0:0:0:0:
105,1,8347,1,2,0:0:0:0:
163,113,8722,1,10,0:0:0:0:
269,45,9097,6,0,L|383:34,1,115,4|10,0:0|0:0,0:0:0:0:
433,72,9659,2,0,L|443:186,1,115
419,245,10222,2,0,B|392:259|352:238|377:238|335:225|305:242,1,115,12|2,0:0|0:0,0:0:0:0:
216,152,10972,1,12,0:0:0:0:
131,246,11347,2,0,L|137:306,1,57.5,10|0,0:0|0:0,0:0:0:0:
117,363,11722,1,10,0:0:0:0:
9,295,12097,5,4,0:0:0:0:
256,192,12284,12,4,15097,0:0:0:0:
508,203,17722,5,8,0:0:0:0:
477,326,18098,6,0,P|424:307|367:313,1,115,4|2,0:0|0:0,0:0:0:0:
317,352,18659,2,0,P|261:370|199:358,1,115,8|0,0:0|0:0,0:0:0:0:
144,347,19222,1,10,0:0:0:0:
182,226,19597,2,0,P|179:168|174:111,1,115,2|2,0:0|0:0,0:0:0:0:
139,58,20159,2,0,P|78:51|43:91,1,115,8|0,0:0|0:0,0:0:0:0:
0,126,20722,1,10,0:0:0:0:
87,210,21097,6,0,B|81:282|81:282|96:305|96:305|90:381,2,172.5,4|8|10,0:0|0:0|0:0,0:0:0:0:
23,129,22597,1,2,0:0:0:0:
119,47,22972,1,10,0:0:0:0:
119,47,23159,1,0,0:0:0:0:
228,112,23534,1,0,0:0:0:0:
228,112,23722,2,0,P|227:144|222:179,1,57.5,12|0,0:2|0:0,0:0:0:0:
251,226,24097,6,0,B|336:252|336:252|419:222,1,172.5,4|8,0:0|0:0,0:0:0:0:
477,115,25034,1,0,0:0:0:0:
477,115,25222,2,0,P|476:83|471:47,1,57.5,10|0,0:0|0:0,0:0:0:0:
414,33,25597,2,0,B|335:4|335:4|250:30,1,172.5,2|8,0:0|0:0,0:0:0:0:
60,32,26722,1,10,0:0:0:0:
103,150,27097,6,0,B|117:177|96:217|96:192|83:234|100:264,1,115,4|2,0:0|0:0,0:0:0:0:
150,293,27659,2,0,P|210:295|264:302,1,115,8|0,0:0|0:0,0:0:0:0:
320,273,28222,1,10,0:0:0:0:
436,224,28597,2,0,P|451:170|425:110,2,115,4|8|2,0:2|0:0|0:0,0:0:0:0:
434,290,29534,1,0,0:0:0:0:
434,290,29722,2,0,L|376:295,1,57.5,10|8,0:0|0:0,0:0:0:0:
313,298,30097,6,0,P|293:240|307:172,1,115,4|10,0:0|0:0,0:0:0:0:
342,140,30659,2,0,P|360:84|343:21,1,115
291,2,31222,1,10,0:0:0:0:
182,66,31597,2,0,L|67:77,1,115,2|10,0:0|0:0,0:0:0:0:
12,107,32159,2,0,P|-10:164|19:208,1,115
57,253,32722,1,10,0:0:0:0:
149,167,33097,6,0,B|221:173|221:173|244:158|244:158|320:164,2,172.5,4|0|10,0:0|0:0|0:0,0:0:0:0:
22,177,34597,2,0,P|20:229|15:291,1,115,2|10,0:0|0:0,0:0:0:0:
22,354,35159,1,0,0:0:0:0:
149,333,35534,1,8,0:3:0:0:
149,333,35722,2,0,P|181:332|216:327,1,57.5,4|2,0:3|0:3,0:0:0:0:
228,269,36097,6,0,B|202:184|202:184|232:101,1,172.5,4|0,0:0|0:0,0:0:0:0:
338,37,37034,1,0,0:0:0:0:
338,37,37222,2,0,P|370:38|405:42,1,57.5,10|0,0:0|0:0,0:0:0:0:
448,75,37597,2,0,B|476:153|476:153|450:238,1,172.5,2|0,0:0|0:0,0:0:0:0:
310,366,38722,1,10,0:0:0:0:
265,247,39097,6,0,B|262:201|262:201|243:174|243:174|241:137,1,115,4|10,0:0|0:0,0:0:0:0:
235,74,39659,2,0,P|179:82|112:63,1,115
59,65,40222,1,10,0:0:0:0:
16,184,40597,6,0,L|11:245,1,57.5,4|0,0:0|0:0,0:0:0:0:
55,286,40972,1,8,0:0:0:0:
55,286,41159,2,0,L|61:347,2,57.5,0|0|8,0:0|0:0|0:0,0:0:0:0:
97,238,41722,2,0,P|128:232|154:230,1,57.5,8|2,0:3|0:3,0:0:0:0:
185,175,42097,6,0,B|208:144|208:144|195:61,1,115,12|8,0:0|0:0,0:0:0:0:
238,22,42659,2,0,L|352:12,1,115,4|0,0:2|0:0,0:0:0:0:
409,39,43222,1,10,0:0:0:0:
457,155,43597,2,0,P|444:213|462:272,1,115,8|4,0:0|0:3,0:0:0:0:
427,320,44159,2,0,L|305:312,1,115,2|0,0:3|0:0,0:0:0:0:
251,331,44722,1,8,0:0:0:0:
197,216,45097,6,0,P|140:200|82:228,2,115,4|10|2,0:0|0:0|0:0,0:0:0:0:
251,331,46222,1,10,0:0:0:0:
343,244,46597,2,0,L|338:184,2,57.5,8|8|8,0:0|0:3|0:0,0:0:0:0:
399,272,47159,2,0,L|394:332,2,57.5,4|8|2,0:3|0:0|0:3,0:0:0:0:
437,220,47722,1,8,0:0:0:0:
396,100,48097,6,0,B|339:82|339:82|287:100,1,115,8|8,0:0|0:0,0:0:0:0:
226,83,48659,2,0,P|163:85|111:58,1,115,4|0,0:0|0:0,0:0:0:0:
54,72,49222,1,10,0:0:0:0:
12,191,49597,6,0,B|-6:248|-6:248|12:300,1,115,8|0,0:0|0:0,0:0:0:0:
64,334,50159,2,0,P|124:315|181:328,1,115,8|0,0:0|0:0,0:0:0:0:
229,293,50722,1,8,0:0:0:0:
296,186,51097,6,0,B|295:141|295:141|284:122|284:122|282:67,2,115,4|10|2,0:0|0:0|0:0,0:0:0:0:
330,307,52222,1,10,0:0:0:0:
434,235,52597,5,4,0:2:0:0:
30,266,53722,1,8,0:0:0:0:
78,149,54098,6,0,P|78:91|73:34,1,115,4|10,0:0|0:0,0:0:0:0:
130,4,54659,1,8,0:3:0:0:
238,70,55034,2,0,P|293:85|347:68,1,115,2|0,0:3|0:0,0:0:0:0:
393,24,55597,2,0,P|450:26|522:32,2,115,2|10|2,0:0|0:0|0:0,0:0:0:0:
329,134,56722,1,10,0:0:0:0:
417,226,57097,6,0,P|428:290|406:343,1,115,4|10,0:0|0:0,0:0:0:0:
363,376,57659,1,8,0:3:0:0:
245,332,58034,2,0,L|128:342,1,115,2|0,0:3|0:0,0:0:0:0:
70,324,58597,2,0,P|35:292|52:225,1,115,4|10,0:2|0:0,0:0:0:0:
96,193,59159,1,0,0:0:0:0:
96,193,59347,2,0,L|102:126,1,57.5,0|8,0:0|0:3,0:0:0:0:
52,99,59722,2,0,L|46:30,1,57.5,4|2,0:3|0:3,0:0:0:0:
101,8,60097,6,0,P|160:14|221:17,1,115,4|10,0:0|0:0,0:0:0:0:
272,46,60659,1,8,0:3:0:0:
396,19,61034,2,0,L|458:15,1,57.5,2|8,0:3|0:0,0:0:0:0:
501,56,61409,1,0,0:0:0:0:
501,56,61597,2,0,P|489:113|501:172,1,115,4|10,0:0|0:0,0:0:0:0:
473,225,62159,1,8,0:3:0:0:
473,225,62347,2,0,P|485:282|473:341,1,115,2|10,0:0|0:0,0:0:0:0:
347,332,63097,6,0,B|312:353|312:353|226:337,1,115,4|10,0:0|0:0,0:0:0:0:
194,294,63659,2,0,B|229:273|229:273|319:289,1,115,4|0,0:2|0:0,0:0:0:0:
351,246,64222,1,10,0:0:0:0:
263,154,64597,6,0,B|218:155|218:155|199:166|199:166|144:168,1,115,8|4,0:0|0:3,0:0:0:0:
99,130,65159,2,0,L|96:72,2,57.5,2|0|8,0:3|0:0|0:3,0:0:0:0:
80,198,65722,1,4,0:3:0:0:
80,198,65909,1,2,0:3:0:0:
80,198,66097,6,0,P|81:266|84:325,1,115,4|10,0:0|0:0,0:0:0:0:
72,375,66659,1,8,0:3:0:0:
200,351,67034,2,0,P|259:367|329:342,1,115,2|0,0:3|0:0,0:0:0:0:
357,311,67597,2,0,P|413:307|487:304,2,115,2|10|2,0:0|0:0|0:0,0:0:0:0:
288,204,68722,1,10,0:0:0:0:
392,134,69097,6,0,P|405:78|383:12,1,115,4|10,0:0|0:0,0:0:0:0:
333,0,69659,1,8,0:3:0:0:
226,67,70034,2,0,P|220:133|218:195,1,115,2|0,0:3|0:0,0:0:0:0:
207,245,70597,2,0,P|155:240|112:284,2,115,4|10|8,0:2|0:0|0:0,0:0:0:0:
257,285,71534,2,0,L|319:290,2,57.5,4|8|8,0:3|0:0|0:0,0:0:0:0:
278,226,72097,6,0,B|300:173|300:173|284:105,1,115,4|10,0:0|0:0,0:0:0:0:
284,57,72659,1,8,0:3:0:0:
158,66,73034,1,2,0:3:0:0:
32,75,73409,1,0,0:0:0:0:
32,75,73597,6,0,B|10:128|10:128|26:196,1,115,4|10,0:0|0:0,0:0:0:0:
27,248,74159,1,8,0:3:0:0:
153,257,74534,1,2,0:3:0:0:
279,266,74909,1,0,0:0:0:0:
279,266,75097,6,0,B|308:241|308:241|301:157,1,115,4|10,0:0|0:0,0:0:0:0:
340,115,75659,2,0,P|325:65|337:5,1,115,8|2,0:3|0:3,0:0:0:0:
401,1,76222,1,10,0:0:0:0:
493,89,76597,6,0,B|494:150|499:216,1,115,4|10,0:2|0:0,0:0:0:0:
484,266,77159,2,0,L|477:325,2,57.5,2|8|8,0:3|0:0|0:3,0:0:0:0:
429,261,77722,1,8,0:0:0:0:
429,261,77909,1,8,0:0:0:0:
429,261,78097,6,0,B|402:247|362:268|387:268|345:281|315:264,1,115,4|8,0:0|0:0,0:0:0:0:
255,278,78659,2,0,P|194:276|124:282,1,115,4|0,0:2|0:0,0:0:0:0:
98,328,79222,1,10,0:0:0:0:
40,215,79597,2,0,P|45:172|48:125,2,86.25,8|8|8,0:0|0:0|0:0,0:0:0:0:
63,279,80347,2,0,L|136:272,1,57.5
173,311,80722,2,0,L|242:317,1,57.5,8|2,0:0|0:3,0:0:0:0:
281,278,81097,6,0,P|304:228|281:158,1,115,4|10,0:0|0:0,0:0:0:0:
240,136,81659,2,0,P|182:137|115:139,1,115,8|2,0:3|0:3,0:0:0:0:
67,163,82222,1,10,0:0:0:0:
43,39,82597,2,0,L|104:31,1,57.5,8|8,0:0|0:3,0:0:0:0:
144,79,82972,2,0,L|201:84,1,57.5,8|4,0:0|0:3,0:0:0:0:
242,35,83347,2,0,L|303:27,1,57.5,8|2,0:0|0:3,0:0:0:0:
358,53,83722,1,12,0:2:0:0:
464,123,84097,6,0,P|462:180|463:245,1,115,4|8,0:0|0:0,0:0:0:0:
473,300,84659,2,0,P|433:332|364:325,1,115,4|0,0:2|0:0,0:0:0:0:
311,348,85222,1,10,0:0:0:0:
274,228,85597,2,0,P|278:187|281:134,2,86.25,10|12|8,0:0|0:2|0:0,0:0:0:0:
233,276,86347,2,0,L|165:273,1,57.5,4|4,0:3|0:3,0:0:0:0:
127,315,86722,2,0,L|67:319,1,57.5,8|2,0:0|0:3,0:0:0:0:
39,264,87097,6,0,B|21:212|21:212|38:150,1,115,4|10,0:0|0:0,0:0:0:0:
71,101,87659,2,0,B|129:121|129:121|186:104,1,115,8|2,0:3|0:3,0:0:0:0:
231,66,88222,1,12,0:2:0:0:
412,18,88784,1,8,0:3:0:0:
412,18,88972,6,0,P|414:54|415:92,1,57.5,10|2,0:0|0:3,0:0:0:0:
420,139,89347,1,10,0:0:0:0:
420,139,89534,1,10,0:0:0:0:
420,139,89722,1,10,0:0:0:0:
503,233,90097,5,4,0:0:0:0:
256,192,90284,12,0,93847,2:0:0:0:
