osu file format v14

[General]
AudioFilename: audio.mp3
AudioLeadIn: 0
PreviewTime: 53909
Countdown: 0
SampleSet: Normal
StackLeniency: 0.9
Mode: 0
LetterboxInBreaks: 0
WidescreenStoryboard: 1

[Editor]
Bookmarks: 18101,42101,54101,78101
DistanceSpacing: 1.3
BeatDivisor: 4
GridSize: 8
TimelineZoom: 1.3

[Metadata]
Title:Ame no Oto ga Niji o Yobu
TitleUnicode:雨の音が虹を呼ぶ
Artist:Barbarian On The Groove feat. Shimotsuki Haruka
ArtistUnicode:Barbarian On The Groove feat. 霜月はるか
Creator:Shiyzo
Version:m980's Hard
Source:CROSSxBEATS
Tags:japanese j-pop j-rock rock pop videogame crossbeats REV. SUNRISE capcom XzeniFX m980 Fix yukic foss
BeatmapID:2099006
BeatmapSetID:977633

[Difficulty]
HPDrainRate:4
CircleSize:3
OverallDifficulty:6
ApproachRate:7
SliderMultiplier:2.4
SliderTickRate:2

[Events]
//Background and Video events
0,0,"rainbowcoverfinal_waifu2x_art_noise3_scale_tta_1.jpg",0,0
//Break Periods
//Storyboard Layer 0 (Background)
//Storyboard Layer 1 (Fail)
//Storyboard Layer 2 (Pass)
//Storyboard Layer 3 (Foreground)
//Storyboard Layer 4 (Overlay)
//Storyboard Sound Samples

[TimingPoints]
97,375,4,1,1,100,1,0
93847,-100,4,1,1,5,0,0

[Colours]
Combo1 : 168,81,255
Combo2 : 128,128,255
Combo3 : 24,245,157
Combo4 : 255,255,164
Combo5 : 0,170,170
Combo6 : 255,64,64

[HitObjects]
208,320,18097,5,4,1:0:0:0:
304,352,18284,1,0,2:2:0:0:
400,384,18472,1,0,1:0:0:0:
496,352,18659,2,0,B|468:288|400:288|332:288|304:224,1,240,8|0,1:1|2:0,2:0:0:0:
400,192,19222,1,8,1:2:0:0:
496,160,19409,2,0,B|468:96|400:96|332:96|304:32,1,240,2|0,1:2|2:0,2:0:0:0:
208,0,19972,1,0,1:0:0:0:
212,4,20159,1,8,1:2:0:0:
208,192,20534,1,10,2:2:0:0:
208,384,20909,1,0,2:0:0:0:
112,384,21097,6,0,P|21:313|40:88,2,360,4|8|8,1:2|1:1|2:0,2:0:0:0:
304,384,22597,2,0,P|395:313|376:88,1,360,8|2,1:3|1:3,2:0:0:0:
200,192,23534,5,0,2:0:0:0:
120,240,23722,1,4,2:0:0:0:
40,288,23909,2,0,P|8:120|256:40,1,480,0|8,1:0|1:2,2:0:0:0:
313,192,25034,5,0,2:0:0:0:
393,240,25222,1,8,1:2:0:0:
473,288,25409,2,0,P|505:120|257:40,1,480,0|8,1:2|2:0,2:0:0:0:
256,343,26722,5,8,1:2:0:0:
72,264,27097,2,0,P|100:162|216:168,1,240,4|0,1:2|1:0,2:0:0:0:
296,216,27659,2,0,P|406:225|440:120,1,240,8|0,1:2|1:0,2:0:0:0:
357,151,28222,1,8,1:2:0:0:
504,24,28597,1,10,2:1:0:0:
8,24,29347,1,4,1:2:0:0:
304,320,30097,21,4,1:1:0:0:
208,352,30284,1,0,2:0:0:0:
112,384,30472,1,10,1:2:0:0:
16,352,30659,2,0,B|44:288|112:288|180:288|208:224,1,240,0|0,1:2|2:0,2:0:0:0:
112,192,31222,1,10,2:0:0:0:
16,160,31409,2,0,B|44:96|112:96|180:96|208:32,1,240,0|0,1:0|2:0,2:0:0:0:
304,0,31972,1,10,1:2:0:0:
308,4,32159,1,0,1:0:0:0:
304,192,32534,1,10,2:2:0:0:
304,384,32909,1,0,1:0:0:0:
256,287,33097,6,0,P|195:189|256:95,1,240,4|10,1:2|1:2,2:0:0:0:
353,95,33659,2,0,P|414:193|353:287,1,240,0|0,1:0|2:0,2:0:0:0:
432,352,34222,1,10,1:2:0:0:
504,192,34597,1,0,2:0:0:0:
508,196,34784,1,10,1:2:0:0:
432,32,35159,1,4,1:2:0:0:
208,224,35534,5,8,1:3:0:0:
160,304,35722,1,4,1:3:0:0:
112,384,35909,1,2,2:3:0:0:
32,336,36097,1,4,1:2:0:0:
36,340,36284,1,0,1:0:0:0:
96,136,36659,2,0,P|157:155|208:136,1,120,8|0,2:0|2:0,2:0:0:0:
304,136,37034,5,0,1:0:0:0:
352,216,37222,1,8,1:2:0:0:
400,296,37409,1,0,2:0:0:0:
480,248,37597,1,4,1:2:0:0:
484,252,37784,1,0,1:0:0:0:
480,56,38159,2,0,P|358:18|256:56,1,240,8|0,2:0|1:0,2:0:0:0:
160,56,38722,1,8,1:2:0:0:
320,128,39097,22,0,P|432:154|455:263,1,240,4|8,1:2|2:0,2:0:0:0:
387,332,39659,2,0,P|274:305|251:196,1,240,0|0,1:0|2:0,2:0:0:0:
353,229,40222,1,8,1:1:0:0:
176,360,40597,2,0,P|33:192|176:24,1,480,4|8,1:2|2:0,2:0:0:0:
143,198,42097,6,2,B|176:168|232:176|256:200|280:224|336:232|368:200,1,240,2|0,2:0|1:0,2:0:0:0:
320,112,42659,1,0,2:0:0:0:
408,64,42847,1,8,1:3:0:0:
456,152,43034,1,0,2:0:0:0:
504,240,43222,1,2,1:3:0:0:
456,328,43409,2,0,B|432:368|376:416|304:360|320:288|296:272|256:268|216:272|192:288|208:360|136:416|80:368|56:328,1,480,4|0,1:2|2:0,2:0:0:0:
8,240,44347,1,0,1:0:0:0:
8,48,44722,1,8,1:0:0:0:
120,232,45097,6,0,P|256:331|392:231,2,360,4|8|0,1:1|1:0|1:0,2:0:0:0:
392,152,46597,2,0,P|255:52|119:152,2,360,0|0|4,1:0|1:0|1:2,2:0:0:0:
344,368,48097,38,0,B|368:392|410:386|428:368|446:349|488:343|512:368,1,180,10|8,1:2|2:3,2:0:0:0:
512,224,48659,2,0,B|480:192|424:200|400:224|376:248|320:256|288:224,1,240,4|0,1:1|2:0,2:0:0:0:
228,304,49222,1,8,2:0:0:0:
232,308,49409,1,0,2:0:0:0:
168,224,49597,6,0,B|143:248|101:242|83:224|65:205|23:199|0:224,1,180,10|4,1:2|2:3,2:0:0:0:
0,80,50159,2,0,B|32:48|88:56|112:80|136:104|192:112|224:80,1,240,4|0,1:0|2:0,2:0:0:0:
320,80,50722,1,8,1:0:0:0:
256,192,51097,12,4,52597,1:2:0:0:
512,224,54097,6,0,B|484:288|416:288|348:288|320:352,1,240,4|0,1:0|2:0,2:0:0:0:
416,376,54659,1,8,1:2:0:0:
416,192,55034,1,8,1:2:0:0:
416,8,55409,1,0,2:0:0:0:
512,32,55597,2,0,B|484:96|416:96|348:96|320:160,1,240,4|0,1:2|2:0,2:0:0:0:
256,232,56159,1,8,1:2:0:0:
88,80,56534,1,0,2:0:0:0:
0,32,56722,1,8,1:2:0:0:
0,128,56909,1,0,2:0:0:0:
0,224,57097,6,0,B|28:288|96:288|164:288|192:352,1,240,4|0,1:0|2:0,2:0:0:0:
96,376,57659,1,8,1:2:0:0:
96,192,58034,1,8,1:2:0:0:
96,8,58409,1,0,2:0:0:0:
0,32,58597,2,0,B|28:96|96:96|164:96|192:160,1,240,4|0,1:2|2:0,2:0:0:0:
256,232,59159,1,8,1:2:0:0:
480,80,59722,5,8,1:2:0:0:
392,128,59909,1,0,2:0:0:0:
304,80,60097,2,0,B|272:48|216:56|192:80|168:104|112:112|80:80,1,240,4|0,1:2|1:0,2:0:0:0:
0,24,60659,1,8,1:2:0:0:
0,200,61034,1,8,1:2:0:0:
144,296,61409,2,0,B|176:328|232:320|256:296|280:272|336:264|368:296,1,240,4|0,1:0|2:0,2:0:0:0:
312,368,61972,1,8,1:3:0:0:
312,192,62347,1,0,2:0:0:0:
312,16,62722,1,8,1:1:0:0:
128,16,63097,6,0,P|37:87|56:312,2,360,6|8|0,1:2|1:2|2:0,2:0:0:0:
172,184,64597,6,0,B|196:208|238:202|256:184|274:165|316:159|340:184,2,180,4|8|4,1:0|1:3|1:3,2:0:0:0:
256,344,65534,1,2,1:3:0:0:
260,348,65722,1,8,2:0:0:0:
208,224,66097,22,0,B|180:288|112:288|44:288|16:352,1,240,4|0,1:1|2:0,2:0:0:0:
112,376,66659,1,8,1:2:0:0:
112,192,67034,1,8,1:2:0:0:
112,8,67409,1,0,2:0:0:0:
208,32,67597,2,0,B|180:96|112:96|44:96|16:160,2,240,4|8|4,1:2|1:3|1:3,2:0:0:0:
304,32,68534,1,0,2:0:0:0:
256,128,68722,1,2,1:3:0:0:
208,224,68909,1,0,2:0:0:0:
304,224,69097,22,0,B|332:288|400:288|468:288|496:352,1,240,4|0,1:1|2:0,2:0:0:0:
400,376,69659,1,8,1:2:0:0:
400,192,70034,1,8,1:2:0:0:
400,8,70409,1,0,2:0:0:0:
304,32,70597,2,0,B|332:96|400:96|468:96|496:160,2,240,4|8|4,1:2|1:3|1:3,2:0:0:0:
256,128,71534,1,0,2:0:0:0:
260,132,71722,1,8,1:0:0:0:
96,168,72097,37,4,1:2:0:0:
96,360,72472,1,0,1:0:0:0:
0,320,72659,2,0,B|8:280|72:240|128:240|168:288|192:320|192:320|216:352|256:400|312:400|376:360|384:320,1,480,10|10,1:0|1:0,2:0:0:0:
288,288,73597,1,4,1:2:0:0:
288,96,73972,1,0,1:0:0:0:
325,190,74159,2,0,P|186:102|203:45,1,240,8|0,1:0|2:0,2:0:0:0:
288,0,74722,1,12,1:2:0:0:
416,168,75097,5,4,1:2:0:0:
416,360,75472,1,0,1:0:0:0:
512,320,75659,2,0,B|504:280|440:240|384:240|344:288|320:320|320:320|296:352|256:400|200:400|136:360|128:320,1,480,10|10,1:0|1:0,2:0:0:0:
128,216,76597,2,0,P|-8:128|8:72,1,240,4|0,1:2|2:0,2:0:0:0:
80,16,77159,2,0,P|216:104|200:160,1,240,8|0,1:3|2:0,2:0:0:0:
104,112,77722,1,12,1:2:0:0:
172,232,78097,6,0,B|196:256|238:250|256:232|274:213|316:207|340:232,1,180,10|8,1:2|1:3,2:0:0:0:
464,304,78659,2,0,B|496:272|488:216|464:192|440:168|432:112|464:80,1,240,4|4,1:1|1:3,2:0:0:0:
392,0,79222,1,8,1:2:0:0:
296,0,79409,1,0,2:0:0:0:
200,0,79597,5,8,1:3:0:0:
312,96,79878,1,2,2:0:0:0:
200,192,80159,1,4,1:3:0:0:
312,288,80440,1,2,1:3:0:0:
200,384,80722,1,4,1:2:0:0:
340,192,81097,6,0,B|316:216|274:210|256:192|238:173|196:167|172:192,1,180,10|8,1:1|1:3,2:0:0:0:
48,304,81659,2,0,B|16:272|24:216|48:192|72:168|80:112|48:80,1,240,4|4,1:1|1:3,2:0:0:0:
112,0,82222,1,0,2:0:0:0:
208,0,82409,1,0,2:0:0:0:
304,0,82597,5,8,1:3:0:0:
352,88,82784,1,4,1:3:0:0:
256,88,82972,1,0,2:0:0:0:
304,176,83159,1,4,1:3:0:0:
400,176,83347,1,0,2:0:0:0:
448,264,83534,1,2,1:3:0:0:
352,264,83722,1,4,1:2:0:0:
172,352,84097,6,0,B|196:376|238:370|256:352|274:333|316:327|340:352,1,180,10|8,1:2|1:3,2:0:0:0:
368,192,84659,2,0,B|336:160|280:168|256:192|232:216|176:224|144:192,1,240,4|4,1:1|1:3,2:0:0:0:
64,240,85222,1,8,2:0:0:0:
32,16,85597,5,8,1:3:0:0:
144,112,85878,1,2,2:0:0:0:
256,16,86159,1,4,1:3:0:0:
368,112,86440,1,2,1:3:0:0:
480,16,86722,1,4,1:2:0:0:
480,240,87097,6,0,P|440:357|336:368,1,240,4|0,1:2|2:0,2:0:0:0:
256,320,87659,1,8,2:0:0:0:
456,80,88222,2,0,B|432:48|400:40|376:48|368:80|384:136|336:168|264:120|304:80|328:24|256:-32|184:24|208:80|248:120|176:168|128:136|144:80|136:48|112:40|80:48|56:80,1,480,4|0,1:1|2:0,2:0:0:0:
56,272,89347,1,8,1:2:0:0:
60,276,89534,1,8,1:2:0:0:
64,280,89722,1,8,1:2:0:0:
256,192,90097,12,0,93847,2:0:0:0:
