osu file format v14

[General]
AudioFilename: audio.mp3
AudioLeadIn: 0
PreviewTime: 53909
Countdown: 0
SampleSet: Normal
StackLeniency: 0.4
Mode: 0
LetterboxInBreaks: 0
WidescreenStoryboard: 1

[Editor]
Bookmarks: 93847
DistanceSpacing: 1.4
BeatDivisor: 4
GridSize: 16
TimelineZoom: 2.1

[Metadata]
Title:Ame no Oto ga Niji o Yobu
TitleUnicode:雨の音が虹を呼ぶ
Artist:Barbarian On The Groove feat. Shimotsuki Haruka
ArtistUnicode:Barbarian On The Groove feat. 霜月はるか
Creator:Shiyzo
Version:Insane
Source:CROSSxBEATS
Tags:japanese j-pop j-rock rock pop videogame crossbeats REV. SUNRISE capcom XzeniFX m980 Fix yukic foss
BeatmapID:2493535
BeatmapSetID:977633

[Difficulty]
HPDrainRate:5
CircleSize:3.7
OverallDifficulty:8
ApproachRate:9
SliderMultiplier:1.5
SliderTickRate:1

[Events]
//Background and Video events
0,0,"rainbowcoverfinal_waifu2x_art_noise3_scale_tta_1.jpg",0,0
//Break Periods
//Storyboard Layer 0 (Background)
//Storyboard Layer 1 (Fail)
//Storyboard Layer 2 (Pass)
//Storyboard Layer 3 (Foreground)
//Storyboard Layer 4 (Overlay)
//Storyboard Sound Samples

[TimingPoints]
97,375,4,1,1,70,1,0
9003,-100,4,1,1,5,0,0
9097,-100,4,1,1,70,0,0
9378,-100,4,1,1,5,0,0
9472,-100,4,1,1,70,0,0
9940,-100,4,1,1,5,0,0
10034,-100,4,1,1,70,0,0
10503,-100,4,1,1,5,0,0
10597,-100,4,1,1,70,0,0
22878,-100,4,1,1,5,0,0
22972,-100,4,1,1,70,0,0
23440,-100,4,1,1,5,0,0
23534,-100,4,1,1,70,0,0
30097,-90.9090909090909,4,1,1,70,0,0
34878,-90.9090909090909,4,1,1,5,0,0
34972,-90.9090909090909,4,1,1,70,0,0
42659,-111.111111111111,4,1,1,70,0,0
43034,-90.9090909090909,4,1,1,70,0,0
43503,-90.9090909090909,4,1,1,5,0,0
43597,-90.9090909090909,4,1,1,70,0,0
47722,-133.333333333333,4,1,1,70,0,0
48003,-111.111111111111,4,1,1,5,0,0
48097,-111.111111111111,4,1,1,70,0,0
49222,-90.9090909090909,4,1,1,70,0,0
54097,-76.9230769230769,4,1,1,80,0,1
60097,-66.6666666666667,4,1,1,80,0,1
60472,-76.9230769230769,4,1,1,80,0,1
65909,-76.9230769230769,4,1,1,80,0,0
66097,-76.9230769230769,4,1,1,80,0,1
72097,-76.9230769230769,4,1,1,80,0,0
75097,-76.9230769230769,4,1,1,80,0,1
78003,-76.9230769230769,4,1,1,80,0,0
78097,-76.9230769230769,4,1,1,80,0,1
81097,-90.9090909090909,4,1,1,70,0,0
83722,-133.333333333333,4,1,1,70,0,0
84097,-90.9090909090909,4,1,1,70,0,0
87378,-90.9090909090909,4,1,1,5,0,0
87472,-90.9090909090909,4,1,1,70,0,0
87940,-90.9090909090909,4,1,1,5,0,0
88034,-90.9090909090909,4,1,1,70,0,0
88503,-90.9090909090909,4,1,1,5,0,0
88597,-90.9090909090909,4,1,1,70,0,0
90097,-232.558139534884,4,1,1,70,0,0
90190,-232.558139534884,4,1,1,5,0,0
93097,-181.818181818181,4,1,1,5,0,0

[Colours]
Combo1 : 168,81,255
Combo2 : 20,120,131
Combo3 : 24,245,157
Combo4 : 255,255,164
Combo5 : 0,170,170
Combo6 : 255,64,64

[HitObjects]
415,230,97,6,0,P|373:261|285:232,1,150,4|2,0:0|0:0,0:0:0:0:
458,111,659,1,8,0:0:0:0:
350,181,847,2,0,L|344:90,1,75,2|0,0:0|0:0,0:0:0:0:
244,0,1222,2,0,L|239:74,1,75,10|0,0:0|0:0,0:0:0:0:
229,185,1597,1,2,0:0:0:0:
337,21,1784,1,0,0:0:0:0:
337,21,2159,1,8,0:0:0:0:
512,177,2347,6,0,B|470:158|421:173|451:183|395:199|338:162,1,150,2|10,0:0|0:0,0:0:0:0:
250,144,2909,1,0,0:0:0:0:
239,174,3003,1,0,0:0:0:0:
272,200,3097,6,0,B|218:204|218:204|191:219|191:219|116:222,1,150,4|2,0:0|0:0,0:0:0:0:
0,229,3659,1,8,0:0:0:0:
250,297,3847,2,0,L|161:300,1,75,2|0,0:0|0:0,0:0:0:0:
0,373,4222,2,0,L|89:376,1,75,10|0,0:0|0:0,0:0:0:0:
176,380,4597,1,2,0:0:0:0:
336,268,4784,1,0,0:0:0:0:
336,268,5159,5,8,0:0:0:0:
303,167,5347,1,10,0:0:0:0:
459,188,5534,2,0,L|470:150,1,37.5,0|8,0:0|0:0,0:0:0:0:
504,19,5722,1,10,0:0:0:0:
483,50,5815,1,8,0:0:0:0:
453,71,5909,1,8,0:0:0:0:
416,79,6003,1,8,0:0:0:0:
379,71,6097,6,0,P|335:51|234:84,1,150,4|2,0:0|0:0,0:0:0:0:
109,128,6659,1,8,0:0:0:0:
314,160,6847,2,0,L|317:242,1,75,2|0,0:0|0:0,0:0:0:0:
248,371,7222,2,0,L|250:296,1,75,10|0,0:0|0:0,0:0:0:0:
54,278,7597,1,2,0:0:0:0:
54,278,7784,6,0,P|73:236|57:184,1,75,0|2,0:0|0:0,0:0:0:0:
26,59,8159,1,8,0:0:0:0:
26,59,8347,2,0,P|57:39|94:38,1,75,2|0,0:0|0:0,0:0:0:0:
355,11,8722,2,0,P|344:60|296:104,1,112.5,10|0,0:0|0:0,0:0:0:0:
243,22,9097,6,0,B|192:63|192:63|170:130,1,112.5,4|0,0:0|0:0,0:0:0:0:
165,194,9472,1,10,0:0:0:0:
338,278,9659,2,0,B|297:227|297:227|230:205,1,112.5
165,194,10034,1,0,0:0:0:0:
41,338,10222,2,0,B|56:274|56:274|108:226,1,112.5,12|0,0:0|0:0,0:0:0:0:
165,194,10597,1,2,0:0:0:0:
173,292,10784,5,0,0:0:0:0:
157,97,10972,1,12,0:0:0:0:
327,108,11159,1,8,0:0:0:0:
301,114,11253,1,8,0:0:0:0:
275,108,11347,1,10,0:0:0:0:
209,199,11534,5,0,0:0:0:0:
415,232,11722,1,10,0:0:0:0:
262,280,11909,1,0,0:0:0:0:
351,320,12097,1,4,0:0:0:0:
256,192,12190,12,4,15097,0:0:0:0:
256,192,15190,12,8,17722,0:0:0:0:
20,16,18097,5,4,0:0:0:0:
0,101,18284,1,0,0:0:0:0:
109,196,18472,1,2,0:0:0:0:
0,101,18659,2,0,B|29:125|85:109|55:99|104:84|146:103,1,150,8|0,0:0|0:0,0:0:0:0:
245,139,19222,1,10,0:0:0:0:
109,196,19409,1,0,0:0:0:0:
276,244,19597,6,0,P|220:246|189:238,1,75,2|0,0:0|0:0,0:0:0:0:
335,153,19972,1,2,0:0:0:0:
419,315,20159,2,0,P|430:253|422:157,1,150,8|0,0:0|0:0,0:0:0:0:
355,374,20722,1,10,0:0:0:0:
355,374,20909,1,0,0:0:0:0:
169,378,21097,6,0,B|168:323|168:323|180:295|180:295|177:220,1,150,4|2,0:0|0:0,0:0:0:0:
97,125,21659,2,0,P|145:106|249:121,1,150,8|0,0:0|0:0,0:0:0:0:
335,227,22222,2,0,P|281:233|235:212,1,75,10|0,0:0|0:0,0:0:0:0:
317,12,22597,6,0,L|369:136,1,112.5,2|0,0:0|0:0,0:0:0:0:
371,141,22972,1,10,0:0:0:0:
512,279,23159,2,0,B|513:258|491:265|491:265|454:298|405:271,1,112.5
395,264,23534,1,0,0:0:0:0:
170,323,23722,2,0,L|269:331,1,75,12|0,0:2|0:0,0:0:0:0:
341,342,24003,1,0,0:0:0:0:
341,342,24097,6,0,P|327:274|263:232,1,150,4|2,0:0|0:0,0:0:0:0:
92,225,24659,1,8,0:0:0:0:
92,225,25034,1,0,0:0:0:0:
0,297,25222,1,10,0:0:0:0:
162,171,25409,1,0,0:0:0:0:
13,181,25597,2,0,P|38:152|69:133,1,75,2|0,0:0|0:0,0:0:0:0:
171,255,25972,1,2,0:0:0:0:
249,58,26159,6,0,P|255:132|243:206,1,150,8|0,0:0|0:0,0:0:0:0:
194,345,26722,1,10,0:0:0:0:
194,345,26909,1,0,0:0:0:0:
1,175,27097,6,0,B|34:160|85:169|64:178|105:192|147:173,1,150,4|2,0:0|0:0,0:0:0:0:
267,0,27659,2,0,P|267:63|217:142,1,150,8|0,0:0|0:0,0:0:0:0:
119,28,28222,2,0,L|166:116,1,75,10|0,0:0|0:0,0:0:0:0:
306,205,28597,6,0,L|360:111,1,75,4|0,0:2|0:0,0:0:0:0:
423,0,28972,1,8,0:0:0:0:
293,39,29159,1,0,0:0:0:0:
415,183,29347,2,0,L|489:169,1,75,2|0,0:0|0:0,0:0:0:0:
228,216,29722,1,10,0:0:0:0:
136,29,29909,1,8,0:0:0:0:
136,29,30003,1,8,0:0:0:0:
136,29,30097,6,0,P|144:83|127:147,1,82.5000025177003,4|0,0:0|0:0,0:0:0:0:
117,199,30378,1,0,0:0:0:0:
117,199,30472,1,10,0:0:0:0:
0,314,30659,2,0,L|174:328,1,165.000005035401
378,227,31222,1,10,0:0:0:0:
331,351,31409,1,0,0:0:0:0:
356,355,31503,1,8,0:0:0:0:
380,348,31597,2,0,P|413:324|466:324,1,82.5000025177003,2|0,0:0|0:0,0:0:0:0:
429,96,31972,5,10,0:0:0:0:
356,203,32159,1,0,0:0:0:0:
336,192,32253,1,8,0:0:0:0:
322,173,32347,2,0,P|309:115|258:87,1,82.5000025177003,2|0,0:0|0:0,0:0:0:0:
81,59,32722,1,10,0:0:0:0:
189,75,32909,1,0,0:0:0:0:
0,155,33097,6,0,L|94:160,1,82.5000025177003,4|0,0:0|0:0,0:0:0:0:
169,165,33378,1,0,0:0:0:0:
169,165,33472,1,10,0:0:0:0:
31,269,33659,2,0,L|198:298,1,165.000005035401
14,78,34222,5,10,0:0:0:0:
20,88,34315,1,0,0:0:0:0:
38,100,34409,1,0,0:0:0:0:
72,94,34503,1,0,0:0:0:0:
110,64,34597,2,0,P|171:61|224:92,1,123.75000377655,2|0,0:0|0:0,0:0:0:0:
281,155,34972,1,10,0:0:0:0:
102,224,35159,1,0,0:0:0:0:
100,185,35253,5,8,0:0:0:0:
56,207,35346,1,10,0:0:0:0:
33,250,35440,1,8,0:0:0:0:
38,298,35534,1,8,0:3:0:0:
69,335,35628,1,8,0:3:0:0:
112,341,35722,5,4,0:3:0:0:
129,313,35815,1,4,0:3:0:0:
156,295,35909,1,2,0:3:0:0:
188,288,36003,1,2,0:3:0:0:
216,291,36097,6,0,B|253:307|305:296|287:281|331:270|383:294,1,165.000005035401,4|10,0:0|0:0,0:0:0:0:
512,384,36659,2,0,L|442:230,1,165.000005035401
512,92,37222,2,0,L|427:76,1,82.5000025177003,10|0,0:0|0:0,0:0:0:0:
341,57,37503,1,8,0:0:0:0:
341,57,37597,5,2,0:0:0:0:
473,0,37784,1,0,0:0:0:0:
360,151,37972,1,10,0:0:0:0:
228,44,38159,1,0,0:0:0:0:
228,44,38253,1,8,0:0:0:0:
228,44,38347,2,0,P|221:96|227:146,1,82.5000025177003,2|0,0:0|0:0,0:0:0:0:
269,242,38722,2,0,L|176:246,1,82.5000025177003,10|0,0:0|0:0,0:0:0:0:
46,294,39097,6,0,B|41:258|11:238|11:238|-3:180|69:149,1,165.000005035401,4|10,0:0|0:0,0:0:0:0:
164,67,39659,2,0,L|-8:77,1,165.000005035401
144,185,40222,2,0,P|217:162|233:132,1,82.5000025177003,10|0,0:0|0:0,0:0:0:0:
281,93,40503,1,8,0:0:0:0:
281,93,40597,2,0,P|314:70|355:68,1,82.5000025177003,4|0,0:0|0:0,0:0:0:0:
507,50,40972,5,8,0:0:0:0:
471,78,41065,1,0,0:0:0:0:
478,111,41159,1,0,0:0:0:0:
502,127,41253,1,8,0:0:0:0:
512,152,41347,1,0,0:0:0:0:
510,178,41440,1,0,0:0:0:0:
500,190,41534,6,0,L|438:205,1,41.2500012588501,8|8,0:0|0:0,0:0:0:0:
370,147,41722,2,0,L|330:157,1,41.2500012588501,8|8,0:3|0:3,0:0:0:0:
316,252,41909,2,0,L|275:261,1,41.2500012588501,2|2,0:3|0:3,0:0:0:0:
188,292,42097,6,0,L|200:332,2,41.2500012588501,12|0|0,0:0|0:0|0:0,0:0:0:0:
167,208,42378,1,8,0:0:0:0:
167,208,42472,1,8,0:0:0:0:
0,315,42659,2,0,L|126:366,1,134.999995880127,4|0,0:2|0:0,0:0:0:0:
35,196,43222,2,0,P|0:136|31:77,1,123.75000377655,10|0,0:0|0:0,0:0:0:0:
78,22,43597,5,8,0:0:0:0:
111,19,43690,1,8,0:3:0:0:
144,16,43784,1,8,0:3:0:0:
188,2,43878,5,8,0:0:0:0:
190,27,43972,1,4,0:3:0:0:
192,52,44065,1,4,0:3:0:0:
235,60,44159,1,2,0:3:0:0:
233,85,44252,1,2,0:3:0:0:
231,110,44347,6,0,L|283:97,1,41.2500012588501,0|8,0:0|0:0,0:0:0:0:
388,48,44534,2,0,L|381:105,1,41.2500012588501,0|8,0:0|0:0,0:0:0:0:
359,226,44722,2,0,L|336:191,1,41.2500012588501,8|8,0:0|0:3,0:0:0:0:
250,241,44909,1,4,0:3:0:0:
250,241,45003,1,2,0:3:0:0:
250,241,45097,6,0,P|185:295|95:323,1,165.000005035401,4|10,0:0|0:0,0:0:0:0:
0,207,45659,2,0,P|47:234|100:233,1,82.5000025177003,0|2,0:0|0:0,0:0:0:0:
186,174,46034,1,0,0:0:0:0:
66,78,46222,2,0,P|66:132|93:177,1,82.5000025177003,10|0,0:0|0:0,0:0:0:0:
162,7,46597,5,8,0:0:0:0:
162,7,46690,1,8,0:3:0:0:
162,7,46784,2,0,L|207:57,1,41.2500012588501,8|8,0:3|0:3,0:0:0:0:
266,121,46972,1,8,0:0:0:0:
266,121,47065,1,4,0:3:0:0:
266,121,47159,2,0,L|226:174,1,41.2500012588501,4|4,0:3|0:3,0:0:0:0:
177,245,47347,1,8,0:0:0:0:
177,245,47440,1,2,0:3:0:0:
177,245,47534,2,0,L|225:288,1,41.2500012588501,2|2,0:3|0:3,0:0:0:0:
362,341,47722,6,4,B|261:334,1,84.3750032186509,8|0,0:0|0:0,0:2:0:0:
268,335,48097,1,8,0:0:0:0:
396,263,48284,1,8,0:0:0:0:
420,236,48378,1,8,0:0:0:0:
444,209,48472,1,8,0:0:0:0:
337,161,48659,6,0,B|391:165|391:165|418:180|418:180|493:183,1,134.999995880127,4|0,0:0|0:0,0:0:0:0:
474,0,49222,2,0,L|459:103,1,82.5000025177003,10|0,0:0|0:0,0:0:0:0:
279,23,49597,2,0,L|341:0,2,41.2500012588501,8|0|0,0:0|0:0|0:0,0:0:0:0:
198,57,49878,1,8,0:0:0:0:
198,57,49972,1,0,0:0:0:0:
31,48,50159,6,0,L|-8:16,2,41.2500012588501,8|2|0,0:0|0:3|0:0,0:0:0:0:
0,144,50440,1,10,0:2:0:0:
0,144,50534,2,0,L|7:205,1,41.2500012588501,0|10,0:0|0:2,0:0:0:0:
95,223,50722,1,8,0:0:0:0:
95,223,50815,2,0,L|86:280,1,41.2500012588501,8|4,0:3|0:3,0:0:0:0:
15,341,51003,1,2,0:3:0:0:
15,341,51097,6,0,P|70:339|177:382,1,165.000005035401,4|10,0:0|0:0,0:0:0:0:
340,316,51659,2,0,P|278:329|242:358,1,82.5000025177003,0|2,0:0|0:0,0:0:0:0:
149,212,52034,2,0,L|187:297,1,82.5000025177003,0|10,0:0|0:0,0:0:0:0:
271,106,52409,1,0,0:0:0:0:
271,106,52503,1,8,0:0:0:0:
271,106,52597,1,4,0:2:0:0:
256,192,52690,12,8,53722,0:0:0:0:
296,384,54097,6,0,P|311:336|271:253,1,146.249993305207,4|0,0:0|0:0,0:0:0:0:
201,195,54472,1,10,0:0:0:0:
112,384,54659,2,0,L|207:340,1,97.4999955368044,8|2,0:3|0:0,0:0:0:0:
354,312,55034,1,2,0:3:0:0:
141,268,55222,1,12,0:2:0:0:
414,384,55409,5,0,0:0:0:0:
414,384,55503,1,8,0:0:0:0:
414,384,55597,2,0,P|438:335|434:283,1,97.4999955368044,2|0,0:0|0:0,0:0:0:0:
327,83,55972,2,0,L|440:105,1,97.4999955368044,10|0,0:0|0:0,0:0:0:0:
512,125,56253,1,8,0:0:0:0:
512,125,56347,1,2,0:0:0:0:
227,61,56534,5,8,0:3:0:0:
265,258,56722,1,10,0:0:0:0:
164,119,56909,1,2,0:3:0:0:
396,152,57097,6,0,B|332:139|332:139|302:148|302:148|248:140,1,146.249993305207,4|0,0:0|0:0,0:0:0:0:
164,119,57472,1,10,0:0:0:0:
297,264,57659,2,0,P|246:279|192:249,1,97.4999955368044,8|2,0:3|0:0,0:0:0:0:
73,118,58034,2,0,P|124:103|178:133,1,97.4999955368044,2|10,0:3|0:0,0:0:0:0:
30,367,58409,5,0,0:0:0:0:
30,367,58503,1,8,0:0:0:0:
30,367,58597,2,0,L|-5:262,1,97.4999955368044,4|0,0:2|0:0,0:0:0:0:
210,181,58972,2,0,B|159:218|86:169,1,97.4999955368044,10|0,0:0|0:0,0:0:0:0:
10,136,59253,5,12,0:2:0:0:
10,136,59347,2,0,L|64:115,1,48.7499977684022,0|8,0:0|0:0,0:0:0:0:
210,181,59534,1,8,0:3:0:0:
210,181,59628,2,0,L|259:193,1,48.7499977684022,8|4,0:3|0:3,0:0:0:0:
411,137,59815,1,4,0:3:0:0:
411,137,59909,2,0,L|465:116,1,48.7499977684022,2|2,0:3|0:3,0:0:0:0:
359,44,60097,6,0,B|293:62|233:45|269:33|202:13|128:48,1,225.000008583069,4|10,0:0|0:0,0:0:0:0:
10,185,60659,2,0,P|62:148|74:103,1,97.4999955368044,8|2,0:3|0:0,0:0:0:0:
251,205,61034,1,2,0:3:0:0:
177,135,61222,1,8,0:0:0:0:
352,90,61409,1,0,0:0:0:0:
352,90,61503,1,8,0:0:0:0:
352,90,61597,6,0,P|400:84|462:94,1,97.4999955368044,4|0,0:0|0:0,0:0:0:0:
433,339,61972,2,0,L|409:225,1,97.4999955368044,10|8,0:0|0:3,0:0:0:0:
344,178,62253,1,8,0:0:0:0:
344,178,62347,2,0,L|318:307,1,97.4999955368044,2|2,0:0|0:3,0:0:0:0:
184,342,62722,2,0,P|232:348|280:342,1,97.4999955368044,10|0,0:0|0:0,0:0:0:0:
35,64,63097,6,0,B|39:137|39:137|87:200,1,146.249993305207,4|0,0:0|0:0,0:0:0:0:
141,264,63472,1,10,0:0:0:0:
345,160,63659,2,0,B|273:164|273:164|211:211,1,146.249993305207,4|0,0:2|0:0,0:0:0:0:
141,264,64034,1,0,0:0:0:0:
0,384,64222,2,0,L|82:313,1,97.4999955368044,10|0,0:0|0:0,0:0:0:0:
158,367,64503,5,8,0:0:0:0:
158,367,64597,1,8,0:0:0:0:
158,367,64690,2,0,L|219:391,1,48.7499977684022,8|8,0:0|0:3,0:0:0:0:
302,319,64878,2,0,L|362:291,1,48.7499977684022,8|4,0:0|0:3,0:0:0:0:
451,367,65065,2,0,L|496:384,1,48.7499977684022,8|2,0:0|0:3,0:0:0:0:
508,141,65253,2,0,L|489:195,1,48.7499977684022,8|0,0:0|0:0,0:0:0:0:
451,267,65440,1,8,0:3:0:0:
443,290,65534,5,8,0:3:0:0:
438,241,65628,1,4,0:3:0:0:
408,203,65722,1,4,0:3:0:0:
364,185,65816,1,2,0:3:0:0:
313,192,65909,1,2,0:3:0:0:
145,296,66097,6,0,B|132:225|132:225|174:165,1,146.249993305207,4|0,0:0|0:0,0:0:0:0:
246,107,66472,1,10,0:0:0:0:
62,170,66659,2,0,P|44:122|53:65,1,97.4999955368044,8|2,0:3|0:0,0:0:0:0:
208,28,67034,1,2,0:3:0:0:
228,251,67222,1,12,0:2:0:0:
510,225,67409,5,0,0:0:0:0:
510,225,67503,1,8,0:0:0:0:
510,225,67597,2,0,L|409:245,1,97.4999955368044,2|0,0:0|0:0,0:0:0:0:
229,332,67972,2,0,L|324:350,1,97.4999955368044,10|0,0:0|0:0,0:0:0:0:
414,374,68253,1,8,0:0:0:0:
414,374,68347,1,2,0:0:0:0:
292,140,68534,5,8,0:3:0:0:
229,332,68722,1,10,0:0:0:0:
354,257,68909,1,2,0:3:0:0:
127,229,69097,6,0,B|189:260|211:199|278:235,1,146.249993305207,4|0,0:0|0:0,0:0:0:0:
354,257,69472,1,10,0:0:0:0:
166,159,69659,2,0,L|263:117,1,97.4999955368044,8|2,0:3|0:0,0:0:0:0:
89,24,70034,2,0,L|-8:65,1,97.4999955368044,2|10,0:3|0:0,0:0:0:0:
12,263,70409,5,0,0:0:0:0:
12,263,70503,1,8,0:0:0:0:
12,263,70597,2,0,P|14:207|47:158,1,97.4999955368044,4|0,0:2|0:0,0:0:0:0:
274,299,70972,2,0,L|167:262,1,97.4999955368044,10|0,0:0|0:0,0:0:0:0:
101,236,71253,5,8,0:0:0:0:
101,236,71347,1,8,0:0:0:0:
101,236,71440,2,0,L|94:288,1,48.7499977684022,8|4,0:0|0:3,0:0:0:0:
0,373,71628,1,4,0:3:0:0:
18,360,71722,5,8,0:0:0:0:
65,365,71815,1,8,0:0:0:0:
112,370,71909,1,8,0:0:0:0:
159,375,72003,1,8,0:0:0:0:
206,380,72097,6,0,P|241:347|215:222,1,146.249993305207,4|0,0:0|0:0,0:0:0:0:
226,213,72472,1,10,0:0:0:0:
85,242,72659,2,0,P|119:280|182:296,1,97.4999955368044,8|2,0:3|0:0,0:0:0:0:
144,154,73034,1,2,0:3:0:0:
416,197,73222,2,0,B|314:208,1,97.4999955368044,10|0,0:0|0:0,0:0:0:0:
226,213,73503,1,8,0:0:0:0:
226,213,73597,6,0,P|239:157|322:115,1,146.249993305207,4|0,0:0|0:0,0:0:0:0:
388,110,73972,1,10,0:0:0:0:
364,289,74159,2,0,P|331:253|318:206,1,97.4999955368044,8|2,0:3|0:0,0:0:0:0:
469,164,74534,1,2,0:3:0:0:
129,202,74722,2,0,B|231:213,1,97.4999955368044,12|0,0:2|0:0,0:0:0:0:
0,155,75097,6,0,L|121:114,1,97.4999955368044,4|0,0:0|0:0,0:0:0:0:
185,95,75378,1,0,0:0:0:0:
185,95,75472,1,10,0:0:0:0:
276,287,75659,2,0,P|315:242|310:186,1,97.4999955368044,8|2,0:3|0:0,0:0:0:0:
129,202,76034,1,2,0:3:0:0:
494,208,76222,2,0,L|401:239,1,97.4999955368044,10|0,0:0|0:0,0:0:0:0:
317,206,76503,1,8,0:0:0:0:
317,206,76597,6,0,P|323:144|368:76,1,146.249993305207,4|0,0:2|0:0,0:0:0:0:
428,20,76972,1,10,0:0:0:0:
430,171,77159,1,2,0:3:0:0:
430,171,77253,1,2,0:3:0:0:
430,171,77347,2,8,L|425:223,1,48.7499977684022
451,348,77534,1,8,0:3:0:0:
475,335,77628,1,8,0:3:0:0:
484,304,77721,5,8,0:0:0:0:
443,276,77815,1,8,0:0:0:0:
395,266,77909,1,8,0:0:0:0:
348,273,78003,1,8,0:0:0:0:
307,302,78097,6,0,P|321:242|296:191,1,97.4999955368044,4|0,0:0|0:0,0:0:0:0:
231,256,78378,1,8,0:0:0:0:
231,256,78472,2,0,P|206:231|193:180,1,48.7499977684022,8|0,0:0|0:0,0:0:0:0:
95,239,78659,6,0,P|119:150|215:114,1,194.999991073609,4|0,0:2|0:0,0:0:0:0:
388,119,79222,2,0,P|328:130|272:93,1,97.4999955368044,10|0,0:0|0:0,0:0:0:0:
58,23,79597,6,0,L|179:43,1,97.4999955368044,8|0,0:0|0:0,0:0:0:0:
207,113,79878,2,0,L|86:133,1,97.4999955368044,8|0,0:0|0:0,0:0:0:0:
58,203,80159,2,0,L|179:223,1,97.4999955368044,8|0,0:0|0:0,0:0:0:0:
205,293,80440,2,0,L|84:313,1,97.4999955368044,8|8,0:0|0:0,0:0:0:0:
38,353,80722,1,8,0:0:0:0:
29,315,80815,1,4,0:3:0:0:
20,277,80909,1,2,0:3:0:0:
105,99,81097,6,0,B|154:81|203:93|176:103|222:116|280:95,1,165.000005035401,4|10,0:0|0:0,0:0:0:0:
465,51,81659,2,0,P|421:50|369:74,1,82.5000025177003,8|2,0:3|0:0,0:0:0:0:
292,2,82034,1,2,0:3:0:0:
379,239,82222,2,0,L|349:160,1,82.5000025177003,10|0,0:0|0:0,0:0:0:0:
266,99,82503,5,8,0:0:0:0:
266,99,82596,1,8,0:0:0:0:
266,99,82690,2,0,L|202:126,1,41.2500012588501,8|8,0:3|0:3,0:0:0:0:
157,198,82878,5,8,0:3:0:0:
157,198,82971,1,8,0:0:0:0:
157,198,83065,2,0,L|111:193,1,41.2500012588501,4|4,0:3|0:3,0:0:0:0:
66,105,83253,5,4,0:3:0:0:
66,105,83346,1,8,0:0:0:0:
66,105,83440,2,0,L|2:132,1,41.2500012588501,2|2,0:3|0:3,0:0:0:0:
33,236,83628,1,2,0:3:0:0:
33,236,83722,2,0,P|3:290|17:331,1,84.3750032186509,12|0,0:2|0:0,0:0:0:0:
211,268,84097,6,0,P|177:292|137:301,1,82.5000025177003,4|0,0:0|0:0,0:0:0:0:
84,298,84378,1,8,0:0:0:0:
113,265,84472,1,8,0:0:0:0:
387,354,84659,2,0,B|294:329|313:380|213:349,1,165.000005035401,4|0,0:2|0:0,0:0:0:0:
186,201,85222,2,0,P|237:266|275:272,1,123.75000377655,10|0,0:0|0:0,0:0:0:0:
367,258,85597,5,10,0:0:0:0:
339,227,85690,1,4,0:3:0:0:
332,186,85784,1,4,0:3:0:0:
346,148,85878,2,0,P|363:129|348:54,1,82.5000025177003,12|0,0:2|0:0,0:0:0:0:
303,16,86159,5,8,0:0:0:0:
257,40,86253,5,8,0:3:0:0:
237,32,86347,1,4,0:3:0:0:
203,61,86440,1,8,0:0:0:0:
182,53,86534,1,4,0:3:0:0:
124,24,86628,5,8,0:0:0:0:
147,66,86721,1,8,0:0:0:0:
142,115,86815,1,2,0:3:0:0:
112,153,86909,1,2,0:3:0:0:
350,365,87097,6,0,B|334:301|334:301|282:253,1,123.75000377655,4|0,0:0|0:0,0:0:0:0:
222,202,87472,1,10,0:0:0:0:
61,330,87659,2,0,B|124:314|124:314|172:262,1,123.75000377655,8|0,0:3|0:0,0:0:0:0:
222,202,88034,1,2,0:3:0:0:
126,20,88222,2,0,B|128:77|128:77|168:130,1,123.75000377655,12|0,0:2|0:0,0:0:0:0:
222,202,88597,5,2,0:0:0:0:
366,76,88784,1,8,0:3:0:0:
308,155,88972,1,10,0:0:0:0:
380,218,89159,1,2,0:3:0:0:
222,202,89347,1,10,0:0:0:0:
438,139,89534,1,10,0:0:0:0:
394,357,89722,1,10,0:0:0:0:
264,30,90097,6,0,B|249:129|216:179|195:127|54:238|101:375|234:424|347:396|377:271|345:200|302:228|289:173|295:105,1,645.000009841919,4|0,0:0|2:0,2:2:0:0:
