osu file format v14

[General]
AudioFilename: audio.mp3
AudioLeadIn: 0
PreviewTime: 53909
Countdown: 0
SampleSet: Normal
StackLeniency: 0.9
Mode: 0
LetterboxInBreaks: 0
WidescreenStoryboard: 1

[Editor]
DistanceSpacing: 1
BeatDivisor: 4
GridSize: 16
TimelineZoom: 2.799999

[Metadata]
Title:Ame no Oto ga Niji o Yobu
TitleUnicode:雨の音が虹を呼ぶ
Artist:Barbarian On The Groove feat. Shimotsuki Haruka
ArtistUnicode:Barbarian On The Groove feat. 霜月はるか
Creator:Shiyzo
Version:Fix's Rainbow
Source:CROSSxBEATS
Tags:japanese j-pop j-rock rock pop videogame crossbeats REV. SUNRISE capcom XzeniFX m980 Fix yukic foss
BeatmapID:2046125
BeatmapSetID:977633

[Difficulty]
HPDrainRate:6
CircleSize:4
OverallDifficulty:8.5
ApproachRate:9.1
SliderMultiplier:1.8
SliderTickRate:1

[Events]
//Background and Video events
0,0,"rainbowcoverfinal_waifu2x_art_noise3_scale_tta_1.jpg",0,0
//Break Periods
//Storyboard Layer 0 (Background)
//Storyboard Layer 1 (Fail)
//Storyboard Layer 2 (Pass)
//Storyboard Layer 3 (Foreground)
//Storyboard Layer 4 (Overlay)
//Storyboard Sound Samples

[TimingPoints]
97,375,4,1,1,70,1,0
12097,-200,4,1,1,70,0,0
18097,-133.333333333333,4,1,1,60,0,0
21846,-133.333333333333,4,1,1,70,0,0
22034,-133.333333333333,4,1,1,70,0,0
22784,-133.333333333333,4,1,1,45,0,0
22972,-133.333333333333,4,1,1,60,0,0
23347,-133.333333333333,4,1,1,45,0,0
23534,-133.333333333333,4,1,1,60,0,0
24846,-133.333333333333,4,1,1,45,0,0
25034,-133.333333333333,4,1,1,60,0,0
30097,-117.647058823529,4,1,1,70,0,0
33846,-117.647058823529,4,1,1,70,0,0
34034,-117.647058823529,4,1,1,70,0,0
34784,-117.647058823529,4,1,1,70,0,0
34972,-117.647058823529,4,1,1,70,0,0
39097,-100,4,1,1,70,0,0
43034,-100,4,1,1,70,0,0
43409,-100,4,1,1,70,0,0
43597,-100,4,1,1,70,0,0
45284,-100,4,1,1,70,0,0
45472,-100,4,1,1,70,0,0
46503,-100,4,1,1,70,0,0
46597,-100,4,1,1,70,0,0
47909,-100,4,1,1,60,0,0
48097,-100,4,1,1,70,0,0
51284,-100,4,1,1,60,0,0
51472,-100,4,1,1,70,0,0
51752,-100,4,1,1,60,0,0
51847,-100,4,1,1,70,0,0
54097,-83.3333333333333,4,1,1,80,0,1
54284,-83.3333333333333,4,1,1,80,0,1
54378,-83.3333333333333,4,1,1,80,0,1
57284,-83.3333333333333,4,1,1,80,0,1
57472,-83.3333333333333,4,1,1,80,0,1
60284,-83.3333333333333,4,1,1,90,0,1
60472,-83.3333333333333,4,1,1,80,0,1
63284,-83.3333333333333,4,1,1,80,0,1
63378,-83.3333333333333,4,1,1,70,0,1
66284,-83.3333333333333,4,1,1,80,0,1
66378,-83.3333333333333,4,1,1,70,0,1
69284,-83.3333333333333,4,1,1,80,0,1
69378,-83.3333333333333,4,1,1,70,0,1
72097,-83.3333333333333,4,1,1,60,0,0
72284,-83.3333333333333,4,1,1,75,0,0
72378,-83.3333333333333,4,1,1,60,0,0
73784,-83.3333333333333,4,1,1,75,0,0
73972,-83.3333333333333,4,1,1,60,0,0
75097,-83.3333333333333,4,1,1,70,0,1
76784,-83.3333333333333,4,1,1,80,0,1
76878,-83.3333333333333,4,1,1,80,0,1
79690,-83.3333333333333,4,1,1,80,0,1
79784,-83.3333333333333,4,1,1,80,0,1
79971,-83.3333333333333,4,1,1,80,0,1
80159,-83.3333333333333,4,1,1,80,0,1
80533,-83.3333333333333,4,1,1,80,0,1
80628,-83.3333333333333,4,1,1,80,0,1
81284,-83.3333333333333,4,1,1,80,0,1
81472,-83.3333333333333,4,1,1,80,0,1
83909,-83.3333333333333,4,1,1,80,0,1
84097,-83.3333333333333,4,1,1,80,0,1
85409,-83.3333333333333,4,1,1,80,0,1
85597,-83.3333333333333,4,1,1,80,0,1
85971,-83.3333333333333,4,1,1,80,0,1
86159,-83.3333333333333,4,1,1,80,0,1
87097,-83.3333333333333,4,1,1,60,0,0
90097,-83.3333333333333,4,1,1,60,0,0
90190,-83.3333333333333,4,1,1,60,0,0
93847,-83.3333333333333,4,1,1,5,0,0

[Colours]
Combo1 : 168,81,255
Combo2 : 128,128,255
Combo3 : 24,245,157
Combo4 : 255,255,164
Combo5 : 0,170,170
Combo6 : 255,64,64

[HitObjects]
72,126,97,6,0,P|165:110|215:197,1,180,4|2,0:0|0:0,0:0:0:0:
156,291,659,1,8,0:0:0:0:
156,291,847,2,0,L|271:274,1,90,2|0,0:0|0:0,0:0:0:0:
397,261,1222,1,10,0:0:0:0:
397,261,1597,5,2,0:0:0:0:
341,368,1784,1,0,0:0:0:0:
341,368,1972,1,0,0:0:0:0:
346,192,2159,2,0,L|349:100,1,90,8|2,0:0|0:0,0:0:0:0:
214,189,2534,1,0,0:0:0:0:
307,28,2722,2,0,P|350:19|393:31,1,90,10|0,0:0|0:0,0:0:0:0:
214,189,3097,6,0,P|120:167|20:150,1,180,4|2,0:0|0:0,0:0:0:0:
200,10,3659,1,8,0:0:0:0:
200,10,3847,2,0,P|205:66|198:109,1,90,2|0,0:0|0:0,0:0:0:0:
129,250,4222,1,10,0:0:0:0:
129,250,4597,5,2,0:0:0:0:
192,319,4784,2,0,L|288:301,1,90
355,180,5159,1,8,0:0:0:0:
336,380,5347,1,10,0:0:0:0:
449,279,5534,2,0,L|454:329,1,45,0|8,0:0|0:0,0:0:0:0:
355,180,5722,1,10,0:0:0:0:
314,162,5815,1,8,0:0:0:0:
269,167,5909,1,8,0:0:0:0:
233,192,6003,1,8,0:0:0:0:
213,232,6097,6,0,P|204:147|179:47,1,180,4|2,0:0|0:0,0:0:0:0:
352,85,6659,1,8,0:0:0:0:
352,85,6847,2,0,P|405:80|449:54,1,90,2|0,0:0|0:0,0:0:0:0:
204,30,7222,1,10,0:0:0:0:
204,30,7597,5,2,0:0:0:0:
125,134,7784,2,0,P|110:182|122:234,1,90,0|2,0:0|0:0,0:0:0:0:
222,184,8159,1,8,0:0:0:0:
187,289,8347,1,2,0:0:0:0:
187,289,8534,1,0,0:0:0:0:
125,134,8722,2,0,L|23:153,1,90,10|0,0:0|0:0,0:0:0:0:
222,184,9097,6,0,B|311:167|311:167|407:194,1,180,4|10,0:0|0:0,0:0:0:0:
187,289,9659,2,0,P|174:183|142:92,1,180
378,17,10222,6,0,P|451:37|502:141,1,180,12|2,0:0|0:0,0:0:0:0:
452,277,10784,1,0,0:0:0:0:
361,163,10972,1,12,0:0:0:0:
331,350,11159,1,8,0:0:0:0:
331,350,11253,1,8,0:0:0:0:
331,350,11347,5,10,0:0:0:0:
284,129,11534,1,0,0:0:0:0:
382,242,11722,1,10,0:0:0:0:
414,56,11909,1,0,0:0:0:0:
284,129,12097,5,4,0:0:0:0:
256,192,12190,12,4,15097,0:0:0:0:
256,192,15190,12,8,17722,0:0:0:0:
65,312,18097,5,4,0:0:0:0:
25,239,18284,1,0,0:0:0:0:
68,167,18472,1,2,0:0:0:0:
65,312,18659,2,0,P|147:296|207:293,1,135.000005149842,8|0,0:0|0:0,0:0:0:0:
315,331,19222,1,10,0:0:0:0:
315,331,19409,2,0,P|326:295|283:205,1,135.000005149842
198,292,19972,1,2,0:0:0:0:
170,146,20159,6,0,L|157:66,1,67.5000025749208,8|2,0:0|0:0,0:0:0:0:
289,209,20534,1,0,0:0:0:0:
249,87,20722,2,0,P|288:76|320:78,1,67.5000025749208,10|0,0:0|0:0,0:0:0:0:
438,25,21097,6,0,P|420:95|412:171,1,135.000005149842,4|2,0:0|0:0,0:0:0:0:
470,274,21659,2,0,P|424:265|390:265,1,67.5000025749208,8|0,0:0|0:0,0:0:0:0:
321,339,22034,1,0,0:0:0:0:
293,186,22222,2,0,L|307:257,1,67.5000025749208,10|0,0:0|0:0,0:0:0:0:
321,339,22597,5,2,0:0:0:0:
231,311,22784,1,0,0:0:0:0:
153,361,22972,2,0,L|82:350,1,67.5000025749208,10|0,0:0|0:0,0:0:0:0:
24,284,23347,1,0,0:0:0:0:
120,211,23534,5,0,0:0:0:0:
153,361,23722,1,12,0:2:0:0:
113,182,23909,1,0,0:0:0:0:
113,182,24003,1,0,0:0:0:0:
113,182,24097,6,0,P|119:121|134:34,1,135.000005149842,4|2,0:0|0:0,0:0:0:0:
256,136,24659,2,0,P|302:136|338:124,1,67.5000025749208,8|0,0:0|0:0,0:0:0:0:
404,35,25034,1,0,0:0:0:0:
476,125,25222,2,0,L|467:216,1,67.5000025749208,10|0,0:0|0:0,0:0:0:0:
457,340,25597,5,2,0:0:0:0:
457,340,25784,2,0,P|402:327|370:325,1,67.5000025749208,0|2,0:0|0:0,0:0:0:0:
301,377,26159,2,0,P|289:305|331:240,1,135.000005149842,8|0,0:0|0:0,0:0:0:0:
391,325,26722,1,10,0:0:0:0:
379,201,26909,1,0,0:0:0:0:
224,258,27097,6,0,P|163:243|71:229,1,135.000005149842,4|2,0:0|0:0,0:0:0:0:
0,147,27659,2,0,P|66:136|132:120,1,135.000005149842,8|0,0:0|0:0,0:0:0:0:
242,44,28222,2,0,P|265:93|264:116,1,67.5000025749208,10|0,0:0|0:0,0:0:0:0:
224,258,28597,6,0,L|300:242,1,67.5000025749208,4|0,0:2|0:0,0:0:0:0:
384,210,28972,2,0,L|368:286,1,67.5000025749208,8|0,0:0|0:0,0:0:0:0:
343,374,29347,1,2,0:0:0:0:
343,374,29534,1,0,0:0:0:0:
304,168,29722,1,10,0:0:0:0:
224,258,29909,1,8,0:0:0:0:
224,258,30003,1,8,0:0:0:0:
224,258,30097,6,0,L|126:238,1,76.5000014591217,4|0,0:0|0:0,0:0:0:0:
77,227,30378,1,0,0:0:0:0:
77,227,30472,1,10,0:0:0:0:
289,332,30659,2,0,P|318:266|289:189,1,153.000002918243
207,115,31222,1,10,0:0:0:0:
360,80,31409,1,0,0:0:0:0:
360,80,31503,1,8,0:0:0:0:
360,80,31597,5,2,0:0:0:0:
292,192,31784,1,0,0:0:0:0:
277,75,31972,2,0,L|266:0,1,76.5000014591217,10|0,0:0|0:0,0:0:0:0:
190,46,32253,1,8,0:0:0:0:
190,46,32347,2,0,P|157:33|100:33,1,76.5000014591217,2|0,0:0|0:0,0:0:0:0:
3,140,32722,1,10,0:0:0:0:
42,37,32909,1,0,0:0:0:0:
111,123,33097,6,0,L|102:207,1,76.5000014591217,4|0,0:0|0:0,0:0:0:0:
93,274,33378,1,0,0:0:0:0:
93,274,33472,1,10,0:0:0:0:
243,366,33659,2,0,L|234:275,1,76.5000014591217
224,179,34034,1,0,0:0:0:0:
356,327,34222,2,0,L|365:239,1,76.5000014591217,10|0,0:0|0:0,0:0:0:0:
374,174,34503,1,0,0:0:0:0:
374,174,34597,5,2,0:0:0:0:
329,91,34784,1,0,0:0:0:0:
412,0,34972,1,10,0:0:0:0:
329,91,35159,2,0,L|286:85,1,38.2500007295609,0|8,0:0|0:0,0:0:0:0:
206,7,35347,5,10,0:0:0:0:
173,0,35440,1,8,0:0:0:0:
140,5,35534,2,0,P|111:9|94:16,1,38.2500007295609,8|8,0:3|0:3,0:0:0:0:
52,99,35722,5,4,0:3:0:0:
60,114,35815,1,4,0:3:0:0:
65,130,35909,1,2,0:3:0:0:
67,147,36003,1,2,0:3:0:0:
69,164,36097,6,0,P|71:254|65:325,1,153.000002918243,4|10,0:0|0:0,0:0:0:0:
221,143,36659,2,0,P|291:142|336:226,1,153.000002918243
265,334,37222,2,0,L|184:323,1,76.5000014591217,10|0,0:0|0:0,0:0:0:0:
117,317,37503,1,8,0:0:0:0:
117,317,37597,5,2,0:0:0:0:
93,162,37784,1,0,0:0:0:0:
265,334,37972,1,10,0:0:0:0:
221,143,38159,1,0,0:0:0:0:
221,143,38253,1,8,0:0:0:0:
221,143,38347,2,0,L|240:233,1,76.5000014591217,2|0,0:0|0:0,0:0:0:0:
265,334,38722,2,0,P|330:314|354:314,1,76.5000014591217,10|0,0:0|0:0,0:0:0:0:
484,198,39097,6,0,L|376:181,1,90,4|0,0:0|0:0,0:0:0:0:
322,168,39378,1,8,0:0:0:0:
322,168,39472,1,10,0:0:0:0:
179,288,39659,2,0,P|167:240|180:193,1,90
239,84,40034,1,0,0:0:0:0:
77,211,40222,2,0,P|68:154|55:111,1,90,10|0,0:0|0:0,0:0:0:0:
27,51,40503,1,8,0:0:0:0:
27,51,40597,5,4,0:0:0:0:
77,211,40784,1,0,0:0:0:0:
239,84,40972,1,8,0:0:0:0:
359,157,41159,2,0,L|368:110,1,45,0|8,0:0|0:0,0:0:0:0:
298,219,41347,5,0,0:0:0:0:
304,263,41440,1,0,0:0:0:0:
311,307,41534,1,8,0:0:0:0:
353,274,41627,1,8,0:0:0:0:
406,273,41721,1,8,0:3:0:0:
449,303,41815,1,8,0:3:0:0:
466,353,41909,2,0,L|417:350,1,45,2|2,0:3|0:3,0:0:0:0:
223,341,42097,6,0,L|205:230,1,90,12|0,0:0|0:0,0:0:0:0:
190,170,42378,1,8,0:0:0:0:
190,170,42472,1,8,0:0:0:0:
338,233,42659,2,0,P|363:143|308:70,1,180,4|0,0:2|0:0,0:0:0:0:
190,170,43222,2,0,L|98:155,1,90,10|0,0:0|0:0,0:0:0:0:
0,302,43597,5,8,0:0:0:0:
44,294,43690,1,8,0:3:0:0:
88,287,43784,1,8,0:3:0:0:
133,279,43878,1,8,0:0:0:0:
177,272,43972,1,4,0:3:0:0:
318,337,44159,6,0,L|326:276,1,45,2|2,0:3|0:3,0:0:0:0:
384,207,44347,1,0,0:0:0:0:
384,207,44440,1,8,0:0:0:0:
384,207,44534,2,0,L|369:153,1,45,0|8,0:0|0:0,0:0:0:0:
379,65,44722,1,8,0:0:0:0:
379,65,44815,1,8,0:3:0:0:
379,65,44909,2,0,L|317:57,1,45,4|2,0:3|0:3,0:0:0:0:
242,110,45097,6,0,L|146:117,1,90,4|0,0:0|0:0,0:0:0:0:
0,123,45472,1,10,0:0:0:0:
71,210,45659,2,0,P|88:259|77:305,1,90,0|2,0:0|0:0,0:0:0:0:
1,259,46034,1,0,0:0:0:0:
173,300,46222,2,0,L|272:283,1,90,10|0,0:0|0:0,0:0:0:0:
349,346,46503,1,8,0:0:0:0:
349,346,46597,6,8,P|352:321|361:298,3,45,8|8|8|8,0:0|0:3|0:3|0:3,0:0:0:0:
395,238,46972,2,0,P|392:213|381:183,3,45,8|4|4|4,0:0|0:3|0:3|0:3,0:0:0:0:
365,122,47347,2,0,P|367:84|371:69,3,45,8|2|2|2,0:0|0:3|0:3|0:3,0:0:0:0:
427,25,47722,2,4,P|388:6|326:11,1,90,8|0,0:0|0:0,0:2:0:0:
292,155,48097,5,8,0:0:0:0:
100,74,48284,1,8,0:0:0:0:
100,74,48378,1,8,0:0:0:0:
100,74,48472,1,8,0:0:0:0:
208,0,48659,2,0,L|219:180,1,180,4|0,0:0|0:0,0:0:0:0:
97,339,49222,2,0,P|85:292|96:244,1,90,10|0,0:0|0:0,0:0:0:0:
242,296,49597,5,8,0:0:0:0:
286,289,49690,1,0,0:0:0:0:
331,282,49784,1,0,0:0:0:0:
375,276,49878,1,8,0:0:0:0:
420,269,49972,1,0,0:0:0:0:
342,116,50159,6,0,P|314:110|288:114,1,45,8|2,0:0|0:3,0:0:0:0:
228,152,50347,1,0,0:0:0:0:
228,152,50440,2,0,P|185:152|170:147,1,45,10|0,0:2|0:0,3:0:0:0:
104,89,50628,1,10,0:2:0:0:
104,89,50722,6,0,P|34:98|-2:169,1,135,8|2,0:0|0:3,0:0:0:0:
0,226,51097,6,0,L|102:213,1,90,4|0,0:0|0:0,0:0:0:0:
228,152,51472,1,10,0:0:0:0:
186,314,51659,2,0,L|181:262,1,45
258,352,51847,2,0,P|299:346|358:358,1,90,2|0,0:0|0:0,0:0:0:0:
451,384,52222,2,0,L|462:289,1,90,10|0,0:0|0:0,0:0:0:0:
473,224,52503,1,8,0:0:0:0:
473,224,52597,1,4,0:2:0:0:
256,192,52690,12,8,53722,0:0:0:0:
215,81,54097,6,0,P|163:66|102:82,1,107.999996704102,4|0,0:0|0:0,0:0:0:0:
47,122,54378,1,0,0:0:0:0:
47,122,54472,1,10,0:0:0:0:
143,302,54659,2,0,P|209:287|258:283,1,107.999996704102,8|2,0:3|0:0,0:0:0:0:
340,190,55034,1,2,0:3:0:0:
184,208,55222,1,12,0:2:0:0:
371,288,55409,1,0,0:0:0:0:
371,288,55503,1,8,0:0:0:0:
371,288,55597,5,2,0:0:0:0:
320,110,55784,1,0,0:0:0:0:
265,354,55972,1,10,0:0:0:0:
184,208,56159,5,0,0:0:0:0:
184,208,56252,1,8,0:0:0:0:
184,208,56347,1,2,0:0:0:0:
135,344,56534,1,8,0:3:0:0:
196,130,56722,2,0,P|198:69|171:16,1,107.999996704102,10|2,0:0|0:3,0:0:0:0:
36,231,57097,6,0,L|52:352,1,107.999996704102,4|0,0:0|0:0,0:0:0:0:
84,100,57472,1,10,0:0:0:0:
160,229,57659,2,0,P|222:229|276:201,1,107.999996704102,8|2,0:3|0:0,0:0:0:0:
335,49,58034,2,0,P|281:47|231:67,1,107.999996704102,2|10,0:3|0:0,0:0:0:0:
395,224,58409,1,0,0:0:0:0:
395,224,58503,1,8,0:0:0:0:
395,224,58597,6,0,L|414:344,1,107.999996704102,4|0,0:2|0:0,0:0:0:0:
442,144,58972,1,10,0:0:0:0:
288,261,59159,2,0,L|278:197,1,53.9999983520508,0|12,0:0|0:2,0:0:0:0:
221,321,59347,5,0,0:0:0:0:
173,296,59440,1,8,0:0:0:0:
120,298,59534,1,8,0:3:0:0:
74,325,59628,1,8,0:3:0:0:
47,372,59722,5,4,0:3:0:0:
43,331,59815,1,4,0:3:0:0:
38,291,59909,1,2,0:3:0:0:
33,251,60003,1,2,0:3:0:0:
29,211,60097,6,0,P|78:179|147:190,1,107.999996704102,4|0,0:0|0:0,0:0:0:0:
194,223,60378,1,0,0:0:0:0:
194,223,60472,1,10,0:0:0:0:
41,78,60659,2,0,L|157:66,1,107.999996704102,8|2,0:3|0:0,0:0:0:0:
338,53,61034,1,2,0:3:0:0:
290,248,61222,1,8,0:0:0:0:
236,35,61409,1,0,0:0:0:0:
236,35,61503,1,8,0:0:0:0:
236,35,61597,6,0,L|265:153,1,107.999996704102,4|0,0:0|0:0,0:0:0:0:
290,248,61972,2,0,P|359:216|414:222,1,107.999996704102,10|8,0:0|0:3,0:0:0:0:
455,277,62253,1,8,0:0:0:0:
455,277,62347,2,0,L|447:398,1,107.999996704102,2|2,0:0|0:3,0:0:0:0:
290,248,62722,2,0,L|282:140,1,107.999996704102,10|0,0:0|0:0,0:0:0:0:
297,333,63097,5,4,0:0:0:0:
148,182,63284,1,0,0:0:0:0:
148,182,63378,1,0,0:0:0:0:
148,182,63472,1,10,0:0:0:0:
330,46,63659,2,0,B|226:4|222:113|103:34,1,215.999993408203,4|0,0:2|0:0,0:0:0:0:
67,280,64222,2,0,P|55:212|38:154,1,107.999996704102,10|0,0:0|0:0,0:0:0:0:
148,182,64503,1,8,0:0:0:0:
148,182,64597,1,8,0:0:0:0:
148,182,64690,6,0,L|209:169,1,53.9999983520508,8|8,0:0|0:3,0:0:0:0:
263,127,64878,2,0,L|304:173,1,53.9999983520508,8|4,0:0|0:3,0:0:0:0:
368,199,65065,2,0,L|348:258,1,53.9999983520508,8|2,0:0|0:3,0:0:0:0:
358,325,65253,2,0,L|296:338,1,53.9999983520508,8|0,0:0|0:0,0:0:0:0:
243,379,65440,1,8,0:3:0:0:
228,384,65534,5,8,0:3:0:0:
197,339,65627,1,4,0:3:0:0:
149,318,65721,1,4,0:3:0:0:
96,326,65815,1,2,0:3:0:0:
56,361,65909,1,2,0:3:0:0:
3,154,66097,6,0,P|72:146|124:125,1,107.999996704102,4|0,0:0|0:0,0:0:0:0:
157,74,66378,1,0,0:0:0:0:
157,74,66472,1,10,0:0:0:0:
296,239,66659,2,0,L|308:121,1,107.999996704102,8|2,0:3|0:0,0:0:0:0:
187,291,67034,1,2,0:3:0:0:
157,74,67222,1,12,0:2:0:0:
306,131,67409,1,0,0:0:0:0:
306,131,67503,1,8,0:0:0:0:
306,131,67597,5,2,0:0:0:0:
87,219,67784,1,0,0:0:0:0:
364,203,67972,1,10,0:0:0:0:
180,155,68159,1,0,0:0:0:0:
180,155,68253,1,8,0:0:0:0:
180,155,68347,6,0,L|195:283,1,107.999996704102,2|8,0:0|0:3,0:0:0:0:
289,354,68722,1,10,0:0:0:0:
364,203,68909,1,2,0:3:0:0:
180,155,69097,6,0,P|172:101|200:50,1,107.999996704102,4|0,0:0|0:0,0:0:0:0:
271,34,69378,1,0,0:0:0:0:
271,34,69472,1,10,0:0:0:0:
64,110,69659,2,0,L|84:223,1,107.999996704102,8|2,0:3|0:0,0:0:0:0:
112,372,70034,1,2,0:3:0:0:
187,150,70222,1,10,0:0:0:0:
326,237,70409,1,0,0:0:0:0:
326,237,70503,1,8,0:0:0:0:
326,237,70597,6,0,P|393:234|438:207,1,107.999996704102,4|0,0:2|0:0,0:0:0:0:
245,59,70972,2,0,L|127:78,1,107.999996704102,10|0,0:0|0:0,0:0:0:0:
58,59,71253,1,8,0:0:0:0:
58,59,71347,6,0,P|62:101|75:127,1,53.9999983520508,8|8,0:0|0:0,0:0:0:0:
101,179,71534,2,0,P|113:216|111:245,1,53.9999983520508,4|4,0:3|0:3,0:0:0:0:
47,346,71722,1,8,0:0:0:0:
88,312,71815,1,8,0:0:0:0:
141,308,71909,1,8,0:0:0:0:
187,335,72003,1,8,0:0:0:0:
210,384,72097,6,0,L|323:368,1,107.999996704102,4|0,0:0|0:0,0:0:0:0:
393,356,72378,1,0,0:0:0:0:
393,356,72472,1,10,0:0:0:0:
512,182,72659,2,0,P|392:186|348:288,1,215.999993408203,8|2,0:3|0:3,0:0:0:0:
252,44,73222,2,0,P|266:115|265:155,1,107.999996704102,10|0,0:0|0:0,0:0:0:0:
215,213,73503,1,8,0:0:0:0:
215,213,73597,6,0,L|83:191,1,107.999996704102,4|0,0:0|0:0,0:0:0:0:
265,150,73972,1,10,0:0:0:0:
54,268,74159,2,0,P|26:171|106:107,1,215.999993408203,8|2,0:3|0:3,0:0:0:0:
265,150,74722,2,0,L|377:132,1,107.999996704102,12|0,0:2|0:0,0:0:0:0:
161,286,75097,6,0,L|49:268,1,107.999996704102,4|0,0:0|0:0,0:0:0:0:
10,203,75378,1,0,0:0:0:0:
10,203,75472,1,10,0:0:0:0:
249,237,75659,2,0,P|257:294|237:350,1,107.999996704102,8|2,0:3|0:0,0:0:0:0:
135,189,76034,1,2,0:3:0:0:
347,271,76222,2,0,P|350:233|364:161,1,107.999996704102,10|0,0:0|0:0,0:0:0:0:
427,119,76503,1,8,0:0:0:0:
427,119,76597,6,0,P|389:93|324:99,1,107.999996704102,4|0,0:2|0:0,0:0:0:0:
268,139,76878,1,0,0:0:0:0:
268,139,76972,1,10,0:0:0:0:
128,66,77159,2,0,L|139:5,1,53.9999983520508,2|2,0:3|0:3,0:0:0:0:
61,123,77347,5,8,0:0:0:0:
69,176,77440,1,8,0:0:0:0:
78,229,77534,2,0,L|91:295,1,53.9999983520508,8|8,0:3|0:3,0:0:0:0:
61,378,77722,1,8,0:0:0:0:
91,334,77815,1,8,0:0:0:0:
139,311,77909,1,8,0:0:0:0:
192,316,78003,1,8,0:0:0:0:
236,347,78097,5,4,0:0:0:0:
160,114,78284,1,0,0:0:0:0:
160,114,78378,1,8,0:0:0:0:
160,114,78472,1,8,0:0:0:0:
332,236,78659,2,0,P|403:192|344:78,1,215.999993408203,4|0,0:2|0:0,0:0:0:0:
160,114,79222,2,0,L|27:86,1,107.999996704102,10|0,0:0|0:0,0:0:0:0:
269,81,79597,6,0,L|258:134,1,53.9999983520508,8|8,0:0|0:0,0:0:0:0:
303,198,79784,1,0,0:0:0:0:
303,198,79878,2,0,L|251:214,1,53.9999983520508,8|0,0:0|3:0,0:0:0:0:
202,334,80159,2,0,P|134:314|95:323,1,107.999996704102,8|0,0:0|0:0,0:0:0:0:
30,366,80440,6,0,P|17:328|24:292,1,53.9999983520508,8|8,0:0|0:0,0:0:0:0:
57,248,80628,1,8,0:0:0:0:
57,248,80722,2,0,P|62:213|37:141,1,107.999996704102,8|2,0:0|0:3,0:0:0:0:
193,27,81097,6,0,L|178:151,1,107.999996704102,4|0,0:0|0:0,0:0:0:0:
290,296,81472,1,10,0:0:0:0:
153,208,81659,2,0,P|85:224|50:255,1,107.999996704102,8|2,0:3|0:0,0:0:0:0:
137,380,82034,1,2,0:3:0:0:
290,296,82222,2,0,L|398:309,1,107.999996704102,10|0,0:0|0:0,0:0:0:0:
462,359,82503,1,8,0:0:0:0:
462,359,82597,6,0,P|472:336|475:296,3,53.9999983520508,8|8|8|8,0:0|0:3|0:3|0:3,0:0:0:0:
449,239,82972,2,0,P|445:214|452:180,3,53.9999983520508,8|4|4|4,0:0|0:3|0:3|0:3,0:0:0:0:
496,119,83347,1,8,0:0:0:0:
445,101,83440,1,2,0:3:0:0:
396,119,83534,1,2,0:3:0:0:
368,164,83628,1,2,0:3:0:0:
374,216,83722,2,0,L|265:205,1,107.999996704102,12|0,0:2|0:0,0:0:0:0:
97,189,84097,5,4,0:0:0:0:
287,302,84284,1,0,0:0:0:0:
287,302,84378,1,8,0:0:0:0:
287,302,84472,1,8,0:0:0:0:
146,112,84659,2,0,P|72:102|8:214,1,215.999993408203,4|0,0:2|0:0,0:0:0:0:
240,143,85222,2,0,L|225:27,1,107.999996704102,10|0,0:0|0:0,0:0:0:0:
179,199,85597,5,10,0:0:0:0:
225,224,85690,1,4,0:3:0:0:
278,216,85784,1,4,0:3:0:0:
316,179,85878,2,0,P|326:145|320:110,1,53.9999983520508,12|0,0:2|0:0,0:0:0:0:
395,34,86159,2,0,P|366:10|284:16,1,107.999996704102,8|4,0:0|0:3,0:0:0:0:
230,45,86440,6,0,P|184:46|164:38,1,53.9999983520508,8|4,0:0|0:3,0:0:0:0:
110,2,86628,1,8,0:0:0:0:
110,2,86722,2,0,P|99:39|105:73,2,53.9999983520508,8|2|2,0:0|0:3|0:3,0:0:0:0:
23,248,87097,6,0,P|77:228|152:224,1,107.999996704102,4|0,0:0|0:0,0:0:0:0:
328,244,87472,1,10,0:0:0:0:
226,348,87659,2,0,P|217:283|205:223,1,107.999996704102,8|0,0:3|0:0,0:0:0:0:
170,92,88034,1,2,0:3:0:0:
328,244,88222,6,0,P|394:271|460:148,1,215.999993408203,12|2,0:2|0:0,0:0:0:0:
338,97,88784,1,8,0:3:0:0:
209,241,88972,2,0,L|92:221,1,107.999996704102,10|2,0:0|0:3,0:0:0:0:
62,93,89347,5,10,0:0:0:0:
287,156,89534,1,10,0:0:0:0:
120,319,89722,1,10,0:0:0:0:
186,84,89909,1,8,0:0:0:0:
209,241,90097,5,4,0:0:0:0:
256,192,90190,12,0,93847,2:0:0:0:
