osu file format v14

[General]
AudioFilename: audio.mp3
AudioLeadIn: 0
PreviewTime: 53909
Countdown: 0
SampleSet: Normal
StackLeniency: 0.4
Mode: 0
LetterboxInBreaks: 0
WidescreenStoryboard: 1

[Editor]
DistanceSpacing: 1
BeatDivisor: 4
GridSize: 16
TimelineZoom: 0.9999996

[Metadata]
Title:Ame no Oto ga Niji o Yobu
TitleUnicode:雨の音が虹を呼ぶ
Artist:Barbarian On The Groove feat. Shimotsuki Haruka
ArtistUnicode:Barbarian On The Groove feat. 霜月はるか
Creator:Shiyzo
Version:Easy
Source:CROSSxBEATS
Tags:japanese j-pop j-rock rock pop videogame crossbeats REV. SUNRISE capcom XzeniFX m980 Fix yukic foss
BeatmapID:2493205
BeatmapSetID:977633

[Difficulty]
HPDrainRate:2
CircleSize:2.4
OverallDifficulty:3
ApproachRate:4
SliderMultiplier:1
SliderTickRate:1

[Events]
//Background and Video events
0,0,"rainbowcoverfinal_waifu2x_art_noise3_scale_tta_1.jpg",0,0
//Break Periods
//Storyboard Layer 0 (Background)
//Storyboard Layer 1 (Fail)
//Storyboard Layer 2 (Pass)
//Storyboard Layer 3 (Foreground)
//Storyboard Layer 4 (Overlay)
//Storyboard Sound Samples

[TimingPoints]
97,375,4,1,1,60,1,0
1972,-100,4,1,1,70,0,0
2347,-100,4,1,1,60,0,0
4972,-100,4,1,1,70,0,0
5347,-100,4,1,1,60,0,0
9847,-100,4,1,1,70,0,0
10222,-100,4,1,1,60,0,0
16597,-100,4,1,1,70,0,0
18097,-100,4,1,1,60,0,0
24097,-100,4,1,1,60,0,0
30097,-100,4,1,1,70,0,0
35159,-100,4,1,1,60,0,0
42847,-100,4,1,1,70,0,0
54097,-90.9090909090909,4,1,1,80,0,1
72097,-90.9090909090909,4,1,1,60,0,0
75097,-90.9090909090909,4,1,1,80,0,1
81097,-90.9090909090909,4,1,1,60,0,0
85972,-90.9090909090909,4,1,1,70,0,0
86347,-90.9090909090909,4,1,1,60,0,0
87847,-90.9090909090909,4,1,1,70,0,0
88222,-90.9090909090909,4,1,1,60,0,0
90097,-90.9090909090909,4,1,1,60,0,0
90190,-90.9090909090909,4,1,1,70,0,0
93472,-90.9090909090909,4,1,1,5,0,0

[Colours]
Combo1 : 168,81,255
Combo2 : 20,120,131
Combo3 : 24,245,157
Combo4 : 255,255,164
Combo5 : 0,170,170
Combo6 : 255,64,64

[HitObjects]
381,263,97,6,0,P|341:281|160:246,1,200,4|2,0:0|0:0,0:0:0:0:
106,210,1222,1,10,0:0:0:0:
102,113,1597,2,0,P|151:121|186:157,1,100,2|0,0:0|0:0,0:0:0:0:
283,138,2347,1,2,0:0:0:0:
383,311,3097,6,0,P|386:271|400:90,1,200,4|2,0:0|0:0,0:0:0:0:
411,12,4222,1,10,0:0:0:0:
313,33,4597,2,0,B|276:46|276:46|263:106,1,100,2|0,0:0|0:0,0:0:0:0:
246,204,5347,1,2,0:0:0:0:
81,90,6097,6,0,P|58:151|133:264,1,200,4|2,0:0|0:0,0:0:0:0:
177,176,7222,1,10,0:0:0:0:
276,183,7597,2,0,B|305:214|305:214|265:252|262:336|329:365,1,200,2|2,0:0|0:0,0:0:0:0:
380,283,8722,1,10,0:0:0:0:
450,352,9097,6,0,P|476:260|413:189,1,200,4|0,0:0|0:0,0:0:0:0:
380,283,10222,2,0,L|267:291,2,100,12|2|12,0:0|0:0|0:0,0:0:0:0:
479,275,11347,1,10,0:0:0:0:
484,175,11722,1,10,0:0:0:0:
425,93,12097,5,4,0:0:0:0:
256,192,12284,12,4,15097,0:0:0:0:
113,48,17722,5,8,0:0:0:0:
78,141,18097,6,0,P|83:213|144:253,1,150,4|8,0:0|0:0,0:0:0:0:
271,178,19221,1,10,0:0:0:0:
334,100,19597,2,0,P|269:79|191:118,1,150,2|8,0:0|0:0,0:0:0:0:
91,4,20722,1,10,0:0:0:0:
24,78,21097,6,0,B|0:157|47:135|22:225,1,150,4|8,0:0|0:0,0:0:0:0:
94,356,22222,1,10,0:0:0:0:
153,275,22597,2,0,P|221:248|292:269,2,150,2|0|12,0:0|0:0|0:2,0:0:0:0:
105,186,24097,1,4,0:0:0:0:
251,156,24659,6,0,P|231:100|257:16,1,150,8|10,0:0|0:0,0:0:0:0:
326,88,25597,2,0,P|346:144|320:228,1,150,2|8,0:0|0:0,0:0:0:0:
232,349,26722,1,10,0:0:0:0:
158,280,27097,6,0,L|9:303,1,150,4|8,0:0|0:0,0:0:0:0:
82,172,28222,1,10,0:0:0:0:
18,94,28597,2,0,P|62:72|111:73,1,100,4|8,0:2|0:0,0:0:0:0:
209,51,29347,2,0,L|320:23,1,100,2|10,0:0|0:0,0:0:0:0:
389,81,30097,6,0,B|430:105|430:105|404:207,1,150,4|0,0:0|0:0,0:0:0:0:
378,352,31222,2,0,P|325:365|250:333,1,100,8|0,0:0|0:0,0:0:0:0:
181,360,31972,2,8,P|196:307|261:258,1,100,8|0,0:0|0:0,0:3:0:0:
169,191,32722,1,8,0:0:0:0:
207,101,33097,6,0,P|250:59|351:67,2,150,4|0|10,0:0|0:0|0:0,0:0:0:0:
169,194,34597,2,0,P|241:198|296:150,2,150,2|0|4,0:0|0:0|0:3,0:0:0:0:
71,171,36097,6,0,L|79:323,1,150,4|0,0:0|0:0,0:0:0:0:
221,366,37222,1,10,0:0:0:0:
320,357,37597,2,0,P|300:304|225:272,1,100,2|10,0:0|0:0,0:0:0:0:
175,237,38347,2,0,L|240:138,1,100,2|10,0:0|0:0,0:0:0:0:
328,171,39097,6,0,P|325:117|247:58,1,150,4|0,0:0|0:0,0:0:0:0:
111,13,40222,1,10,0:0:0:0:
64,101,40597,2,0,P|111:114|159:101,1,100,4|8,0:0|0:0,0:0:0:0:
255,59,41347,1,0,0:0:0:0:
454,74,42097,6,0,L|312:150,1,150,12|4,0:0|0:2,0:0:0:0:
394,278,43222,1,10,0:0:0:0:
295,255,43597,2,8,B|271:314|271:314|175:261|160:353|62:281|47:237,1,300
21,156,45097,6,0,P|99:157|158:224,1,150,4|0,0:0|0:0,0:0:0:0:
254,321,46222,1,10,0:0:0:0:
353,329,46597,2,0,P|411:283|363:91,1,300,8|8,0:0|0:0,0:0:0:0:
262,80,48097,1,8,0:0:0:0:
336,209,48659,6,0,B|264:225|264:225|178:200,1,150,4|10,0:0|0:0,0:0:0:0:
90,197,49597,2,0,B|107:274|107:274|188:310,1,150,8|0,0:0|0:0,0:0:0:0:
313,351,50722,1,8,0:0:0:0:
256,192,51097,12,4,52597,0:2:0:0:
0,197,54097,6,0,P|70:183|172:283,1,220.000006713867,4|2,0:0|0:0,0:0:0:0:
249,354,55222,1,10,0:0:0:0:
352,316,55597,2,0,P|404:328|453:305,1,110.000003356934,2|10,0:0|0:0,0:0:0:0:
507,209,56347,1,10,0:0:0:0:
406,163,56722,1,0,0:0:0:0:
388,54,57097,6,0,B|307:40|307:40|261:75|261:75|157:47,1,220.000006713867,4|2,0:0|0:0,0:0:0:0:
85,103,58222,1,10,0:0:0:0:
182,153,58597,2,0,L|288:183,1,110.000003356934,4|10,0:2|0:0,0:0:0:0:
294,72,59347,1,8,0:0:0:0:
183,54,59722,1,4,3:0:0:0:
72,38,60097,6,0,B|34:92|70:172|69:115|114:192|71:246,1,220.000006713867,4|2,0:0|0:0,0:0:0:0:
19,342,61222,1,8,0:0:0:0:
125,339,61597,2,0,L|250:368,2,110.000003356934,4|10|2,0:0|0:0|0:0,0:0:0:0:
160,234,62722,1,10,0:0:0:0:
245,165,63097,5,4,0:0:0:0:
332,25,63659,2,0,P|443:82|470:117,1,165.000005035401,4|10,0:2|0:0,0:0:0:0:
468,221,64597,2,0,P|434:263|176:355,1,330.000010070801,8|4,0:0|0:3,3:0:0:0:
230,255,66097,6,0,P|114:255|22:212,1,220.000006713867,4|2,0:0|0:0,0:0:0:0:
66,111,67222,1,10,0:0:0:0:
167,154,67597,2,0,L|182:32,1,110.000003356934,10|0,0:0|0:0,0:0:0:0:
283,6,68347,1,2,0:0:0:0:
319,101,68722,1,10,0:0:0:0:
416,49,69097,6,0,B|454:103|418:183|419:126|374:203|417:257,1,220.000006713867,4|2,0:0|0:0,0:0:0:0:
451,360,70222,1,10,0:0:0:0:
344,333,70597,2,0,L|218:310,1,110.000003356934,4|10,0:2|0:0,0:0:0:0:
130,345,71347,2,0,L|21:364,1,110.000003356934,8|8,0:0|0:0,0:0:0:0:
46,256,72097,6,0,B|111:244|142:162|102:203|125:117|193:109,1,220.000006713867,4|2,0:0|0:0,0:0:0:0:
270,32,73222,1,8,0:0:0:0:
373,69,73597,2,0,P|377:132|260:242,1,220.000006713867
168,215,74722,1,8,0:0:0:0:
60,239,75097,6,0,P|108:310|187:326,2,165.000005035401,4|8|10,0:0|0:3|0:0,0:0:0:0:
6,142,76597,2,0,L|165:83,1,165.000005035401,4|2,0:2|0:3,0:0:0:0:
316,28,77722,1,8,0:0:0:0:
256,192,78097,12,4,81097,0:0:0:0:
0,350,82597,5,8,0:0:0:0:
56,256,82972,1,8,0:0:0:0:
109,351,83347,1,8,0:0:0:0:
165,257,83722,1,12,0:2:0:0:
221,351,84097,1,8,0:0:0:0:
384,369,84659,6,0,P|398:274|428:186,1,165.000005035401,4|10,0:2|0:0,0:0:0:0:
365,112,85597,1,10,0:0:0:0:
275,48,85972,1,0,0:0:0:0:
185,111,86347,1,4,0:3:0:0:
273,176,86722,1,8,0:0:0:0:
365,112,87097,6,0,B|385:131|423:183|369:265,1,165.000005035401,4|8,0:0|0:3,0:0:0:0:
239,362,88222,2,0,L|86:379,1,110.000003356934,8|8,0:0|0:3,0:0:0:0:
24,341,88972,1,8,0:0:0:0:
47,233,89347,2,0,B|35:174|76:175|46:100,1,110.000003356934,8|2,0:0|0:3,0:0:0:0:
13,22,90097,5,4,0:0:0:0:
256,192,90284,12,0,93847,2:0:0:0:
