osu file format v14

[General]
AudioFilename: audio.ogg
AudioLeadIn: 0
PreviewTime:56486
Countdown: 0
SampleSet: Soft
StackLeniency: 0.7
Mode: 0
LetterboxInBreaks: 0
WidescreenStoryboard: 1

[Editor]
Bookmarks: 32320,43153,66986,77653,88320
DistanceSpacing: 0.9
BeatDivisor: 4
GridSize: 8
TimelineZoom: 2.4

[Metadata]
Title:Guruppo (Short Ver.)
TitleUnicode:グルッポ (Short Ver.)
Artist:Barbarian On The Groove feat. Chata
ArtistUnicode:Barbarian On The Groove feat. 茶太
Creator:Suzuaki_Rin
Version:Normal
Source:Like a Butler
Tags:eroge visual novel video game galgame vn op opening AXL アクセル ライク ア バトラー bassy japanese jpop j pop
BeatmapID:3744486
BeatmapSetID:1824682

[Difficulty]
HPDrainRate:3
CircleSize:3
OverallDifficulty:4
ApproachRate:5.3
SliderMultiplier:1.1
SliderTickRate:1

[Events]
//Background and Video events
0,0,"Konachan.com - 45875 sample.jpg",0,0
//Break Periods
//Storyboard Layer 0 (Background)
//Storyboard Layer 1 (Fail)
//Storyboard Layer 2 (Pass)
//Storyboard Layer 3 (Foreground)
//Storyboard Layer 4 (Overlay)
//Storyboard Sound Samples

[TimingPoints]
487,333.333333333333,4,2,1,55,1,0
487,-111.111111111111,4,2,1,55,0,0
9820,-111.111111111111,4,2,1,60,0,0
10986,-100,4,2,1,70,0,0
21653,-111.111111111111,4,2,1,60,0,0
40320,-100,4,2,1,70,0,0
43153,-100,4,2,1,60,0,0
50986,-100,4,2,1,70,0,0
56486,-90.9090909090909,4,2,1,80,0,1
65653,-90.9090909090909,4,2,1,75,0,0
66986,-90.9090909090909,4,2,1,80,0,1
77653,-90.9090909090909,4,2,1,75,0,0
82986,-90.9090909090909,4,2,1,80,0,1
88320,-100,4,2,1,70,0,0
93653,-100,4,2,2,70,0,0
97986,-100,4,2,3,70,0,0
98736,-100,4,2,1,70,0,0

[Colours]
Combo1 : 237,213,114
Combo2 : 236,94,136
Combo3 : 117,74,230
Combo4 : 233,142,82

[HitObjects]
247,78,487,6,0,P|197:82|146:43,2,98.9999969787599,6|2|2,3:2|0:2|0:2,0:0:0:0:
288,51,1320,1,2,0:2:0:0:
361,98,1653,2,0,B|422:104|400:67|458:73,2,98.9999969787599,2|2|2,0:2|0:2|0:2,0:0:0:0:
336,134,2486,1,2,0:2:0:0:
299,215,2820,1,2,0:2:0:0:
210,208,3153,6,0,P|200:268|229:312,2,98.9999969787599,6|2|2,3:2|0:2|0:2,0:0:0:0:
222,165,3986,1,2,0:2:0:0:
179,86,4320,2,0,L|65:98,2,98.9999969787599,2|2|2,0:2|0:2|0:2,0:0:0:0:
198,46,5153,1,2,0:2:0:0:
289,66,5486,1,2,0:2:0:0:
376,83,5820,6,0,P|413:51|469:66,2,98.9999969787599,6|2|2,3:2|0:2|0:2,0:0:0:0:
367,126,6653,1,2,0:2:0:0:
351,213,6986,2,0,L|368:332,2,98.9999969787599,2|2|2,0:2|0:2|0:2,0:0:0:0:
309,196,7820,1,2,0:2:0:0:
277,112,8153,1,2,0:2:0:0:
237,32,8486,6,0,P|185:22|134:57,1,98.9999969787599,6|2,3:2|0:2,0:0:0:0:
79,102,9153,2,0,L|99:220,1,98.9999969787599,6|0,3:2|0:0,0:0:0:0:
97,288,9820,1,0,1:2:0:0:
173,334,10153,1,0,1:2:0:0:
245,282,10486,2,0,L|230:215,1,49.4999984893799,0|0,1:2|1:2,0:0:0:0:
225,194,10820,1,2,1:2:0:0:
225,194,10986,6,0,P|214:138|272:98,1,110,6|2,3:2|3:2,0:0:0:0:
295,75,11486,1,10,1:2:0:0:
395,30,11820,1,10,3:2:0:0:
461,115,12153,2,0,L|458:184,1,55,10|2,1:2|0:2,0:0:0:0:
449,224,12486,2,0,B|394:237|432:274|371:297,1,110,10|8,3:2|1:2,0:0:0:0:
325,322,12986,1,2,0:2:0:0:
216,335,13320,2,0,L|149:327,1,55,2|10,3:2|1:2,0:0:0:0:
109,307,13653,6,0,P|92:251|132:196,1,110,6|0,3:2|3:2,0:0:0:0:
159,175,14153,1,8,1:2:0:0:
255,227,14486,1,8,3:2:0:0:
357,181,14820,1,8,1:2:0:0:
357,181,14986,2,0,P|368:130|321:92,1,110,2|2,0:2|3:2,0:0:0:0:
275,98,15486,2,0,P|245:100|199:80,1,55,10|2,1:2|0:2,0:0:0:0:
178,57,15820,1,10,3:2:0:0:
74,38,16153,1,10,1:2:0:0:
74,38,16320,6,0,P|38:66|42:128,1,110,6|0,3:2|3:2,0:0:0:0:
62,177,16820,1,10,1:2:0:0:
120,269,17153,1,10,3:2:0:0:
229,262,17486,2,0,L|304:273,1,55,10|2,1:2|0:2,0:0:0:0:
326,304,17820,2,0,B|390:337|447:274,1,110,10|8,3:2|1:2,0:0:0:0:
467,253,18320,1,2,0:2:0:0:
480,143,18653,2,0,L|411:132,1,55,2|10,3:2|1:2,0:0:0:0:
381,101,18986,6,0,P|322:103|292:159,1,110,6|0,3:2|3:2,0:0:0:0:
281,194,19486,1,8,1:2:0:0:
261,302,19820,1,8,3:2:0:0:
170,361,20153,1,8,1:2:0:0:
170,361,20320,2,0,P|125:356|107:294,1,110,2|2,3:2|3:2,0:0:0:0:
118,247,20820,1,10,1:2:0:0:
188,163,21153,2,0,L|254:180,1,55,10|2,1:2|0:2,0:0:0:0:
297,198,21486,1,10,1:2:0:0:
297,198,21653,5,6,3:2:0:0:
388,319,22153,2,0,P|443:297|446:247,1,98.9999969787599,2|2,1:2|3:2,0:0:0:0:
421,183,22820,1,2,1:2:0:0:
421,183,22986,2,0,L|434:64,1,98.9999969787599,2|0,0:2|0:2,0:0:0:0:
415,42,23486,1,2,1:2:0:0:
326,32,23820,2,0,P|292:72|304:129,1,98.9999969787599,2|2,3:2|1:2,0:0:0:0:
280,203,24486,6,0,P|233:204|193:165,1,98.9999969787599,2|2,3:2|1:2,0:0:0:0:
180,129,24986,1,2,0:2:0:0:
182,39,25320,2,0,P|131:14|74:34,1,98.9999969787599,0|0,3:2|0:2,0:0:0:0:
57,50,25820,2,0,L|39:167,1,98.9999969787599,0|0,3:2|1:2,0:0:0:0:
32,191,26320,1,0,0:2:0:0:
47,278,26653,2,0,P|11:282|-22:294,2,49.4999984893799,2|2|2,3:2|1:2|0:2,0:2:0:0:
87,296,27153,6,0,P|140:273|135:217,1,98.9999969787599,2|2,3:2|1:2,0:0:0:0:
129,195,27653,1,2,0:2:0:0:
168,115,27986,2,0,P|204:82|255:98,1,98.9999969787599,0|2,3:2|0:2,0:0:0:0:
284,119,28486,2,0,L|260:236,1,98.9999969787599,2|2,3:2|1:2,0:0:0:0:
287,253,28986,1,2,0:2:0:0:
368,290,29320,2,0,P|417:260|418:204,1,98.9999969787599,2|0,3:2|0:2,0:0:0:0:
430,178,29820,5,2,3:2:0:0:
444,93,30153,1,2,1:2:0:0:
444,93,30320,2,0,P|393:94|337:62,1,98.9999969787599,2|0,0:2|3:2,0:0:0:0:
328,35,30820,1,0,1:0:0:0:
253,81,31153,1,0,3:2:0:0:
170,48,31486,1,0,1:2:0:0:
84,75,31820,2,0,L|77:23,2,49.4999984893799,0|8|0,1:2|1:2|0:0,0:0:0:0:
55,109,32320,5,4,1:2:0:0:
16,236,32820,2,0,P|60:281|112:272,1,98.9999969787599,2|2,1:2|3:2,0:0:0:0:
183,262,33487,1,2,1:2:0:0:
183,262,33653,2,0,L|298:249,1,98.9999969787599,2|0,0:2|0:2,0:0:0:0:
315,280,34153,1,2,1:2:0:0:
390,327,34486,2,0,P|429:299|433:234,1,98.9999969787599,2|2,3:2|1:2,0:0:0:0:
466,166,35153,6,0,P|423:129|367:147,1,98.9999969787599,2|2,3:2|1:2,0:0:0:0:
350,163,35653,1,2,0:2:0:0:
293,232,35987,2,0,L|188:219,1,98.9999969787599,2|2,3:2|0:2,0:0:0:0:
150,218,36486,1,2,3:2:0:0:
90,151,36820,1,2,1:2:0:0:
143,81,37153,1,2,3:2:0:0:
143,81,37320,2,0,L|264:93,1,98.9999969787599,2|2,3:2|0:2,0:0:0:0:
286,90,37820,5,2,3:2:0:0:
351,150,38153,1,2,1:2:0:0:
331,236,38486,2,0,P|284:227|253:171,1,98.9999969787599,2|2,3:2|1:2,0:0:0:0:
212,173,38986,2,0,L|92:159,1,98.9999969787599,2|2,0:2|0:2,0:0:0:0:
69,160,39486,2,0,P|59:189|67:226,2,49.4999984893799,2|2|2,1:2|0:2|3:2,0:0:0:0:
75,74,40153,1,2,1:2:0:0:
75,74,40320,6,0,P|131:70|185:36,1,110,6|0,3:2|3:2,0:0:0:0:
218,16,40820,1,10,1:2:0:0:
315,59,41153,1,10,3:2:0:0:
315,59,41320,2,0,L|301:134,1,55,2|8,3:2|0:0,0:0:0:0:
303,162,41653,2,0,P|265:212|288:264,2,110,2|2|2,3:2|3:2|3:2,0:0:0:0:
342,192,42486,2,0,L|414:208,1,55,10|2,1:2|3:2,0:0:0:0:
443,188,42820,1,10,1:2:0:0:
431,89,43153,6,0,L|442:22,2,55,6|2|2,3:2|0:2|3:2,0:0:0:0:
332,77,43820,2,0,L|265:66,2,55,2|2|2,3:2|0:2|3:2,0:0:0:0:
361,171,44486,2,0,P|363:204|345:241,1,55,2|2,3:2|0:2,0:0:0:0:
322,260,44820,2,0,L|253:248,1,55,2|2,3:2|0:2,0:0:0:0:
226,222,45153,1,2,3:2:0:0:
152,288,45486,1,8,1:2:0:0:
81,217,45820,6,0,L|5:229,2,55,2|2|2,3:2|0:2|3:2,0:0:0:0:
124,128,46486,2,0,L|114:68,2,55,2|2|2,3:2|0:2|3:2,0:0:0:0:
213,171,47153,2,0,P|246:171|281:147,1,55,2|2,3:2|0:2,0:0:0:0:
298,125,47486,2,0,L|288:65,1,55,2|2,3:2|0:2,0:0:0:0:
314,28,47820,1,2,3:2:0:0:
412,30,48153,1,8,1:2:0:0:
420,128,48486,6,0,P|446:137|488:132,2,55,6|2|2,3:2|0:2|3:2,0:0:0:0:
350,199,49153,2,0,P|320:197|291:206,2,55,2|2|2,3:2|0:2|3:2,0:0:0:0:
426,261,49820,2,0,L|434:327,1,55,2|2,3:2|0:2,0:0:0:0:
401,354,50153,2,0,P|371:364|326:359,1,55,2|2,3:2|0:2,0:0:0:0:
301,346,50486,1,10,3:2:0:0:
214,309,50820,1,0,1:2:0:0:
214,309,50986,6,0,L|193:123,1,165,6|2,3:2|1:2,0:0:0:0:
177,98,51653,2,0,B|61:137|153:170|49:214,1,165,2|2,3:2|1:2,0:0:0:0:
23,235,52320,1,6,3:2:0:0:
117,356,52819,1,2,1:2:0:0:
117,356,52986,2,0,L|296:334,1,165,6|2,3:2|1:2,0:0:0:0:
330,330,53653,1,6,3:2:0:0:
417,283,53986,6,0,L|483:290,2,55,0|8|0,3:2|1:2|0:2,0:0:0:0:
392,239,54486,2,0,L|326:246,2,55,8|0|8,3:2|3:2|1:2,0:0:0:0:
419,197,54986,1,6,3:2:0:0:
459,106,55320,1,2,0:2:0:0:
403,31,55653,1,2,0:2:0:0:
403,31,55820,2,0,P|339:24|292:67,1,110,2|2,3:2|3:2,0:0:0:0:
266,142,56486,6,0,L|283:272,2,121.000003692627,6|10|10,3:2|1:2|3:2,0:0:0:0:
197,64,57486,1,10,1:2:0:0:
197,64,57653,2,0,P|147:73|120:137,1,121.000003692627,6|2,3:2|3:2,0:0:0:0:
109,185,58153,2,0,L|178:193,1,60.5000018463135,10|2,1:2|0:2,0:0:0:0:
200,234,58486,1,10,3:2:0:0:
222,340,58820,1,10,1:2:0:0:
332,322,59153,5,8,3:2:0:0:
332,322,59320,2,0,L|341:385,2,60.5000018463135,2|10|2,0:2|1:2|0:2,0:0:0:0:
346,269,59820,2,0,P|392:241|454:258,1,121.000003692627,10|10,3:2|1:2,0:0:0:0:
502,281,60320,2,0,L|491:159,1,121.000003692627,6|2,3:2|3:2,0:0:0:0:
490,106,60820,1,10,1:2:0:0:
410,31,61153,1,10,3:2:0:0:
309,71,61486,1,10,1:2:0:0:
206,108,61820,6,0,L|77:94,2,121.000003692627,10|10|10,3:2|1:2|3:2,0:0:0:0:
233,154,62653,2,0,P|238:181|227:217,1,60.5000018463135,2|10,3:2|1:2,0:0:0:0:
194,255,62986,1,6,3:2:0:0:
236,358,63320,1,2,3:2:0:0:
236,358,63486,2,0,L|318:348,1,60.5000018463135,10|2,1:2|0:2,0:0:0:0:
346,373,63820,1,10,3:2:0:0:
447,333,64153,1,10,1:2:0:0:
427,235,64486,5,8,3:2:0:0:
427,235,64653,2,0,L|497:229,2,60.5000018463135,2|10|2,0:2|1:2|0:2,0:0:0:0:
377,258,65153,2,0,P|324:293|259:270,1,121.000003692627,10|10,3:2|1:2,0:0:0:0:
230,244,65653,1,2,1:2:0:0:
279,147,65986,2,0,L|266:63,1,60.5000018463135,2|0,1:2|3:2,0:0:0:0:
286,39,66320,2,0,P|316:26|357:32,1,60.5000018463135,2|0,1:2|3:2,0:0:0:0:
394,44,66653,1,2,1:2:0:0:
466,125,66986,6,0,P|410:139|398:201,1,121.000003692627,6|0,1:2|3:2,0:0:0:0:
429,237,67486,2,0,P|445:269|439:296,1,60.5000018463135,10|0,1:2|0:2,0:0:0:0:
415,340,67820,2,0,L|283:326,1,121.000003692627,10|10,3:2|1:2,0:0:0:0:
249,296,68320,1,6,3:2:0:0:
228,189,68653,2,0,L|241:62,1,121.000003692627,2|2,3:2|0:2,0:0:0:0:
211,22,69153,1,10,3:2:0:0:
104,2,69486,1,10,1:2:0:0:
86,113,69820,5,8,3:2:0:0:
86,113,69986,2,0,L|12:103,2,60.5000018463135,2|10|2,0:2|1:2|0:2,0:0:0:0:
130,145,70486,2,0,P|140:202|103:251,1,121.000003692627,10|10,3:2|1:2,0:0:0:0:
75,296,70986,2,0,B|70:359|70:359|136:380,1,121.000003692627,6|2,3:2|3:2,0:0:0:0:
178,367,71486,2,0,P|212:350|246:349,1,60.5000018463135,10|2,1:2|0:2,1:2:0:0:
288,355,71819,1,10,3:2:0:0:
263,249,72152,1,10,1:2:0:0:
209,153,72486,6,0,L|77:132,2,121.000003692627,10|10|10,3:2|1:2|3:2,0:0:0:0:
249,116,73319,2,0,P|284:111|309:129,1,60.5000018463135,2|10,3:2|1:2,0:0:0:0:
344,159,73652,1,6,3:2:0:0:
343,272,73986,1,2,3:2:0:0:
343,272,74152,2,0,L|331:344,1,60.5000018463135,10|2,1:2|0:2,0:0:0:0:
291,367,74486,1,10,3:2:0:0:
192,320,74819,1,10,1:2:0:0:
210,216,75152,5,8,3:2:0:0:
210,216,75319,2,0,L|204:146,2,60.5000018463135,2|10|2,0:2|1:2|0:2,0:0:0:0:
257,242,75819,2,0,P|315:252|363:210,1,121.000003692627,10|10,3:2|1:2,0:0:0:0:
390,169,76319,1,2,1:2:0:0:
345,69,76652,2,0,L|265:82,1,60.5000018463135,2|0,1:2|3:2,0:0:0:0:
239,48,76986,2,0,L|159:61,1,60.5000018463135,2|0,1:2|3:2,0:0:0:0:
135,90,77319,1,2,1:2:0:0:
47,155,77653,6,0,P|29:216|66:258,1,121.000003692627,6|2,1:2|3:2,0:0:0:0:
102,293,78153,1,2,1:2:0:0:
210,285,78486,2,0,L|224:158,1,121.000003692627,2|2,3:2|1:2,0:0:0:0:
234,111,78986,2,0,P|260:63|333:68,1,121.000003692627,6|2,3:2|3:2,0:0:0:0:
372,76,79486,1,2,1:2:0:0:
448,147,79820,2,0,L|433:273,1,121.000003692627,2|2,3:2|1:2,0:0:0:0:
401,311,80320,6,0,P|333:302|312:249,1,121.000003692627,6|2,3:2|3:2,0:0:0:0:
321,206,80820,1,2,1:2:0:0:
301,98,81153,2,0,L|310:33,2,60.5000018463135,2|2|2,3:2|1:2|1:2,0:0:0:0:
256,129,81653,2,0,P|198:127|145:174,1,121.000003692627,6|0,3:2|3:2,0:0:0:0:
111,201,82153,1,0,1:2:0:0:
111,201,82320,2,0,P|68:165|74:84,1,121.000003692627,4|0,3:2|3:2,0:0:0:0:
120,10,82986,6,0,P|187:37|241:21,1,121.000003692627,6|2,3:2|3:2,0:0:0:0:
282,5,83486,2,0,P|314:11|338:37,1,60.5000018463135,10|2,1:2|3:2,0:0:0:0:
358,66,83820,2,0,L|346:136,1,60.5000018463135,10|2,1:2|3:2,1:2:0:0:
343,183,84153,1,10,1:2:0:0:
343,183,84320,2,0,L|219:169,1,121.000003692627,6|2,3:2|3:2,0:0:0:0:
174,143,84820,1,10,1:2:0:0:
102,225,85153,2,0,L|91:285,1,60.5000018463135,10|2,1:2|3:2,0:0:0:0:
108,341,85486,1,10,1:2:0:0:
108,341,85653,6,0,P|156:368|221:356,1,121.000003692627,6|0,3:2|3:2,0:0:0:0:
258,320,86153,1,8,1:2:0:0:
201,227,86486,1,8,1:2:0:0:
223,123,86820,1,8,1:2:0:0:
223,123,86986,2,0,L|354:110,1,121.000003692627,6|2,3:2|3:2,0:0:0:0:
397,110,87486,1,10,1:2:0:0:
506,112,87820,2,0,P|512:149|502:183,1,60.5000018463135,10|2,1:2|3:2,0:0:0:0:
481,222,88153,1,10,1:2:0:0:
481,222,88320,6,0,L|356:236,1,110,6|0,3:2|3:2,0:0:0:0:
327,201,88820,1,10,1:2:0:0:
254,283,89154,1,10,3:2:0:0:
172,357,89487,2,0,L|113:348,1,55,10|2,1:2|0:2,0:0:0:0:
65,331,89820,2,0,P|44:286|74:226,1,110,10|8,3:2|1:2,0:0:0:0:
103,192,90320,1,2,0:2:0:0:
207,227,90654,2,0,L|266:234,1,55,2|10,3:2|1:2,0:0:0:0:
316,233,90986,6,0,P|339:179|326:116,1,110,6|0,3:2|3:2,0:0:0:0:
303,82,91487,1,8,1:2:0:0:
208,26,91820,1,8,3:2:0:0:
116,85,92154,1,8,1:2:0:0:
116,85,92320,2,0,B|109:139|109:139|97:148|97:148|90:200,1,110,6|2,0:2|1:2,0:0:0:0:
92,243,92820,2,0,P|120:251|150:249,1,55,10|2,1:2|3:2,0:0:0:0:
200,242,93154,1,10,1:2:0:0:
262,152,93487,1,10,1:2:0:0:
262,152,93654,6,0,L|281:29,1,110,6|0,3:2|3:2,0:0:0:0:
319,5,94154,1,10,1:2:0:0:
423,39,94487,1,10,3:2:0:0:
480,132,94820,2,0,L|469:207,1,55,10|2,1:2|0:2,0:0:0:0:
464,241,95154,2,0,B|401:273|355:221,1,110,10|8,3:2|1:2,0:0:0:0:
321,191,95654,1,2,0:2:0:0:
212,172,95987,2,0,L|140:163,1,55,2|10,3:2|1:2,0:0:0:0:
104,181,96320,6,0,P|77:239|107:287,1,110,6|0,3:2|3:2,0:0:0:0:
123,324,96820,1,8,1:2:0:0:
232,313,97154,1,8,3:2:0:0:
328,376,97487,1,8,1:2:0:0:
328,376,97653,2,0,L|455:358,1,110,2|8,1:2|3:2,0:0:0:0:
492,361,98154,1,0,1:2:0:0:
464,254,98486,2,0,L|454:179,2,55,0|8|0,1:2|3:2|1:2,0:0:0:0:
413,274,98986,6,0,B|349:257|402:230|319:212,1,110,6|2,3:2|3:2,0:0:0:0:
279,197,99486,1,10,1:2:0:0:
279,197,99653,2,0,P|252:148|268:100,1,110,2|2,3:2|3:2,0:0:0:0:
329,7,100320,2,0,L|449:23,1,110,2|2,3:2|3:2,0:0:0:0:
482,62,100820,1,10,1:2:0:0:
482,62,100986,2,0,P|505:120|475:169,1,110,2|2,3:2|3:2,0:0:0:0:
454,205,101486,1,10,1:2:0:0:
454,205,101653,1,2,3:2:0:0:
351,180,101986,5,0,3:2:0:0:
351,180,102153,2,0,L|288:174,1,55,10|2,1:2|0:2,0:0:0:0:
253,141,102486,2,0,P|192:129|132:163,1,110,10|10,3:2|1:2,0:0:0:0:
124,253,103153,2,0,L|136:327,1,55,10|2,3:2|3:2,0:0:0:0:
174,342,103486,2,0,P|212:346|248:328,1,55,10|8,1:2|0:3,0:0:0:0:
262,298,103820,2,0,L|341:291,2,55,8|8|4,0:3|0:3|0:3,0:0:0:0:
230,252,104320,1,4,0:3:0:0:
