osu file format v14

[General]
AudioFilename: audio.ogg
AudioLeadIn: 0
PreviewTime: 56486
Countdown: 0
SampleSet: Soft
StackLeniency: 0.7
Mode: 0
LetterboxInBreaks: 0
WidescreenStoryboard: 0

[Editor]
Bookmarks: 32320,43153,66986,88320
DistanceSpacing: 1.3
BeatDivisor: 4
GridSize: 8
TimelineZoom: 4.499998

[Metadata]
Title:Guruppo (Short Ver.)
TitleUnicode:グルッポ (Short Ver.)
Artist:Barbarian On The Groove feat. Chata
ArtistUnicode:Barbarian On The Groove feat. 茶太
Creator:Suzuaki_Rin
Version:Celebrity
Source:Like a Butler
Tags:eroge visual novel video game galgame vn op opening AXL アクセル ライク ア バトラー bassy japanese jpop j pop
BeatmapID:3744484
BeatmapSetID:1824682

[Difficulty]
HPDrainRate:5.5
CircleSize:4
OverallDifficulty:8
ApproachRate:8.8
SliderMultiplier:2
SliderTickRate:1

[Events]
//Background and Video events
0,0,"Konachan.com - 45875 sample.jpg",0,0
//Break Periods
//Storyboard Layer 0 (Background)
//Storyboard Layer 1 (Fail)
//Storyboard Layer 2 (Pass)
//Storyboard Layer 3 (Foreground)
//Storyboard Layer 4 (Overlay)
//Storyboard Sound Samples

[TimingPoints]
487,333.333333333333,4,2,1,55,1,0
487,-125,4,2,1,55,0,0
9820,-125,4,2,1,60,0,0
10986,-100,4,2,1,70,0,0
21653,-100,4,2,1,60,0,0
22153,-125,4,2,1,60,0,0
32320,-100,4,2,1,65,0,0
32820,-125,4,2,1,65,0,0
40320,-100,4,2,1,70,0,0
43153,-111.111111111111,4,2,1,60,0,0
45486,-100,4,2,1,60,0,0
45820,-111.111111111111,4,2,1,60,0,0
48153,-99.9999999999999,4,2,1,60,0,0
48486,-111.111111111111,4,2,1,60,0,0
50986,-99.9999999999999,4,2,1,70,0,0
56486,-90.9090909090909,4,2,1,80,0,1
65653,-90.9090909090909,4,2,1,75,0,0
66986,-90.9090909090909,4,2,1,80,0,1
77653,-90.9090909090909,4,2,1,75,0,0
82986,-90.9090909090909,4,2,1,80,0,1
88320,-100,4,2,1,70,0,0
93653,-100,4,2,2,70,0,0
97986,-100,4,2,3,70,0,0
98736,-100,4,2,1,70,0,0
99153,-100,4,2,1,70,0,0

[Colours]
Combo1 : 237,213,114
Combo2 : 236,94,136
Combo3 : 117,74,230
Combo4 : 233,142,82

[HitObjects]
164,45,487,6,0,B|219:63|169:87|246:108,1,80,6|0,3:2|0:2,0:2:0:0:
279,47,820,2,0,B|308:57|337:43|337:43|287:79|295:145,1,160,2|2,0:2|0:2,0:2:0:0:
255,191,1320,2,0,P|295:165|380:152,1,120,2|0,0:2|0:2,0:2:0:0:
411,213,1653,2,0,B|441:194|441:169|441:169|439:195|441:220,1,80,2|0,0:2|0:2,0:2:0:0:
391,293,1986,2,0,P|348:271|331:234,1,80,2|0,0:2|0:2,0:2:0:0:
469,274,2320,1,2,0:2:0:0:
447,360,2486,2,0,P|411:363|366:387,1,80,2|0,0:2|0:2,0:2:0:0:
291,354,2820,2,0,P|277:323|228:287,1,80,2|0,0:2|0:2,0:2:0:0:
60,353,3153,6,0,B|85:346|85:346|97:373|130:380,1,80,6|0,3:2|0:2,0:2:0:0:
197,230,3486,2,0,B|160:239|142:269|149:305|149:305|156:277|184:256,1,160,2|2,0:2|0:2,0:2:0:0:
276,230,3986,2,0,P|218:211|149:176,1,120,2|0,0:2|0:2,0:2:0:0:
101,136,4320,2,0,P|74:170|25:187,1,80,2|0,0:2|0:2,0:2:0:0:
5,51,4653,2,0,B|24:58|42:80|42:80|21:101|24:130,1,80,2|0,0:2|0:2,0:2:0:0:
121,63,4986,1,2,0:2:0:0:
151,153,5153,2,0,P|134:101|136:69,1,80,2|0,0:2|0:2,0:2:0:0:
223,50,5486,2,0,P|246:19|284:-8,1,80,2|2,0:2|0:2,0:2:0:0:
357,36,5736,1,2,0:2:0:0:
357,36,5820,6,0,P|393:59|436:83,1,80,6|0,3:2|0:2,0:2:0:0:
505,79,6153,2,0,B|445:85|418:129|418:129|443:89|419:72,1,160,2|2,0:2|0:2,0:2:0:0:
469,173,6653,2,0,P|413:151|334:152,1,120,2|0,0:2|0:2,0:2:0:0:
385,226,6986,2,0,B|362:246|362:246|411:244,1,80,2|0,0:2|0:2,0:2:0:0:
362,322,7320,2,0,P|337:286|267:269,1,80,2|0,0:2|0:2,0:2:0:0:
285,349,7653,1,2,0:2:0:0:
183,248,7820,2,0,L|172:161,1,80,2|0,0:2|0:2,0:2:0:0:
189,65,8153,2,0,B|169:88|169:88|200:90|226:114,1,80,2|2,0:2|0:2,0:2:0:0:
255,177,8403,1,2,0:2:0:0:
255,177,8486,6,0,P|344:180|419:234,1,160,6|2,3:2|0:2,0:2:0:0:
487,173,8986,1,0,0:2:0:0:
346,52,9153,2,0,P|266:51|197:13,1,160,6|0,3:2|0:2,0:2:0:0:
120,62,9653,1,2,0:2:0:0:
62,206,9820,6,0,L|112:202,1,40,0|0,1:2|1:2,0:2:0:0:
213,165,9986,2,0,L|163:161,1,40,0|0,1:2|1:2,0:2:0:0:
45,218,10153,2,0,L|95:214,1,40,0|0,1:2|1:2,0:2:0:0:
234,151,10320,2,0,L|184:147,1,40,0|0,1:2|1:2,0:2:0:0:
152,296,10486,5,0,1:2:0:0:
177,308,10570,1,0,1:2:0:0:
217,299,10653,1,0,1:2:0:0:
243,262,10736,6,0,L|218:240,1,20,2|0,1:2|0:2,0:2:0:0:
266,243,10820,2,0,L|245:212,1,20,2|0,1:2|0:2,0:2:0:0:
289,236,10903,2,0,L|281:215,1,20,2|0,1:2|0:2,0:2:0:0:
311,242,10986,6,0,B|396:286|319:304|407:358,1,150,6|0,3:2|0:2,0:2:0:0:
479,269,11320,2,0,P|449:272|423:297,1,50,2|0,3:2|0:2,0:2:0:0:
481,346,11486,2,0,L|506:208,1,100,10|0,1:2|0:2,0:2:0:0:
427,40,11820,1,10,3:2:0:0:
480,98,11986,2,0,B|456:104|450:121|450:121|445:110|433:103,1,50,2|0,3:2|0:2,0:2:0:0:
352,51,12153,1,10,1:2:0:0:
342,40,12320,1,2,0:2:0:0:
326,187,12486,5,10,3:2:0:0:
335,200,12653,2,0,B|430:179|351:128|455:109,1,150,2|0,3:2|0:2,0:2:0:0:
495,224,12986,2,0,B|467:213|445:233|445:233|467:212|458:170,1,100,2|8,0:2|3:2,0:2:0:0:
375,273,13320,1,2,3:2:0:0:
479,349,13486,1,10,1:2:0:0:
280,369,13653,6,0,P|204:346|94:329,1,150,6|0,3:2|0:2,0:2:0:0:
86,261,13986,2,0,P|116:253|129:235,1,50,0|0,3:2|0:2,0:2:0:0:
86,190,14153,2,0,L|213:228,1,100,8|0,1:2|0:2,0:2:0:0:
5,202,14486,2,0,P|3:170|19:148,1,50,8|0,3:2|0:2,0:2:0:0:
76,107,14653,1,0,3:2:0:0:
66,97,14820,1,8,1:2:0:0:
195,106,14986,6,0,B|127:134|194:147|93:191,1,100,2|8,0:2|3:2,0:2:0:0:
133,44,15320,1,2,3:2:0:0:
218,200,15486,2,0,P|237:202|232:178,1,50,10|0,1:2|0:2,0:2:0:0:
275,109,15653,1,2,0:2:0:0:
155,250,15820,2,0,P|130:255|108:266,1,50,10|0,3:2|0:2,0:2:0:0:
99,276,15986,2,0,P|124:284|157:303,1,50,2|0,3:2|0:2,0:2:0:0:
24,254,16153,1,10,1:2:0:0:
126,174,16320,6,0,P|189:232|234:288,1,150,6|0,3:2|0:2,0:2:0:0:
275,359,16653,2,0,P|293:334|310:333,1,50,0|0,3:2|0:2,0:2:0:0:
362,368,16820,2,0,L|326:249,1,100,10|0,1:2|0:2,0:2:0:0:
342,144,17153,1,10,3:2:0:0:
264,183,17320,2,0,B|252:171|239:174|239:174|222:141,1,50,2|0,3:2|0:2,0:2:0:0:
161,108,17486,1,10,1:2:0:0:
146,97,17653,1,2,0:2:0:0:
290,14,17820,5,10,3:2:0:0:
281,27,17986,2,0,B|326:45|326:45|347:81|347:81|422:108,1,150,2|0,3:2|0:2,0:2:0:0:
474,80,18320,2,0,P|435:90|426:163,1,100,2|8,0:2|3:2,0:2:0:0:
230,123,18653,1,2,3:2:0:0:
182,192,18820,1,10,1:2:0:0:
306,169,18986,6,0,P|263:110|221:12,1,150,6|0,3:2|0:2,0:2:0:0:
123,31,19320,2,0,P|144:16|153:-11,1,50,0|0,3:2|0:2,0:2:0:0:
60,10,19486,2,0,B|121:44|81:57|141:88,1,100,8|0,1:2|0:2,0:2:0:0:
58,227,19820,2,0,P|30:215|54:201,1,50,8|0,3:2|0:2,0:2:0:0:
101,289,19986,2,0,B|127:283|110:267|139:261,1,50,0|0,3:2|0:2,0:2:0:0:
30,305,20153,1,8,1:2:0:0:
130,190,20320,6,0,P|200:244|257:276,1,150,2|0,3:2|0:2,0:2:0:0:
292,352,20653,2,0,P|307:328|352:320,1,50,2|0,3:2|0:2,0:2:0:0:
364,372,20820,2,0,L|377:297,1,50,10|0,1:2|0:2,0:2:0:0:
436,384,20986,2,0,P|432:359|415:337,1,50,2|0,0:2|0:2,0:2:0:0:
346,198,21153,1,10,1:2:0:0:
364,227,21236,1,0,3:2:0:0:
398,236,21320,1,2,3:2:0:0:
434,244,21403,1,0,3:2:0:0:
465,228,21486,1,10,1:2:0:0:
264,109,21653,6,0,P|376:90|467:48,1,200,6|0,3:2|3:2,0:2:0:0:
208,42,22153,2,0,B|171:32|135:13|135:13|142:56|175:45,1,120,2|0,1:2|0:2,0:2:0:0:
204,118,22486,2,0,P|247:130|286:160,1,80,2|0,3:2|3:2,0:2:0:0:
325,213,22820,1,2,1:2:0:0:
110,277,22986,6,0,B|197:238|133:233|216:197,1,120,2|0,0:2|0:2,0:2:0:0:
225,211,23320,1,0,0:2:0:0:
162,331,23486,2,0,P|102:314|48:309,1,80,2|0,1:2|0:2,0:2:0:0:
246,339,23820,2,0,P|256:371|257:336,1,80,2|0,3:2|3:2,0:2:0:0:
348,365,24153,2,0,P|387:372|425:384,1,80,2|0,1:2|0:2,0:2:0:0:
493,206,24486,6,0,B|413:242|481:253|386:303,1,120,2|0,3:2|0:2,0:2:0:0:
383,277,24820,1,2,1:2:0:0:
316,181,24986,2,0,P|301:153|228:140,1,80,2|0,0:2|3:2,0:2:0:0:
304,290,25320,2,0,L|383:276,2,80,0|0|0,3:2|1:2|0:2,0:2:0:0:
258,133,25820,6,0,B|231:151|231:200|231:200|227:164|202:155,1,120,0|0,3:2|0:2,0:2:0:0:
237,244,26153,2,0,P|210:233|182:243,1,40,2|0,1:2|0:2,0:2:0:0:
195,315,26320,2,0,P|170:258|133:203,1,120,0|0,0:2|0:2,0:2:0:0:
105,200,26653,1,2,3:2:0:0:
56,362,26820,1,2,1:2:0:0:
41,365,26986,1,2,0:2:0:0:
152,325,27153,6,0,P|219:349|287:366,1,120,2|0,3:2|0:2,0:2:0:0:
295,351,27486,1,2,1:2:0:0:
352,261,27653,2,0,B|388:296|373:336|373:336|369:311|348:298,1,120,2|0,0:2|0:2,0:2:0:0:
295,235,27986,2,0,P|340:222|360:193,1,80,0|0,3:2|1:2,0:2:0:0:
314,129,28320,1,2,0:2:0:0:
270,281,28486,6,0,P|233:211|184:165,1,120,2|0,3:2|0:2,0:2:0:0:
176,175,28820,1,2,1:2:0:0:
253,290,28986,2,0,B|174:324|243:334|160:364,1,120,2|0,0:2|0:2,0:2:0:0:
73,309,29320,2,0,P|56:290|66:265,1,40,2|0,3:2|0:0,0:2:0:0:
129,242,29486,2,0,P|99:323|89:341,1,80,0|0,1:2|0:2,0:0:0:0:
18,359,29820,6,0,P|84:365|137:385,1,120,2|0,3:2|0:2,0:2:0:0:
164,363,30153,1,2,1:2:0:0:
208,218,30320,2,0,B|206:190|173:176|173:176|191:195|189:212,1,80,2|0,0:2|3:2,0:2:0:0:
289,240,30653,2,0,B|360:214|310:191|393:162,1,120,0|0,3:2|0:2,0:2:0:0:
411,177,30986,1,0,3:2:0:0:
368,315,31153,5,2,3:2:0:0:
347,303,31320,1,2,0:2:0:0:
453,250,31486,1,0,1:2:0:0:
474,238,31653,1,2,0:2:0:0:
310,116,31820,1,0,1:2:0:0:
380,166,31986,2,0,B|377:129|422:97|461:122|447:157|415:146,1,120,8|0,1:2|0:2,0:2:0:0:
240,157,32320,6,0,P|306:101|275:-5,1,200,4|0,1:2|0:2,0:2:0:0:
199,210,32820,2,0,B|204:162|169:136|169:136|189:163|175:192,1,120,2|0,1:2|0:2,0:2:0:0:
127,234,33153,2,0,P|167:245|198:277,1,80,2|0,3:2|3:2,0:2:0:0:
221,344,33486,1,2,1:2:0:0:
62,276,33653,6,0,P|99:241|101:174,1,120,2|0,0:2|0:2,0:2:0:0:
76,152,33986,1,0,0:2:0:0:
171,137,34153,2,0,B|193:162|229:163|229:163|217:140,1,80,2|0,1:2|0:2,0:2:0:0:
291,109,34486,2,0,P|329:98|365:81,1,80,2|0,3:2|3:2,0:2:0:0:
477,22,34820,2,0,B|475:55|448:78|448:78|445:64,1,80,2|0,1:2|0:2,0:2:0:0:
301,26,35153,6,0,P|330:90|357:131,1,120,2|0,3:2|0:2,0:2:0:0:
382,155,35486,1,2,1:2:0:0:
493,153,35653,2,0,B|441:170|482:188|434:207,1,80,2|0,0:2|3:2,0:2:0:0:
309,236,35986,2,0,B|272:229|249:199|249:199|252:232|274:246,1,120,2|0,3:2|0:2,0:2:0:0:
308,308,36320,1,2,0:2:0:0:
416,274,36486,5,2,3:2:0:0:
433,280,36653,1,2,0:2:0:0:
346,376,36820,1,2,1:2:0:0:
329,382,36986,1,2,0:2:0:0:
215,314,37153,1,2,3:2:0:0:
165,374,37320,2,0,P|126:359|73:331,2,80,2|2|2,3:2|1:2|0:2,0:2:0:0:
0,327,37820,6,0,P|48:308|113:261,1,120,2|0,3:2|0:2,0:2:0:0:
27,226,38153,2,0,B|18:192|40:154|40:154|13:162|0:189,1,120,2|0,1:2|0:2,0:2:0:0:
8,99,38486,2,0,P|60:123|113:143,1,80,2|0,3:2|3:2,0:2:0:0:
154,103,38820,1,2,1:2:0:0:
279,0,38986,6,0,P|244:51|226:137,1,120,2|0,0:2|0:2,0:2:0:0:
243,136,39320,1,2,0:2:0:0:
356,54,39486,1,2,1:2:0:0:
378,59,39653,1,2,0:2:0:0:
429,186,39820,1,2,3:2:0:0:
449,9,39986,1,0,1:2:0:0:
472,18,40070,1,0,1:2:0:0:
489,30,40153,1,2,1:2:0:0:
326,175,40320,6,0,P|391:158|504:118,1,150,6|0,3:2|0:2,0:2:0:0:
480,106,40653,1,0,3:2:0:0:
444,213,40820,2,0,B|421:202|400:171|400:171|400:192|411:211,1,100,10|0,1:2|0:2,0:2:0:0:
277,237,41153,2,0,P|303:250|332:256,1,50,10|0,3:2|0:2,0:2:0:0:
240,366,41320,2,0,B|286:328|278:287|278:287|268:305|232:331,1,150,2|0,3:2|0:2,0:2:0:0:
104,266,41653,6,0,P|137:303|152:350,1,100,2|8,3:2|0:2,0:2:0:0:
37,255,41986,2,0,B|92:237|103:193|103:193|89:217|59:228,1,150,2|0,3:2|0:2,0:2:0:0:
34,151,42320,2,0,P|20:144|32:160,1,50,2|0,3:2|0:2,0:2:0:0:
0,9,42486,2,0,P|27:21|58:31,1,50,10|0,1:2|0:2,0:2:0:0:
128,105,42653,1,2,3:2:0:0:
209,88,42820,1,10,1:2:0:0:
265,133,42986,1,2,0:2:0:0:
200,229,43153,6,0,B|249:208|249:208|246:232|279:245,1,89.9999972534181,6|2,3:2|0:2,0:2:0:0:
343,212,43486,2,0,P|302:241|270:338,1,134.999995880127,2|0,3:2|0:2,0:2:0:0:
283,346,43820,1,2,3:2:0:0:
359,383,43986,1,2,0:2:0:0:
195,318,44153,2,0,P|124:331|62:377,1,134.999995880127,2|0,3:2|0:2,0:2:0:0:
46,382,44486,5,2,3:2:0:0:
0,313,44653,1,2,0:2:0:0:
68,176,44820,1,2,3:2:0:0:
114,245,44986,1,2,0:2:0:0:
1,172,45153,2,0,P|72:151|163:108,1,134.999995880127,2|0,3:2|0:2,0:2:0:0:
142,105,45486,2,0,P|105:62|37:78,1,100,8|0,1:2|0:2,0:2:0:0:
208,182,45820,6,0,B|234:182|249:201|249:201|303:176,1,89.9999972534181,2|2,3:2|0:2,0:2:0:0:
344,239,46153,2,0,P|327:174|289:114,1,134.999995880127,2|0,3:2|0:2,0:2:0:0:
268,91,46486,1,2,3:2:0:0:
198,45,46653,1,2,0:2:0:0:
347,40,46820,2,0,B|397:29|439:1|439:1|423:22|422:41,1,134.999995880127,2|0,3:2|0:2,0:2:0:0:
442,57,47153,5,2,3:2:0:0:
381,115,47320,1,2,0:2:0:0:
473,192,47486,1,2,3:2:0:0:
512,264,47653,1,2,0:2:0:0:
368,339,47820,2,0,P|369:279|440:266,1,134.999995880127,2|0,3:2|0:2,0:2:0:0:
423,353,48153,2,0,L|310:370,1,100,8|0,1:2|0:2,0:2:0:0:
229,189,48486,6,0,B|276:199|276:199|300:214|298:249,1,89.9999972534181,6|2,3:2|0:2,0:2:0:0:
144,224,48820,2,0,P|204:179|250:120,1,134.999995880127,2|0,3:2|0:2,0:2:0:0:
255,93,49153,1,2,3:2:0:0:
325,41,49320,1,2,0:2:0:0:
158,97,49486,2,0,B|114:72|83:22|83:22|23:5,1,134.999995880127,2|0,3:2|0:2,0:2:0:0:
11,31,49820,5,2,3:2:0:0:
29,111,49986,1,2,0:2:0:0:
77,253,50153,1,2,3:2:0:0:
95,173,50320,1,2,0:2:0:0:
0,236,50486,2,0,P|40:250|93:290,1,89.9999972534181,10|2,3:2|0:2,0:2:0:0:
88,299,50736,1,2,0:2:0:0:
88,299,50820,1,2,1:2:0:0:
261,373,50986,6,0,B|378:311|265:298|396:226,1,200,6|0,3:2|1:2,0:2:0:0:
414,236,51403,1,0,1:2:0:0:
414,236,51486,1,2,1:2:0:0:
512,360,51653,2,0,P|456:350|413:334,1,100,2|0,3:2|0:2,0:2:0:0:
313,229,51986,1,0,0:2:0:0:
206,220,52153,2,0,P|224:212|238:180,1,50,2|0,1:2|0:0,0:0:0:0:
157,159,52320,6,0,P|204:250|205:368,1,200,6|0,3:2|0:2,0:2:0:0:
127,264,52820,2,0,P|158:245|160:206,1,50,2|0,1:2|0:2,0:2:0:0:
0,57,52986,2,0,P|43:80|124:97,1,100,6|0,3:2|0:2,0:2:0:0:
254,186,53320,1,0,0:2:0:0:
215,106,53486,2,0,P|193:101|162:76,1,50,2|0,1:2|0:0,0:0:0:0:
310,128,53653,6,0,P|238:143|155:189,1,150,6|0,3:2|0:2,0:2:0:0:
149,202,53986,1,0,3:2:0:0:
338,202,54153,2,0,B|372:211|393:236|393:236|385:206|345:199,1,100,8|0,1:2|0:2,0:2:0:0:
391,121,54486,1,8,3:2:0:0:
322,291,54653,1,0,3:2:0:0:
306,329,54820,1,8,1:2:0:0:
65,305,54986,6,0,P|121:273|213:252,1,150,6|0,3:2|0:2,0:2:0:0:
245,384,55320,2,0,P|200:356|150:341,1,100,2|0,0:2|1:2,0:2:0:0:
9,365,55653,2,0,P|10:340|17:316,1,50,2|0,0:2|0:2,0:2:0:0:
227,177,55820,2,0,P|201:173|175:177,1,50,2|0,3:2|0:2,0:2:0:0:
12,158,56153,5,2,3:2:0:0:
294,34,56486,6,0,B|233:42|211:102|211:102|225:63|192:9,1,165.000005035401,6|0,3:2|0:2,0:2:0:0:
144,115,56820,2,0,B|211:128|238:178|238:178|276:174|277:156,1,165.000005035401,10|0,1:2|0:2,0:2:0:0:
336,213,57153,2,0,P|311:165|304:111,1,110.000003356934,10|0,3:2|3:2,0:2:0:0:
434,94,57486,2,0,B|456:96|472:108|472:108|470:77,1,55.0000016784668,10|0,1:2|0:2,0:2:0:0:
400,22,57653,6,0,P|404:89|375:162,1,110.000003356934,6|0,3:2|0:2,0:2:0:0:
337,294,57986,1,2,3:2:0:0:
262,251,58153,1,10,1:2:0:0:
342,298,58320,1,2,0:2:0:0:
174,377,58486,2,0,P|158:315|88:225,1,165.000005035401,10|0,3:2|0:2,0:2:0:0:
32,246,58820,2,0,B|90:208|72:145|72:145|63:178|32:198,1,165.000005035401,10|0,1:2|0:2,0:2:0:0:
0,127,59153,5,8,3:2:0:0:
69,322,59320,1,2,0:2:0:0:
102,341,59486,2,0,P|47:358|1:385,1,110.000003356934,10|2,1:2|0:2,0:2:0:0:
137,384,59820,2,0,P|131:298|187:223,1,165.000005035401,10|0,3:2|0:2,0:2:0:0:
201,224,60153,1,10,1:2:0:0:
294,360,60320,6,0,P|390:324|465:319,1,165.000005035401,6|0,3:2|0:2,0:2:0:0:
480,346,60653,1,2,3:2:0:0:
428,230,60820,2,0,P|380:267|364:321,1,110.000003356934,10|0,1:2|0:2,0:2:0:0:
205,265,61153,2,0,P|247:230|301:225,1,110.000003356934,10|0,3:2|3:2,0:2:0:0:
487,152,61486,2,0,P|430:128|376:142,1,110.000003356934,10|0,1:2|0:2,0:2:0:0:
274,303,61820,6,0,P|244:238|223:119,1,165.000005035401,10|0,3:2|0:2,0:2:0:0:
195,239,62153,2,0,P|215:218|134:198,1,165.000005035401,10|0,1:2|0:2,0:2:0:0:
118,263,62486,1,10,3:2:0:0:
0,217,62653,1,2,3:2:0:0:
128,266,62820,1,10,1:2:0:0:
20,134,62986,6,0,B|123:84|21:65|134:12,1,165.000005035401,6|0,3:2|0:2,0:2:0:0:
152,23,63320,1,2,3:2:0:0:
227,115,63486,2,0,P|189:108|137:74,1,55.0000016784668,10|0,1:2|0:2,0:2:0:0:
227,35,63653,1,2,0:2:0:0:
203,215,63820,2,0,P|232:147|329:69,1,165.000005035401,10|0,3:2|0:2,0:2:0:0:
127,179,64153,2,0,P|208:199|287:239,1,165.000005035401,10|0,1:2|0:2,0:2:0:0:
286,262,64486,5,8,3:2:0:0:
237,384,64653,1,2,0:2:0:0:
194,305,64820,1,10,1:2:0:0:
194,305,64986,1,2,0:2:0:0:
339,354,65153,2,0,P|403:367|462:394,1,110.000003356934,10|0,3:2|3:2,0:2:0:0:
505,320,65486,1,10,1:2:0:0:
398,188,65653,6,0,P|343:197|292:218,1,110.000003356934,2|0,1:2|0:2,0:2:0:0:
115,300,65986,1,2,1:2:0:0:
86,188,66153,1,0,3:2:0:0:
207,268,66320,1,2,1:2:0:0:
178,380,66486,1,0,3:2:0:0:
35,313,66653,1,2,1:2:0:0:
24,289,66736,1,0,1:2:0:0:
15,265,66820,1,0,1:2:0:0:
23,50,66986,6,0,B|124:101|32:118|136:171,1,165.000005035401,6|0,1:2|0:2,0:2:0:0:
160,167,67320,1,0,3:2:0:0:
263,45,67486,2,0,P|208:74|134:82,1,110.000003356934,10|0,1:2|0:2,0:2:0:0:
202,3,67820,2,0,P|276:36|385:59,1,165.000005035401,10|0,3:2|0:2,0:2:0:0:
367,153,68153,2,0,P|392:132|429:132,1,55.0000016784668,10|0,1:2|0:2,0:2:0:0:
473,53,68320,6,0,P|445:120|415:214,1,165.000005035401,6|0,3:2|0:2,0:2:0:0:
512,287,68653,2,0,B|482:278|448:296,1,55.0000016784668,2|0,3:2|0:0,0:2:0:0:
512,204,68820,1,8,1:2:0:0:
512,204,68986,1,2,0:2:0:0:
485,368,69153,2,0,P|431:321|344:263,1,165.000005035401,10|0,3:2|0:2,0:2:0:0:
347,356,69486,2,0,P|323:247|281:177,1,165.000005035401,10|0,1:2|0:2,0:2:0:0:
265,185,69820,5,8,3:2:0:0:
223,340,69986,1,2,0:2:0:0:
195,316,70153,2,0,P|141:339|101:386,1,110.000003356934,10|2,1:2|0:2,0:2:0:0:
280,384,70486,2,0,P|228:311|198:213,1,165.000005035401,10|0,3:2|0:2,0:2:0:0:
212,211,70820,1,10,1:2:0:0:
0,80,70986,6,0,B|105:131|17:145|125:196,1,165.000005035401,6|0,3:2|0:2,0:2:0:0:
140,181,71320,1,2,3:2:0:0:
161,6,71486,1,10,1:2:0:0:
138,20,71653,1,2,0:2:0:0:
228,81,71820,2,0,P|278:100|346:104,1,110.000003356934,10|0,3:2|3:2,0:2:0:0:
512,37,72153,2,0,P|467:69|416:89,1,110.000003356934,10|0,1:2|0:2,0:2:0:0:
381,300,72486,6,0,B|425:261|427:211|427:211|425:242|449:274,1,165.000005035401,10|0,3:2|0:2,0:2:0:0:
497,193,72820,2,0,P|417:184|331:141,1,165.000005035401,10|0,1:2|0:2,0:2:0:0:
305,164,73153,1,10,3:2:0:0:
266,293,73320,1,2,3:2:0:0:
305,164,73486,1,10,1:2:0:0:
168,270,73653,6,0,B|138:252|99:267|99:267|144:250|164:179,1,165.000005035401,6|0,3:2|0:2,0:2:0:0:
142,162,73986,1,2,3:2:0:0:
58,249,74153,2,0,P|72:281|74:329,1,55.0000016784668,10|0,1:2|0:2,0:2:0:0:
24,358,74320,1,2,0:2:0:0:
0,210,74486,2,0,P|74:173|122:82,1,165.000005035401,10|0,3:2|0:2,0:2:0:0:
32,40,74820,2,0,P|97:78|196:79,1,165.000005035401,10|0,1:2|0:2,0:2:0:0:
215,55,75153,5,8,3:2:0:0:
372,13,75320,1,2,0:2:0:0:
312,92,75486,1,10,1:2:0:0:
312,92,75653,1,2,0:2:0:0:
348,178,75820,2,0,B|247:139|333:112|215:74,1,165.000005035401,10|0,3:2|0:2,0:2:0:0:
193,93,76153,1,10,1:2:0:0:
150,286,76320,6,0,P|179:249|198:160,1,110.000003356934,2|0,1:2|0:2,0:2:0:0:
48,263,76653,1,2,1:2:0:0:
99,373,76820,1,0,3:2:0:0:
219,357,76986,1,2,1:2:0:0:
242,238,77153,1,0,3:2:0:0:
136,180,77320,1,2,1:2:0:0:
48,263,77486,1,0,3:2:0:0:
304,308,77653,6,0,B|398:261|305:240|448:184,1,165.000005035401,6|0,1:2|0:2,0:2:0:0:
469,309,77986,2,0,P|444:302|434:277,1,55.0000016784668,2|0,3:2|0:2,0:2:0:0:
512,213,78153,2,0,P|431:177|364:122,1,165.000005035401,2|0,1:2|0:2,0:2:0:0:
368,98,78486,1,2,3:2:0:0:
289,212,78653,1,0,1:2:0:0:
252,225,78736,1,0,1:2:0:0:
257,186,78820,1,2,1:2:0:0:
128,1,78986,6,0,P|155:81|175:173,1,165.000005035401,6|0,3:2|0:2,0:2:0:0:
141,241,79320,2,0,P|123:220|96:217,1,55.0000016784668,2|0,3:2|0:2,0:2:0:0:
41,309,79486,2,0,P|185:263|241:258,1,165.000005035401,2|0,1:2|0:2,0:2:0:0:
226,278,79820,1,2,3:2:0:0:
376,343,79986,1,0,1:2:0:0:
381,382,80070,1,0,1:2:0:0:
344,369,80153,1,2,1:2:0:0:
423,171,80320,6,0,P|370:191|324:291,1,165.000005035401,6|0,3:2|0:2,0:2:0:0:
353,174,80653,2,0,P|338:149|311:143,1,55.0000016784668,2|0,3:2|0:2,0:2:0:0:
241,154,80820,2,0,B|329:142|287:90|374:63,1,165.000005035401,2|0,1:2|0:2,0:2:0:0:
401,91,81153,1,2,3:2:0:0:
228,37,81320,1,2,1:2:0:0:
228,0,81403,1,0,1:2:0:0:
263,15,81486,1,2,1:2:0:0:
94,81,81653,6,0,P|56:35|-11:-26,1,110.000003356934,6|0,3:2|2:2,0:2:0:0:
26,159,81986,1,0,3:2:0:0:
61,231,82153,1,0,1:2:0:0:
191,95,82320,2,0,B|173:161|145:116|129:198,1,110.000003356934,4|0,3:2|0:2,0:2:0:0:
268,61,82653,1,0,3:2:0:0:
201,15,82820,1,0,1:2:0:0:
367,171,82986,6,0,P|337:124|322:10,1,165.000005035401,6|0,3:2|0:2,0:2:0:0:
344,5,83320,2,0,P|370:22|401:28,1,55.0000016784668,2|0,3:2|0:2,0:2:0:0:
508,3,83486,1,10,1:2:0:0:
424,119,83653,1,2,3:2:0:0:
512,136,83820,2,0,P|450:108|393:100,1,110.000003356934,10|2,1:2|3:2,0:2:0:0:
278,175,84153,1,10,1:2:0:0:
345,348,84320,6,0,B|406:314|406:314|414:286|414:286|473:255,1,165.000005035401,6|0,3:2|0:2,0:2:0:0:
486,225,84653,2,0,P|471:201|435:183,1,55.0000016784668,2|0,3:2|0:2,0:2:0:0:
368,171,84820,2,0,P|426:156|491:122,1,110.000003356934,10|0,1:2|3:2,0:2:0:0:
322,9,85153,1,10,1:2:0:0:
241,99,85320,1,2,3:2:0:0:
329,0,85486,1,10,1:2:0:0:
110,75,85653,6,0,P|163:92|269:148,1,165.000005035401,6|0,3:2|0:2,0:2:0:0:
256,175,85986,2,0,P|281:147|336:150,1,55.0000016784668,0|0,3:2|0:2,0:2:0:0:
374,162,86153,1,8,1:2:0:0:
232,258,86320,1,0,3:2:0:0:
236,362,86486,2,0,P|250:275|257:246,1,110.000003356934,8|0,1:2|3:2,0:2:0:0:
182,134,86820,1,8,1:2:0:0:
47,149,86986,6,0,B|148:118|76:88|174:55,1,165.000005035401,6|0,3:2|0:2,0:2:0:0:
203,46,87320,2,0,P|231:28|231:-16,1,55.0000016784668,2|0,3:2|0:2,0:2:0:0:
263,107,87486,1,10,1:2:0:0:
329,56,87653,1,2,3:2:0:0:
277,192,87820,1,10,1:2:0:0:
234,257,87986,2,0,P|305:223|403:212,1,165.000005035401,2|0,3:2|0:2,0:2:0:0:
410,194,88320,6,0,B|416:152|459:127|459:127|432:97|395:115,1,150,6|0,3:2|0:2,0:2:0:0:
284,132,88653,2,0,P|305:144|330:145,1,50,0|0,3:2|0:2,0:2:0:0:
282,73,88820,2,0,P|270:122|241:163,1,100,10|0,1:2|0:2,0:2:0:0:
107,186,89153,1,10,3:2:0:0:
132,266,89320,2,0,P|103:264|78:280,1,50,2|0,3:2|0:2,0:2:0:0:
27,198,89486,1,10,1:2:0:0:
34,188,89653,1,2,0:2:0:0:
118,339,89820,5,10,3:2:0:0:
127,352,89986,2,0,B|179:390|241:379|241:379|217:370|206:329,1,150,2|0,3:2|0:2,0:2:0:0:
321,354,90320,2,0,B|342:333|342:333|317:297|269:317,1,100,2|8,0:2|3:2,0:2:0:0:
239,192,90653,1,2,3:2:0:0:
397,272,90820,1,10,1:2:0:0:
320,221,90986,6,0,P|351:154|430:70,1,150,6|0,3:2|0:2,0:2:0:0:
389,71,91320,2,0,P|371:56|341:49,1,50,0|0,3:2|0:2,0:2:0:0:
280,16,91486,2,0,P|343:8|412:-14,1,100,8|0,1:2|0:2,0:2:0:0:
243,123,91820,2,0,P|228:103|226:79,1,50,8|0,3:2|0:2,0:2:0:0:
182,17,91986,1,0,3:2:0:0:
203,7,92153,1,8,1:2:0:0:
130,139,92320,6,0,B|200:155|136:178|208:195,1,100,6|8,0:2|3:2,0:2:0:0:
90,235,92653,1,2,1:2:0:0:
90,235,92736,1,0,1:2:0:0:
90,235,92820,2,0,B|116:235|116:235|91:186,1,50,10|0,1:2|0:2,0:2:0:0:
34,177,92986,1,2,3:2:0:0:
208,260,93153,2,0,P|186:269|179:292,1,50,10|0,1:2|0:2,0:2:0:0:
274,301,93320,2,0,P|290:283|287:259,1,50,2|0,3:2|0:2,0:2:0:0:
248,192,93486,1,10,1:2:0:0:
221,362,93653,6,0,P|294:338|375:319,1,150,6|0,3:2|0:2,0:2:0:0:
382,227,93986,2,0,P|357:228|334:219,1,50,0|0,3:2|0:2,0:2:0:0:
398,168,94153,2,0,L|424:264,1,100,10|0,1:2|0:2,0:2:0:0:
329,119,94486,1,10,3:2:0:0:
268,175,94653,2,0,L|254:128,1,50,2|0,3:2|0:2,0:2:0:0:
283,52,94820,1,10,1:2:0:0:
298,41,94986,1,2,0:2:0:0:
175,189,95153,5,10,3:2:0:0:
184,176,95320,2,0,B|140:127|79:120|79:120|69:86,1,150,2|0,3:2|0:2,0:2:0:0:
51,15,95653,2,0,B|8:30|8:30|6:65|-21:113,1,100,2|8,0:2|3:2,0:2:0:0:
138,56,95986,1,2,3:2:0:0:
208,99,96153,1,10,1:2:0:0:
318,12,96320,6,0,P|384:32|489:86,1,150,6|0,3:2|0:2,0:2:0:0:
483,67,96653,2,0,P|504:52|513:25,1,50,0|0,3:2|0:2,0:2:0:0:
400,65,96820,2,0,P|412:147|443:188,1,100,8|0,1:2|0:2,0:2:0:0:
438,346,97153,2,0,P|410:334|364:324,1,50,8|0,3:2|0:2,0:2:0:0:
330,282,97320,2,0,B|339:260|368:254,1,50,0|0,3:2|0:2,0:2:0:0:
316,358,97486,1,8,1:2:0:0:
123,384,97653,6,0,P|191:356|260:276,1,150,2|0,1:2|0:2,0:2:0:0:
229,264,97986,2,0,P|220:233|189:202,1,50,8|0,3:2|1:2,0:2:0:0:
128,204,98153,1,0,1:2:0:0:
128,204,98236,1,0,3:2:0:0:
128,204,98320,2,0,P|101:225|77:226,1,50,8|0,3:2|1:2,0:0:0:0:
12,257,98486,1,0,1:2:0:0:
12,257,98570,1,0,3:2:0:0:
12,257,98653,2,0,B|11:235|-6:236|-6:236|-4:226|5:207,2,50,8|0|0,3:2|1:2|1:2,0:0:0:0:
64,96,98986,6,0,P|101:92|206:31,1,150,6|0,3:2|0:2,0:2:0:0:
187,12,99320,2,0,P|162:6|141:-5,2,50,2|2|10,3:2|0:2|1:2,0:2:0:0:
261,141,99653,2,0,P|326:165|399:221,1,150,2|0,3:2|0:2,0:2:0:0:
423,298,99986,2,0,P|399:299|380:314,1,50,2|0,3:2|0:2,0:2:0:0:
500,308,100153,1,10,1:2:0:0:
331,379,100320,6,0,B|282:350|322:331|258:296,1,100,2|8,3:2|0:2,0:2:0:0:
34,289,100653,2,0,P|14:267|40:272,1,50,2|0,3:2|0:2,0:2:0:0:
101,338,100820,2,0,P|114:312|152:272,1,50,10|0,1:2|0:2,0:2:0:0:
12,388,100986,2,0,P|87:358|166:368,1,150,2|0,3:2|0:2,0:2:0:0:
189,373,101320,2,0,P|211:380|246:380,1,50,2|0,3:2|0:2,0:2:0:0:
299,324,101486,1,10,1:2:0:0:
143,127,101653,6,0,B|164:217|219:171|245:274,1,150,2|0,3:2|0:2,0:2:0:0:
219,271,101986,1,0,3:2:0:0:
73,250,102153,2,0,P|115:242|169:189,1,100,10|2,1:2|0:2,0:2:0:0:
70,40,102486,2,0,P|92:59|118:54,1,50,10|0,3:2|0:2,0:2:0:0:
156,43,102653,1,2,3:2:0:0:
242,21,102820,1,10,1:2:0:0:
350,61,102986,1,2,0:2:0:0:
407,171,103153,5,10,3:2:0:0:
395,176,103236,1,2,0:2:0:0:
379,187,103320,1,2,3:2:0:0:
369,211,103403,1,2,0:2:0:0:
371,239,103486,2,0,P|396:253|406:275,1,50,10|2,1:2|0:2,0:0:0:0:
447,334,103653,2,0,B|438:355|438:355|407:365,1,50,8|8,0:3|0:3,0:0:0:0:
324,353,103820,5,8,0:3:0:0:
322,345,103903,1,8,0:3:0:0:
321,338,103986,1,8,0:3:0:0:
320,331,104070,1,8,0:3:0:0:
319,324,104153,1,4,0:3:0:0:
317,317,104236,1,4,0:3:0:0:
316,310,104320,1,4,0:3:0:0:
