osu file format v14

[General]
AudioFilename: audio.ogg
AudioLeadIn: 0
PreviewTime: 176517
Countdown: 0
SampleSet: Soft
StackLeniency: 0.4
Mode: 0
LetterboxInBreaks: 0
WidescreenStoryboard: 0

[Editor]
Bookmarks: 221767
DistanceSpacing: 1.2
BeatDivisor: 4
GridSize: 32
TimelineZoom: 2.4

[Metadata]
Title:Gruppo
TitleUnicode:グルッポ
Artist:Barbarian On The Groove feat. Chata
ArtistUnicode:Barbarian On The Groove feat. 茶太
Creator:-Hitomi
Version:Extra
Source:Like a Butler
Tags:l1ght_u light_u gazimal shizuku- kazato asa shikibe mayu ayesha altugle hinae eroge visual novel video game galgame vn op opening AXL アクセル ライク ア バトラー bassy japanese jpop j pop j-pop full version guruppo
BeatmapID:4421498
BeatmapSetID:2106992

[Difficulty]
HPDrainRate:6
CircleSize:4
OverallDifficulty:8.6
ApproachRate:9.3
SliderMultiplier:1.92
SliderTickRate:1

[Events]
//Background and Video events
0,0,"Yumino_after_after (1).jpg",0,0
//Break Periods
//Storyboard Layer 0 (Background)
//Storyboard Layer 1 (Fail)
//Storyboard Layer 2 (Pass)
//Storyboard Layer 3 (Foreground)
//Storyboard Layer 4 (Overlay)
//Storyboard Sound Samples

[TimingPoints]
601,333.333333333333,4,2,1,60,1,0
601,-125,4,2,1,50,0,0
9934,-83.3333333333333,4,2,1,55,0,0
11100,-90.9090909090909,4,2,1,60,0,0
21767,-125,4,2,1,50,0,0
40434,-100,4,2,1,60,0,0
43267,-111.111111111111,4,2,1,50,0,0
51100,-90.9090909090909,4,2,1,60,0,0
56267,-200,4,2,1,60,0,0
56600,-83.3333333333333,4,2,3,70,0,0
56767,-83.3333333333333,4,2,1,70,0,0
78267,-90.9090909090909,4,2,1,70,0,0
86434,-100,4,2,1,60,0,0
91100,-125,4,2,1,50,0,0
109767,-100,4,2,1,60,0,0
112600,-111.111111111111,4,2,1,50,0,0
120434,-90.9090909090908,4,2,1,60,0,0
125600,-200,4,2,1,60,0,0
125934,-83.3333333333333,4,2,3,70,0,0
126017,-83.3333333333333,4,2,1,70,0,0
147600,-90.9090909090909,4,2,1,70,0,0
176600,-90.9090909090909,4,2,2,50,0,0
180434,-90.9090909090909,4,2,1,70,0,0
181934,-500,4,2,1,50,0,0
182184,-500,4,2,1,5,0,0
182267,-71.4285714285714,4,2,1,70,0,0
183100,-83.3333333333333,4,2,1,70,0,0
183934,-142.857142857143,4,2,1,70,0,0
184267,-83.3333333333333,4,2,1,70,0,0
189267,-142.857142857143,4,2,1,70,0,0
189600,-83.3333333333333,4,2,1,70,0,0
192600,-142.857142857143,4,2,1,70,0,0
192934,-83.3333333333333,4,2,1,70,0,0
203267,-142.857142857143,4,2,1,70,0,0
203600,-83.3333333333333,4,2,1,70,0,0
208767,-90.9090909090909,4,2,1,70,0,0
221767,-90.9090909090909,4,2,1,50,0,0

[Colours]
Combo1 : 255,155,195
Combo2 : 245,255,155
Combo3 : 155,255,215
Combo4 : 165,155,255

[HitObjects]
55,115,601,6,0,P|103:123|182:128,1,115.2,4|0,1:0|0:0,0:0:0:0:
127,87,934,2,0,L|53:116,1,76.8,2|0,0:0|0:0,0:0:0:0:
0,194,1267,1,2,0:0:0:0:
59,266,1434,2,0,L|133:295,1,76.8,2|0,0:0|0:0,0:0:0:0:
278,361,1767,2,0,P|272:314|267:278,1,76.8,2|0,0:0|0:0,0:0:0:0:
244,99,2100,2,0,P|238:61|234:23,1,76.8,2|0,0:0|0:0,0:0:0:0:
284,288,2434,5,2,0:0:0:0:
250,26,2600,1,2,0:0:0:0:
288,214,2934,2,0,P|294:252|299:291,1,76.8,2|0,0:0|0:0,0:0:0:0:
457,115,3267,6,0,P|409:123|330:128,1,115.2,4|0,1:0|0:0,0:0:0:0:
385,87,3600,2,0,L|459:116,1,76.8,2|0,0:0|0:0,0:0:0:0:
512,194,3933,1,2,0:0:0:0:
453,266,4100,2,0,L|379:295,1,76.8,2|0,0:0|0:0,0:0:0:0:
234,361,4433,2,0,P|240:314|245:278,1,76.8,2|0,0:0|0:0,0:0:0:0:
268,99,4766,2,0,P|274:61|278:23,1,76.8,2|0,0:0|0:0,0:0:0:0:
228,288,5100,5,2,0:0:0:0:
262,26,5266,1,2,0:0:0:0:
223,214,5600,2,0,P|217:252|213:291,1,76.8,2|0,0:0|3:0,0:0:0:0:
228,288,5850,1,0,3:0:0:0:
244,284,5934,1,4,1:0:0:0:
428,191,6267,6,0,P|370:204|348:210,1,76.8,2|0,0:0|0:0,0:0:0:0:
286,138,6600,1,2,0:0:0:0:
223,214,6767,2,0,P|165:227|143:233,1,76.8,2|0,0:0|0:0,0:0:0:0:
0,111,7100,2,0,P|53:145|149:107,1,153.6,2|2,0:0|0:0,0:0:0:0:
1,111,7767,1,2,0:0:0:0:
219,91,7934,2,0,P|213:53|208:16,1,76.8,2|0,0:0|0:0,0:0:0:0:
354,88,8267,2,0,P|348:125|342:163,1,76.8,2|0,0:0|3:0,0:0:0:0:
340,178,8517,1,0,3:0:0:0:
339,191,8600,5,4,1:0:0:0:
480,352,9267,1,4,1:0:0:0:
190,327,9934,5,8,0:0:0:0:
190,327,10017,1,8,0:0:0:0:
190,327,10100,1,8,0:0:0:0:
190,327,10184,1,8,0:0:0:0:
190,327,10267,5,8,0:0:0:0:
233,299,10350,1,8,0:0:0:0:
246,249,10433,1,8,0:0:0:0:
224,201,10517,1,8,0:0:0:0:
170,178,10600,5,8,0:0:0:0:
117,152,10684,1,8,0:0:0:0:
98,97,10767,1,8,0:0:0:0:
117,43,10850,1,8,0:0:0:0:
164,9,10934,1,8,0:0:0:0:
220,15,11017,1,8,0:0:0:0:
233,28,11100,6,0,B|164:16|164:16|103:43|103:43|7:26,1,211.200006445313,4|0,1:0|1:0,0:0:0:0:
85,171,11600,2,0,P|99:234|107:280,1,105.600003222656,8|0,0:0|0:0,0:0:0:0:
31,354,11934,5,2,1:2:0:0:
127,384,12100,1,2,1:2:0:0:
201,270,12267,5,10,0:0:0:0:
297,300,12434,1,2,0:0:0:0:
371,186,12601,5,2,1:2:0:0:
467,216,12767,1,2,1:2:0:0:
480,318,12934,5,8,0:0:0:0:
390,289,13100,2,0,L|368:174,1,105.600003222656,2|0,0:0|1:0,0:0:0:0:
500,35,13434,2,0,P|471:77|404:82,1,105.600003222656,2|8,0:0|0:0,0:0:0:0:
257,29,13767,6,0,B|132:53|171:-14|43:12,1,211.200006445313,4|0,1:0|1:0,0:0:0:0:
198,154,14267,2,0,B|217:207|217:207|179:267,1,105.600003222656,8|0,0:0|0:0,0:0:0:0:
243,366,14600,2,0,L|123:347,1,105.600003222656,0|0,1:0|1:0,0:0:0:0:
32,288,14934,1,8,0:0:0:0:
84,127,15100,2,0,L|61:1,1,105.600003222656,2|0,0:0|1:0,0:0:0:0:
180,182,15434,5,2,1:2:0:0:
325,18,15600,1,8,0:0:0:0:
190,172,15767,1,2,0:0:0:0:
369,132,15934,1,0,1:0:0:0:
334,288,16100,5,0,1:0:0:0:
425,312,16267,1,8,0:0:0:0:
401,224,16434,2,0,B|432:107|371:131|398:0,1,211.200006445313,4|0,1:0|1:0,0:0:0:0:
237,102,16934,2,0,B|190:79|190:79|128:108,1,105.600003222656,8|0,0:0|0:0,0:0:0:0:
49,284,17267,5,2,1:2:0:0:
0,201,17434,1,0,1:0:0:0:
212,195,17600,5,10,0:0:0:0:
164,280,17767,1,2,0:0:0:0:
56,114,17934,5,2,1:2:0:0:
153,113,18100,1,0,1:0:0:0:
106,203,18267,5,8,0:0:0:0:
186,305,18434,2,0,L|299:293,1,105.600003222656,2|0,0:0|1:0,0:0:0:0:
448,374,18767,1,2,1:2:0:0:
428,255,18934,1,10,0:0:0:0:
408,136,19100,6,0,B|296:120|328:221|177:190,1,211.200006445313,4|0,1:0|1:0,0:0:0:0:
383,41,19600,2,0,L|496:65,1,105.600003222656,8|0,0:0|0:0,0:0:0:0:
483,187,19934,1,0,1:0:0:0:
302,71,20100,1,0,1:0:0:0:
305,234,20267,2,0,L|197:212,1,105.600003222656,8|2,0:0|0:0,0:0:0:0:
47,190,20600,1,0,1:0:0:0:
201,212,20767,5,0,1:0:0:0:
108,37,20934,2,0,L|226:12,1,105.600003222656,8|2,0:0|0:0,0:0:0:0:
166,149,21267,1,8,0:0:0:0:
170,191,21350,1,8,0:0:0:0:
174,233,21433,1,8,0:0:0:0:
178,275,21516,1,8,0:0:0:0:
182,317,21600,1,8,0:0:0:0:
60,383,21767,6,0,P|109:338|201:377,1,153.6,4|0,1:0|1:0,0:0:0:0:
174,233,22267,1,8,0:0:0:0:
174,233,22600,1,2,1:2:0:0:
111,108,22767,1,0,1:0:0:0:
242,184,22934,1,8,0:0:0:0:
321,91,23100,1,2,0:0:0:0:
321,91,23184,1,2,0:0:0:0:
321,91,23267,6,0,B|409:78|378:136|472:122,1,153.6,2|8,1:2|0:0,0:0:0:0:
450,32,23767,1,2,0:0:0:0:
383,147,23934,1,2,1:2:0:0:
481,157,24100,1,0,1:0:0:0:
399,236,24267,2,0,L|315:219,1,76.8,8|0,0:0|0:0,0:0:0:0:
127,283,24600,6,0,P|193:279|253:370,1,153.6,2|8,1:2|0:0,0:0:0:0:
236,180,25100,2,0,L|219:92,1,76.8,2|0,0:0|1:0,0:0:0:0:
236,180,25434,1,0,1:0:0:0:
104,35,25600,2,0,L|89:110,1,76.8,8|0,0:0|0:0,0:0:0:0:
33,293,25934,1,0,1:2:0:0:
33,293,26267,5,8,0:0:0:0:
130,344,26434,2,0,L|213:322,1,76.8,2|0,0:0|1:0,0:0:0:0:
291,351,26767,1,2,1:2:0:0:
354,204,26934,2,0,L|330:296,1,76.8,8|2,0:0|0:0,0:0:0:0:
236,180,27267,6,0,P|230:129|298:52,1,153.6,6|8,1:2|0:0,0:0:0:0:
426,99,27767,2,0,L|344:114,2,76.8,2|0|0,0:0|1:0|1:0,0:0:0:0:
426,99,28267,1,8,0:0:0:0:
364,228,28434,1,2,0:0:0:0:
476,351,28600,6,0,B|502:265|457:284|476:185,1,153.6,2|8,1:2|0:0,0:0:0:0:
364,228,29100,1,2,0:2:0:0:
364,228,29184,1,2,0:2:0:0:
364,228,29267,1,2,1:2:0:0:
303,83,29434,5,2,1:2:0:0:
225,141,29600,1,8,0:0:0:0:
201,49,29767,1,2,0:0:0:0:
0,143,29934,6,0,P|36:108|134:128,1,153.6,6|8,1:2|0:0,0:0:0:0:
129,221,30434,1,2,0:0:0:0:
40,254,30600,1,0,1:0:0:0:
203,247,30767,1,0,1:0:0:0:
14,334,30934,1,8,0:0:0:0:
162,378,31100,1,0,1:0:0:0:
269,196,31267,2,0,P|287:229|284:266,1,76.8,2|0,0:0|1:0,0:0:0:0:
359,350,31600,6,0,L|463:332,1,76.8,8|0,0:0|0:0,0:0:0:0:
488,226,31934,1,8,0:0:0:0:
345,338,32100,1,0,1:0:0:0:
269,196,32267,1,8,0:0:0:0:
389,149,32434,6,0,B|366:63|421:87|402:-13,1,153.6,4|0,1:0|1:0,0:0:0:0:
266,91,32934,2,0,L|175:74,1,76.8,8|0,0:0|0:0,0:0:0:0:
39,0,33267,2,0,L|55:81,1,76.8,2|0,1:2|1:0,0:0:0:0:
23,223,33600,1,8,0:0:0:0:
97,279,33767,6,0,P|144:238|251:268,1,153.6,2|0,0:0|0:0,0:0:0:0:
302,176,34267,2,0,L|385:190,1,76.8,8|0,0:0|0:0,0:0:0:0:
503,298,34600,2,0,P|453:284|426:254,1,76.8,2|0,1:2|1:0,0:0:0:0:
373,161,34934,2,0,L|386:65,1,76.8,8|0,0:0|0:0,0:0:0:0:
244,32,35267,6,0,B|228:127|278:101|260:204,1,153.6,2|8,1:2|0:0,0:0:0:0:
229,292,35767,1,2,0:0:0:0:
229,292,35934,1,0,1:0:0:0:
75,316,36100,1,2,1:2:0:0:
41,164,36267,1,8,0:0:0:0:
162,219,36434,1,2,0:0:0:0:
162,219,36517,1,2,0:0:0:0:
162,219,36600,6,0,P|210:208|334:200,1,153.6,2|8,1:2|0:0,0:0:0:0:
416,215,37100,1,0,0:0:0:0:
479,297,37267,1,0,1:0:0:0:
396,330,37434,2,0,L|286:311,1,76.8,2|8,1:2|0:0,0:0:0:0:
246,255,37767,2,0,L|136:236,1,76.8,2|2,0:0|1:2,0:0:0:0:
0,367,38267,5,8,0:0:0:0:
170,241,38600,1,2,1:2:0:0:
64,178,38767,1,0,1:0:0:0:
122,85,38934,1,10,0:0:0:0:
34,0,39100,6,0,P|14:50|7:88,1,76.8,2|0,3:2|1:0,0:0:0:0:
101,99,39434,1,2,0:0:0:0:
237,3,39600,1,8,0:0:0:0:
283,78,39767,1,2,0:0:0:0:
237,182,39934,5,0,1:0:0:0:
234,196,40017,1,0,1:0:0:0:
231,210,40100,1,8,0:0:0:0:
228,224,40184,1,8,0:0:0:0:
225,238,40267,1,8,0:0:0:0:
286,294,40434,6,0,P|337:247|452:278,1,192,4|0,1:0|1:0,0:0:0:0:
338,372,40934,2,0,L|231:383,1,96,8|0,0:0|0:0,0:0:0:0:
138,284,41267,1,2,1:2:0:0:
222,203,41434,1,0,1:0:0:0:
127,292,41600,1,8,0:0:0:0:
18,132,41767,6,0,L|32:258,1,96,4|0,1:2|0:0,0:0:0:0:
222,1,42100,2,0,L|236:127,1,96,2|8,1:2|0:0,0:0:0:0:
232,96,42434,1,0,1:0:0:0:
436,184,42600,2,0,B|321:177|372:232|239:227,1,192,8|8,0:0|0:0,0:0:0:0:
48,162,43267,5,4,1:0:0:0:
12,84,43434,1,2,0:0:0:0:
55,11,43600,1,2,1:2:0:0:
161,169,43933,5,2,1:2:0:0:
210,98,44100,1,2,0:0:0:0:
295,99,44266,1,2,1:2:0:0:
385,266,44600,5,2,1:2:0:0:
357,165,44767,1,2,0:0:0:0:
257,192,44934,1,2,1:2:0:0:
283,293,45100,1,2,0:0:0:0:
321,230,45267,5,2,1:2:0:0:
321,230,45600,1,4,1:2:0:0:
464,162,45934,5,4,1:0:0:0:
500,84,46101,1,2,0:0:0:0:
457,11,46267,1,2,1:2:0:0:
351,169,46600,5,2,1:2:0:0:
302,98,46767,1,2,0:0:0:0:
217,99,46933,1,2,1:2:0:0:
127,266,47267,5,2,1:2:0:0:
155,165,47434,1,2,0:0:0:0:
255,192,47601,1,2,1:2:0:0:
229,293,47767,1,2,0:0:0:0:
191,230,47934,5,2,1:2:0:0:
191,230,48267,1,4,1:2:0:0:
28,384,48600,5,0,1:0:0:0:
58,303,48767,1,2,0:2:0:0:
88,222,48934,1,2,1:2:0:0:
174,208,49267,5,2,1:2:0:0:
88,222,49434,1,2,0:2:0:0:
3,237,49601,1,2,1:2:0:0:
118,141,49934,5,2,1:2:0:0:
88,222,50101,1,2,0:2:0:0:
58,303,50268,1,2,1:2:0:0:
28,384,50434,1,2,0:0:0:0:
3,237,50600,1,6,1:2:0:0:
3,237,50934,2,0,L|55:229,1,43.1999986816407,8|0,0:0|0:0,0:0:0:0:
118,141,51100,6,0,B|261:126|192:210|340:180,1,211.200006445313,4|0,1:0|1:0,0:0:0:0:
289,289,51600,2,0,L|353:284,1,52.8000016113282,8|0,0:0|0:0,0:0:0:0:
451,335,51767,6,0,P|441:276|410:116,1,211.200006445313,4|0,1:0|1:0,0:0:0:0:
506,25,52267,2,0,L|451:40,1,52.8000016113282,8|0,0:0|0:0,0:0:0:0:
312,88,52434,6,0,B|247:70|247:70|195:101|195:101|104:115,1,211.200006445313,4|0,1:0|1:0,0:0:0:0:
23,17,52934,2,0,L|34:75,1,52.8000016113282,8|0,0:0|0:0,0:0:0:0:
79,258,53100,6,0,B|141:243|141:243|183:256|183:256|224:233|296:239,1,211.200006445313,4|0,1:0|1:0,0:0:0:0:
138,327,53600,2,0,L|84:339,1,52.8000016113282,8|0,0:0|0:0,0:0:0:0:
183,172,53767,6,0,P|156:107|240:6,1,211.200006445313,4|0,1:0|1:0,0:0:0:0:
183,172,54267,1,8,0:0:0:0:
282,130,54434,1,0,0:0:0:0:
368,252,54600,1,0,1:0:0:0:
356,57,54767,1,0,1:0:0:0:
162,193,54934,1,8,0:0:0:0:
403,334,55100,1,4,1:0:0:0:
403,334,55434,1,0,1:0:0:0:
450,175,55600,5,8,0:0:0:0:
239,328,55767,1,0,1:0:0:0:
188,51,55934,1,8,0:0:0:0:
188,51,56267,6,0,L|114:62,1,72,8|0,0:0|0:0,0:0:0:0:
47,8,56600,6,0,B|87:57|87:57|72:168,1,172.799994726563,6|0,1:0|0:0,0:0:0:0:
7,249,56934,2,0,L|124:243,1,115.199996484375,8|0,0:0|0:0,0:0:0:0:
271,314,57267,1,2,1:2:0:0:
138,246,57434,1,0,1:0:0:0:
313,148,57600,1,10,0:0:0:0:
155,357,57767,6,0,P|169:239|184:120,1,230.39999296875,6|0,1:2|1:0,0:0:0:0:
46,12,58267,2,0,P|62:75|77:129,1,115.199996484375,8|0,0:0|0:0,0:0:0:0:
269,89,58600,2,0,P|329:100|384:115,1,115.199996484375,2|0,1:2|1:0,0:0:0:0:
457,269,58934,2,0,P|391:286|309:253,1,115.199996484375,8|0,0:0|0:0,0:0:0:0:
200,242,59267,5,0,1:2:0:0:
129,310,59434,1,2,1:2:0:0:
220,338,59600,1,10,0:0:0:0:
286,204,59767,5,2,0:0:0:0:
54,371,59934,2,0,P|41:303|42:248,1,115.199996484375,2|0,1:2|1:0,0:0:0:0:
84,141,60267,1,8,0:0:0:0:
290,61,60434,6,0,P|308:131|265:290,1,230.39999296875,6|0,1:2|1:0,0:0:0:0:
125,224,60934,2,0,L|6:238,1,115.199996484375,10|0,0:0|0:0,0:0:0:0:
183,115,61267,2,0,P|188:52|193:-8,1,115.199996484375,2|0,1:2|1:0,0:0:0:0:
395,115,61600,2,0,P|339:84|282:87,1,115.199996484375,10|0,0:0|0:0,0:0:0:0:
66,125,61934,6,0,B|106:247|27:224|67:365,1,230.39999296875,4|8,1:2|0:0,0:0:0:0:
206,282,62434,1,2,0:2:0:0:
206,282,62517,1,2,0:2:0:0:
206,282,62600,1,2,1:2:0:0:
309,354,62767,1,2,1:2:0:0:
183,175,62934,1,10,0:0:0:0:
417,30,63100,6,0,P|294:99|218:68,1,230.39999296875,4|0,1:0|1:0,0:0:0:0:
74,16,63600,2,0,L|85:136,1,115.199996484375,8|2,0:0|0:0,0:0:0:0:
86,308,63934,1,2,1:2:0:0:
5,220,64100,1,0,1:0:0:0:
223,260,64267,2,0,L|338:248,1,115.199996484375,10|0,0:0|0:0,0:0:0:0:
257,61,64600,5,0,1:2:0:0:
207,258,64767,1,2,1:2:0:0:
266,361,64934,1,10,0:0:0:0:
454,290,65100,1,2,0:0:0:0:
454,290,65184,1,2,0:0:0:0:
454,290,65267,2,0,B|402:260|402:260|342:278,1,115.199996484375,2|0,1:2|1:0,0:2:0:0:
261,154,65600,1,8,0:0:0:0:
111,277,65767,5,2,1:2:0:0:
86,164,65934,1,8,0:0:0:0:
404,221,66100,5,2,1:2:0:0:
429,108,66267,1,8,0:0:0:0:
120,261,66434,5,2,1:2:0:0:
95,148,66601,1,8,0:0:0:0:
393,201,66767,5,2,1:2:0:0:
403,149,66850,1,0,1:0:0:0:
416,95,66934,1,8,0:0:0:0:
258,26,67100,6,0,B|289:162|227:118|256:257,1,230.39999296875,4|0,1:0|1:0,0:0:0:0:
192,342,67600,2,0,P|123:324|99:283,1,115.199996484375,8|0,0:0|0:0,0:0:0:0:
16,194,67934,1,2,1:2:0:0:
146,99,68100,1,0,1:0:0:0:
74,19,68267,1,10,0:0:0:0:
151,199,68434,6,0,B|214:171|214:171|329:178,1,172.799994726563,6|0,1:2|0:0,0:0:0:0:
414,238,68767,2,0,L|406:107,1,115.199996484375,2|8,1:2|0:0,0:0:0:0:
219,4,69100,1,2,0:2:0:0:
219,4,69184,1,2,0:2:0:0:
219,4,69267,2,0,P|235:66|289:105,1,115.199996484375,2|0,1:2|1:0,0:0:0:0:
439,150,69600,1,8,0:0:0:0:
400,257,69767,2,0,L|268:247,1,115.199996484375,2|0,0:0|1:0,0:0:0:0:
152,380,70100,5,2,0:0:0:0:
152,380,70184,1,2,0:0:0:0:
152,380,70267,2,0,B|184:331|184:331|171:263,1,115.199996484375,10|2,0:0|0:0,0:0:0:0:
68,136,70600,1,2,1:2:0:0:
165,258,70767,1,0,1:0:0:0:
190,53,70934,1,10,0:0:0:0:
390,78,71100,6,0,P|324:141|180:143,1,230.39999296875,6|0,1:2|1:0,0:0:0:0:
51,22,71600,2,0,L|69:145,1,115.199996484375,10|2,0:0|0:0,0:0:0:0:
165,258,71934,2,0,P|230:249|292:279,1,115.199996484375,2|0,1:2|1:0,0:0:0:0:
408,348,72267,2,0,L|281:368,1,115.199996484375,10|0,0:0|0:0,0:0:0:0:
89,248,72600,6,0,P|79:172|136:87,1,172.799994726563,6|0,1:2|0:0,0:0:0:0:
198,163,72934,2,0,P|261:173|306:151,1,115.199996484375,10|0,0:0|0:0,0:0:0:0:
443,28,73267,1,2,1:2:0:0:
325,68,73434,1,2,1:2:0:0:
439,192,73600,1,10,0:0:0:0:
304,338,73767,6,0,P|230:328|56:321,1,230.39999296875,4|0,1:0|1:0,0:0:0:0:
177,239,74267,1,10,0:0:0:0:
124,173,74434,1,2,0:0:0:0:
277,60,74600,2,0,P|276:132|232:169,1,115.199996484375,2|0,1:2|1:0,0:0:0:0:
42,212,74934,2,0,L|19:87,1,115.199996484375,10|0,0:0|0:0,0:0:0:0:
236,71,75267,5,0,1:2:0:0:
169,0,75434,1,2,1:2:0:0:
129,88,75600,1,10,0:0:0:0:
36,81,75767,5,2,0:0:0:0:
248,161,75934,2,0,P|338:144|377:137,1,115.199996484375,2|0,1:2|1:0,0:0:0:0:
248,161,76267,1,8,0:0:0:0:
420,78,76434,5,2,1:2:0:0:
445,191,76601,1,8,0:0:0:0:
79,120,76767,5,2,1:2:0:0:
54,233,76934,1,8,0:0:0:0:
411,94,77101,5,2,1:2:0:0:
436,207,77268,1,8,0:0:0:0:
90,140,77434,5,2,1:2:0:0:
80,192,77517,1,0,1:0:0:0:
67,246,77601,1,8,0:0:0:0:
254,358,77767,6,0,B|223:222|285:266|256:127,1,230.39999296875,4|0,1:0|1:0,0:0:0:0:
397,9,78267,2,0,L|380:134,1,105.600003222656,10|0,0:0|0:0,0:0:0:0:
453,218,78600,1,0,1:0:0:0:
254,358,78767,2,0,L|264:287,1,52.8000016113282,8|8,0:0|0:0,0:0:0:0:
329,243,78934,2,0,L|390:260,1,52.8000016113282,8|0,0:0|0:0,0:0:0:0:
215,107,79100,6,0,L|231:224,1,105.600003222656,4|2,1:0|0:0,0:0:0:0:
229,211,79350,1,2,0:0:0:0:
229,211,79434,1,0,1:2:0:0:
135,340,79600,2,0,P|79:356|33:335,1,105.600003222656,10|0,0:0|0:0,0:0:0:0:
66,213,79934,1,0,1:0:0:0:
69,190,80017,1,8,0:0:0:0:
73,166,80100,1,8,0:0:0:0:
76,143,80183,1,8,0:0:0:0:
79,119,80267,1,8,0:0:0:0:
160,28,80434,6,0,P|219:76|360:32,1,211.200006445313,4|0,1:0|1:0,0:0:0:0:
467,12,80934,2,0,L|456:134,1,105.600003222656,8|0,0:0|0:0,0:0:0:0:
296,186,81267,1,2,1:2:0:0:
426,365,81434,2,0,L|448:312,1,52.8000016113282,10|8,0:0|0:0,0:0:0:0:
397,250,81600,2,0,L|332:254,1,52.8000016113282,10|0,0:0|0:0,0:0:0:0:
214,384,81767,6,0,B|191:320|191:320|218:262|218:262|209:164,1,211.200006445313,6|0,1:2|1:0,0:0:0:0:
152,103,82184,1,0,1:0:0:0:
160,120,82267,2,0,L|179:178,1,52.8000016113282,8|0,0:0|0:0,0:0:0:0:
323,224,82434,6,0,P|341:144|291:18,1,211.200006445313,4|0,1:0|1:0,0:0:0:0:
214,21,82850,1,0,1:0:0:0:
200,22,82934,2,0,L|147:10,1,52.8000016113282,8|0,0:0|0:0,0:0:0:0:
9,138,83100,6,0,B|131:129|94:201|222:181,1,211.200006445313,4|0,1:0|1:0,0:0:0:0:
133,338,83600,1,10,0:0:0:0:
274,287,83767,1,2,1:2:0:0:
436,384,83934,1,10,0:0:0:0:
512,212,84100,1,2,1:2:0:0:
391,182,84267,1,10,0:0:0:0:
435,0,84434,6,0,P|425:60|416:241,1,211.200006445313,4|0,1:0|1:0,0:0:0:0:
377,306,84934,2,0,P|321:297|270:286,1,105.600003222656,10|0,0:0|1:0,0:0:0:0:
158,173,85267,1,10,0:0:0:0:
216,67,85434,1,2,1:2:0:0:
34,0,85600,1,10,0:0:0:0:
65,285,85767,6,0,B|27:167|113:192|65:52,1,211.200006445313,4|0,1:0|1:0,0:0:0:0:
34,0,86184,1,2,0:0:0:0:
27,14,86267,2,0,L|42:70,1,52.8000016113282,8|0,0:0|0:0,0:0:0:0:
159,222,86434,6,0,P|217:218|361:212,1,192,2|0,0:0|1:0,0:0:0:0:
446,252,86850,1,2,0:0:0:0:
454,236,86934,2,0,L|444:169,1,48,8|0,0:0|0:0,0:0:0:0:
488,28,87100,6,0,P|452:84|312:74,1,192,2|0,0:0|1:0,0:0:0:0:
243,107,87517,1,2,0:0:0:0:
229,98,87600,2,0,L|237:43,1,48,8|0,0:0|0:0,0:0:0:0:
115,139,87767,6,0,L|134:339,1,192,2|0,0:0|1:0,0:0:0:0:
224,381,88267,1,8,0:0:0:0:
79,207,88434,1,4,1:0:0:0:
79,207,88767,5,0,1:0:0:0:
201,119,88934,2,0,L|301:138,1,96,8|0,0:0|0:0,0:0:0:0:
369,228,89267,6,0,L|318:238,3,48,2|2|2|2,1:2|0:0|1:2|0:0,0:0:0:0:
439,313,89600,6,0,L|490:323,3,48,10|2|2|2,0:0|0:0|0:0|0:0,0:0:0:0:
354,328,89934,5,0,1:0:0:0:
312,334,90017,1,0,1:0:0:0:
272,323,90100,1,0,1:0:0:0:
240,296,90183,1,0,1:0:0:0:
220,259,90267,1,8,0:0:0:0:
200,222,90350,1,8,0:0:0:0:
168,196,90433,1,8,0:0:0:0:
127,187,90517,1,8,0:0:0:0:
86,193,90600,5,10,0:0:0:0:
140,384,90767,2,0,L|117:284,1,96,2|10,1:2|0:0,0:0:0:0:
48,51,91100,6,0,B|106:34|153:63|153:63|225:38,1,153.6,4|0,1:0|1:0,0:0:0:0:
302,108,91600,1,8,0:0:0:0:
302,108,91934,1,2,1:2:0:0:
261,191,92100,1,0,1:0:0:0:
365,255,92267,1,10,0:0:0:0:
313,331,92434,1,2,0:0:0:0:
168,290,92600,6,0,L|249:276,1,76.8,0|0,1:2|0:0,0:0:0:0:
427,199,92934,2,0,L|351:212,1,76.8,10|0,0:2|0:0,0:0:0:0:
157,302,93267,2,0,L|238:288,1,76.8,0|0,1:2|1:0,0:0:0:0:
437,187,93601,2,0,L|361:200,1,76.8,10|0,0:2|0:0,0:0:0:0:
184,143,93934,6,0,P|226:142|294:54,1,153.6,2|8,1:2|0:0,0:0:0:0:
285,203,94434,2,0,L|307:285,1,76.8,2|0,0:0|1:0,0:0:0:0:
181,323,94767,1,2,1:2:0:0:
332,363,94934,2,0,L|253:355,1,76.8,8|0,0:0|0:0,0:0:0:0:
66,309,95267,1,2,1:2:0:0:
66,309,95600,5,8,0:0:0:0:
132,225,95767,2,0,L|119:141,1,76.8,2|0,0:0|1:0,0:0:0:0:
29,161,96100,1,2,1:2:0:0:
170,57,96267,2,0,L|91:50,1,76.8,10|2,0:0|0:0,0:0:0:0:
244,118,96600,6,0,P|294:82|395:100,1,153.6,4|8,1:2|0:0,0:0:0:0:
467,1,97100,2,0,L|481:97,2,76.8,2|0|0,0:0|1:0|1:0,0:0:0:0:
467,1,97600,1,8,0:0:0:0:
385,109,97767,1,2,0:0:0:0:
497,214,97934,6,0,B|404:213|444:272|353:263,1,153.6,2|8,1:2|0:0,0:0:0:0:
257,313,98434,1,2,0:2:0:0:
257,313,98517,1,2,0:2:0:0:
257,313,98600,1,2,1:2:0:0:
403,363,98767,5,2,1:2:0:0:
365,277,98934,1,8,0:0:0:0:
330,196,99100,1,2,0:0:0:0:
213,384,99267,6,0,P|174:335|204:242,1,153.6,4|10,1:2|0:0,0:0:0:0:
121,200,99767,1,2,0:0:0:0:
207,169,99934,1,0,1:0:0:0:
66,105,100100,1,0,1:0:0:0:
225,1,100267,1,8,0:0:0:0:
88,110,100434,1,4,1:2:0:0:
199,160,100600,2,0,L|114:193,1,76.8,2|0,0:0|1:0,0:0:0:0:
302,251,100934,5,8,0:0:0:0:
281,159,101100,1,0,1:0:0:0:
429,56,101267,1,8,0:0:0:0:
440,92,101350,1,8,0:0:0:0:
441,130,101433,1,8,0:0:0:0:
430,167,101516,1,8,0:0:0:0:
409,199,101600,1,8,0:0:0:0:
440,318,101767,6,0,P|378:276|302:281,1,153.6,4|0,1:0|1:0,0:0:0:0:
175,359,102267,2,0,L|271:342,1,76.8,8|0,0:0|0:0,0:0:0:0:
154,262,102600,1,2,1:2:0:0:
205,187,102767,1,0,1:0:0:0:
50,196,102934,1,10,0:0:0:0:
102,106,103100,2,0,L|24:92,2,76.8,2|0|0,0:0|1:0|0:0,0:0:0:0:
231,181,103600,6,0,L|217:99,1,76.8,10|0,0:0|0:0,0:0:0:0:
344,22,103934,2,0,P|350:64|325:105,1,76.8,2|0,1:2|1:0,0:0:0:0:
414,164,104267,2,0,L|496:154,1,76.8,10|0,0:0|0:0,0:0:0:0:
396,257,104600,5,2,1:2:0:0:
332,113,104767,1,2,0:0:0:0:
287,207,104934,1,10,0:0:0:0:
462,288,105100,2,0,P|414:279|381:275,1,76.8,2|0,0:0|1:0,0:0:0:0:
222,357,105434,2,0,P|260:351|297:344,1,76.8,2|8,1:2|0:0,0:0:0:0:
138,289,105767,5,2,0:0:0:0:
138,289,105850,1,2,0:0:0:0:
138,289,105934,2,0,P|103:242|139:134,1,153.6,2|8,1:2|0:0,0:0:0:0:
231,135,106434,1,2,0:0:0:0:
74,78,106600,2,0,L|54:2,1,76.8,0|2,1:0|1:2,0:0:0:0:
187,75,106934,2,0,P|228:88|263:117,1,76.8,10|2,0:0|0:0,0:0:0:0:
294,305,107267,6,0,P|231:308|144:261,2,153.6,6|10|2,1:2|0:0|1:2,0:0:0:0:
399,359,108100,1,0,3:2:0:0:
286,275,108267,1,8,0:0:0:0:
477,325,108434,2,0,L|462:249,1,76.8,2|0,3:2|1:0,0:0:0:0:
357,171,108767,1,0,0:0:0:0:
442,49,108934,2,0,L|427:124,1,76.8,10|2,0:2|0:0,0:0:0:0:
274,182,109267,1,0,1:0:0:0:
255,177,109350,1,8,0:0:0:0:
236,172,109433,1,8,0:0:0:0:
218,167,109516,1,8,0:0:0:0:
199,163,109600,1,8,0:0:0:0:
26,276,109767,6,0,B|70:260|70:260|144:298|217:254,1,192,4|0,1:0|1:0,0:0:0:0:
379,337,110267,2,0,L|278:324,1,96,8|0,0:0|0:0,0:0:0:0:
188,247,110600,1,0,1:0:0:0:
256,115,110767,1,0,1:0:0:0:
194,233,110934,1,8,0:0:0:0:
161,106,111100,6,0,P|158:58|177:15,1,96,6|0,1:2|0:0,0:0:0:0:
351,106,111434,2,0,P|353:58|334:15,1,96,0|8,1:0|0:0,0:0:0:0:
256,192,111767,1,0,1:0:0:0:
164,320,111934,2,0,P|256:297|348:321,1,192,8|8,0:0|0:0,0:0:0:0:
464,222,112600,5,4,1:0:0:0:
500,300,112767,1,2,0:0:0:0:
457,373,112933,1,2,1:2:0:0:
351,215,113266,5,2,1:2:0:0:
302,286,113433,1,2,0:0:0:0:
217,285,113599,1,2,1:2:0:0:
127,118,113933,5,2,1:2:0:0:
155,219,114100,1,2,0:0:0:0:
255,192,114267,1,2,1:2:0:0:
229,91,114433,1,2,0:0:0:0:
228,105,114600,5,2,1:2:0:0:
244,183,114767,1,8,3:3:0:0:
160,207,114934,1,12,0:0:0:0:
48,222,115267,5,4,1:0:0:0:
12,300,115434,1,2,0:0:0:0:
55,373,115600,1,2,1:2:0:0:
161,215,115933,5,2,1:2:0:0:
210,286,116100,1,2,0:0:0:0:
295,285,116266,1,2,1:2:0:0:
385,118,116600,5,2,1:2:0:0:
357,219,116767,1,2,0:0:0:0:
257,192,116934,1,2,1:2:0:0:
283,91,117100,1,2,0:0:0:0:
286,105,117267,5,2,1:2:0:0:
268,183,117434,1,8,3:3:0:0:
354,207,117601,1,12,0:0:0:0:
191,35,117934,5,4,1:0:0:0:
351,61,118100,1,2,0:0:0:0:
191,35,118267,1,2,1:2:0:0:
321,349,118600,5,2,1:2:0:0:
161,323,118766,1,2,0:2:0:0:
321,349,118933,1,2,1:2:0:0:
321,349,119267,5,2,1:2:0:0:
285,271,119434,1,2,0:0:0:0:
252,192,119600,1,2,1:2:0:0:
220,115,119767,1,2,0:2:0:0:
191,35,119934,1,6,1:2:0:0:
191,35,120267,2,0,L|142:47,1,43.1999986816407,8|0,0:0|0:0,0:0:0:0:
0,89,120434,6,0,P|67:95|135:216,1,211.200006445313,4|8,1:0|0:0,0:0:0:0:
126,224,120850,1,8,0:0:0:0:
115,236,120934,1,8,0:0:0:0:
194,326,121100,6,0,B|255:300|255:300|302:322|302:322|405:320,1,211.200006445313,4|8,1:0|0:0,0:0:0:0:
388,308,121517,1,8,0:0:0:0:
382,296,121600,1,8,0:0:0:0:
503,189,121767,6,0,P|448:200|360:71,1,211.200006445313,4|8,1:0|0:0,0:0:0:0:
344,84,122184,1,8,0:0:0:0:
329,79,122267,1,8,0:0:0:0:
197,3,122434,6,0,B|177:119|238:89|223:219,1,211.200006445313,4|8,1:0|0:0,0:0:0:0:
175,277,122850,2,0,L|192:214,1,52.8000016113282,8|8,0:0|0:0,0:0:0:0:
299,316,123100,6,0,B|358:304|358:304|399:318|399:318|448:302|507:312,1,211.200006445313,4|0,1:0|1:0,0:0:0:0:
428,215,123600,1,10,0:0:0:0:
374,277,123767,1,2,0:0:0:0:
417,122,123934,1,2,1:2:0:0:
255,13,124100,1,0,1:0:0:0:
351,203,124267,1,8,0:0:0:0:
153,378,124434,1,4,1:0:0:0:
153,378,124767,1,0,1:0:0:0:
247,246,124934,5,8,0:0:0:0:
65,377,125100,1,0,1:0:0:0:
4,71,125267,1,8,0:0:0:0:
4,71,125600,6,0,L|76:62,1,72,8|0,0:0|0:0,0:0:0:0:
152,19,125934,6,0,B|253:11|211:67|328:54,1,172.799994726563,6|0,1:0|0:0,0:0:0:0:
415,12,126267,2,0,L|408:133,1,115.199996484375,10|0,0:0|0:0,0:0:0:0:
449,239,126600,1,2,1:2:0:0:
319,332,126767,1,0,1:0:0:0:
512,307,126934,1,10,0:0:0:0:
299,150,127100,6,0,B|226:190|142:149|142:149|79:194,1,230.39999296875,4|0,1:0|1:0,0:0:0:0:
61,283,127600,2,0,P|87:353|127:389,1,115.199996484375,10|2,0:0|0:0,0:0:0:0:
298,246,127934,2,0,P|243:227|202:188,1,115.199996484375,2|0,1:2|1:0,0:0:0:0:
276,34,128267,2,0,P|331:47|388:37,1,115.199996484375,10|0,0:0|0:0,0:0:0:0:
434,185,128600,5,0,1:0:0:0:
354,205,128767,1,2,1:2:0:0:
375,126,128934,1,10,0:0:0:0:
331,280,129100,5,2,0:0:0:0:
512,209,129267,1,2,1:2:0:0:
294,118,129434,1,0,1:0:0:0:
475,59,129600,1,10,0:0:0:0:
249,212,129767,6,0,P|146:149|27:187,1,230.39999296875,4|0,1:0|1:0,0:0:0:0:
128,320,130267,2,0,L|249:304,1,115.199996484375,10|0,0:0|0:0,0:0:0:0:
81,155,130600,2,0,L|44:37,1,115.199996484375,2|0,1:2|1:0,0:0:0:0:
235,63,130934,2,0,P|300:55|358:82,1,115.199996484375,10|0,0:0|0:0,0:0:0:0:
394,248,131267,6,0,B|332:288|266:257|266:257|242:219,1,172.799994726563,6|0,1:2|0:0,0:0:0:0:
333,299,131600,2,0,P|406:291|463:323,1,115.199996484375,8|0,0:0|0:0,0:0:0:0:
476,337,131850,1,2,0:0:0:0:
507,378,131934,1,2,1:2:0:0:
465,218,132100,1,2,1:2:0:0:
443,306,132267,1,10,0:0:0:0:
512,137,132434,6,0,B|493:89|493:89|478:74|478:74|455:31|409:-3,1,172.799994726563,4|0,1:0|0:0,0:0:0:0:
282,0,132767,1,0,1:0:0:0:
381,110,132934,2,0,P|392:170|392:230,1,115.199996484375,10|0,0:0|0:0,0:0:0:0:
267,384,133267,2,0,P|267:326|278:269,1,115.199996484375,2|0,1:2|1:0,0:0:0:0:
393,225,133600,2,0,P|453:229|512:246,1,115.199996484375,10|0,0:0|0:0,0:0:0:0:
188,306,133934,2,0,P|130:302|75:287,1,115.199996484375,0|2,1:2|1:2,0:0:0:0:
7,180,134267,5,8,0:0:0:0:
206,196,134434,1,2,0:0:0:0:
206,196,134517,1,2,0:0:0:0:
206,196,134600,2,0,L|180:65,1,115.199996484375,2|0,1:2|1:0,0:0:0:0:
289,251,134934,1,8,0:0:0:0:
421,93,135100,5,2,1:2:0:0:
311,54,135267,1,8,0:0:0:0:
91,291,135434,5,2,1:2:0:0:
201,330,135601,1,8,0:0:0:0:
406,101,135767,5,2,1:2:0:0:
296,62,135934,1,8,0:0:0:0:
116,285,136100,5,0,1:0:0:0:
163,300,136184,1,0,1:0:0:0:
209,319,136267,1,8,0:0:0:0:
416,237,136434,6,0,P|345:261|249:144,1,230.39999296875,4|0,1:0|1:0,0:0:0:0:
416,237,136934,2,0,L|406:359,1,115.199996484375,10|0,0:0|0:0,0:0:0:0:
157,368,137267,2,0,L|166:253,1,115.199996484375,2|0,1:2|1:0,0:0:0:0:
187,30,137600,1,8,0:0:0:0:
0,123,137767,6,0,P|15:215|118:211,1,172.799994726563,4|0,1:0|0:0,0:0:0:0:
82,231,138100,1,0,1:0:0:0:
187,30,138267,2,0,L|196:144,1,115.199996484375,10|0,0:0|0:0,0:0:0:0:
265,263,138600,1,2,1:2:0:0:
331,84,138767,1,0,1:0:0:0:
265,263,138934,1,10,0:0:0:0:
453,328,139100,2,0,P|502:302|511:247,1,115.199996484375,2|0,0:0|1:2,0:0:0:0:
405,122,139434,5,2,0:0:0:0:
458,186,139600,1,8,0:0:0:0:
375,199,139767,1,2,0:0:0:0:
478,74,139934,5,2,1:2:0:0:
320,261,140100,1,0,1:0:0:0:
511,247,140267,1,10,0:0:0:0:
294,79,140434,6,0,B|253:88|202:77|202:77|169:94|169:94|127:79|51:93,1,230.39999296875,6|0,1:2|1:2,0:0:0:0:
207,266,140934,2,0,P|229:201|199:143,1,115.199996484375,10|0,0:0|0:0,0:0:0:0:
189,371,141267,2,0,L|312:358,1,115.199996484375,2|0,1:2|1:0,0:0:0:0:
124,213,141600,2,0,L|9:200,1,115.199996484375,10|0,0:2|0:0,0:0:0:0:
90,362,141934,6,0,P|160:287|292:350,1,230.39999296875,6|10,1:2|0:0,0:0:0:0:
396,201,142434,1,2,0:0:0:0:
396,201,142517,1,2,0:0:0:0:
396,201,142600,1,2,1:2:0:0:
472,361,142767,1,2,1:2:0:0:
285,205,142934,1,10,0:0:0:0:
487,60,143100,6,0,P|393:93|301:11,1,230.39999296875,4|0,1:0|1:0,0:0:0:0:
169,146,143600,2,0,L|186:274,1,115.199996484375,10|0,0:0|0:0,0:0:0:0:
85,366,143934,1,2,1:2:0:0:
300,331,144100,1,0,1:0:0:0:
85,366,144267,2,0,P|59:301|67:253,1,115.199996484375,10|0,0:0|0:0,0:0:0:0:
169,146,144600,5,0,1:2:0:0:
308,221,144767,1,2,1:2:0:0:
260,141,144934,1,10,0:0:0:0:
392,259,145100,1,2,0:0:0:0:
506,86,145267,1,10,0:2:0:0:
470,62,145350,1,10,0:2:0:0:
428,51,145433,1,10,0:2:0:0:
385,55,145517,1,10,0:2:0:0:
346,72,145600,1,8,0:0:0:0:
91,93,145767,5,2,1:2:0:0:
201,54,145934,1,8,0:0:0:0:
421,291,146101,5,2,1:2:0:0:
311,330,146268,1,8,0:0:0:0:
106,101,146434,5,2,1:2:0:0:
216,62,146601,1,8,0:0:0:0:
396,285,146767,5,0,1:0:0:0:
349,300,146851,1,0,1:0:0:0:
303,319,146934,1,8,0:0:0:0:
96,237,147101,6,0,P|167:261|263:144,1,230.39999296875,4|0,1:0|1:0,0:0:0:0:
115,9,147600,2,0,L|132:134,1,105.600003222656,10|0,0:0|0:0,0:0:0:0:
59,218,147933,1,0,1:0:0:0:
258,358,148100,2,0,L|248:287,1,52.8000016113282,8|8,0:0|0:0,0:0:0:0:
183,243,148267,2,0,L|122:260,1,52.8000016113282,8|0,0:0|0:0,0:0:0:0:
297,107,148433,6,0,L|281:224,1,105.600003222656,4|2,1:0|0:0,0:0:0:0:
283,211,148683,1,2,0:0:0:0:
283,211,148767,1,0,1:2:0:0:
377,340,148933,2,0,P|433:356|479:335,1,105.600003222656,10|0,0:0|0:0,0:0:0:0:
446,213,149267,1,0,1:0:0:0:
443,190,149350,1,8,0:0:0:0:
439,166,149433,1,8,0:0:0:0:
436,143,149516,1,8,0:0:0:0:
433,119,149600,1,8,0:0:0:0:
352,28,149767,6,0,P|293:76|152:32,1,211.200006445313,4|0,1:0|1:0,0:0:0:0:
45,12,150267,2,0,L|56:134,1,105.600003222656,8|0,0:0|0:0,0:0:0:0:
216,186,150600,1,2,1:2:0:0:
86,365,150767,2,0,L|64:312,1,52.8000016113282,10|8,0:0|0:0,0:0:0:0:
115,250,150933,2,0,L|180:254,1,52.8000016113282,10|0,0:0|0:0,0:0:0:0:
298,384,151100,6,0,B|321:320|321:320|294:262|294:262|303:164,1,211.200006445313,6|0,1:2|1:0,0:0:0:0:
360,103,151517,1,0,1:0:0:0:
352,120,151600,2,0,L|333:178,1,52.8000016113282,8|0,0:0|0:0,0:0:0:0:
189,224,151767,6,0,P|171:144|221:18,1,211.200006445313,4|0,1:0|1:0,0:0:0:0:
298,21,152183,1,0,1:0:0:0:
312,22,152267,2,0,L|365:10,1,52.8000016113282,8|0,0:0|0:0,0:0:0:0:
498,130,152434,6,0,B|403:225|297:117,1,211.200006445313,4|0,1:0|1:0,0:0:0:0:
130,171,152934,1,10,0:0:0:0:
80,44,153100,1,0,1:0:0:0:
262,58,153267,1,10,0:0:0:0:
74,119,153434,1,0,1:0:0:0:
189,224,153600,1,10,0:0:0:0:
167,99,153767,5,4,1:0:0:0:
370,105,153934,1,2,0:0:0:0:
130,171,154100,1,0,1:0:0:0:
244,280,154267,1,10,0:0:0:0:
236,154,154434,1,0,1:0:0:0:
461,168,154600,5,10,0:0:0:0:
189,224,154767,1,0,1:0:0:0:
368,384,154934,1,10,0:0:0:0:
454,86,155100,6,0,P|379:115|267:36,1,211.200006445313,4|0,1:0|1:0,0:0:0:0:
108,67,155600,2,0,P|122:130|130:176,1,105.600003222656,8|0,0:0|0:0,0:0:0:0:
31,354,155934,5,2,1:2:0:0:
0,266,156100,1,2,1:2:0:0:
160,340,156267,5,10,0:2:0:0:
129,252,156433,1,2,0:2:0:0:
289,326,156601,5,2,1:2:0:0:
258,238,156767,1,2,1:2:0:0:
418,312,156934,5,8,0:2:0:0:
387,224,157100,2,0,L|365:109,1,105.600003222656,2|0,0:0|1:0,0:0:0:0:
512,0,157434,2,0,P|478:45|410:39,1,105.600003222656,2|8,1:2|0:0,0:0:0:0:
250,6,157767,6,0,P|168:42|183:176,1,211.200006445313,4|0,1:0|1:0,0:0:0:0:
276,262,158267,2,0,P|291:204|265:154,1,105.600003222656,8|0,0:0|0:0,0:0:0:0:
252,363,158600,2,0,L|372:344,1,105.600003222656,0|0,1:0|1:0,0:0:0:0:
145,348,158934,1,8,0:0:0:0:
99,256,159100,2,0,L|122:130,1,105.600003222656,4|0,1:2|0:0,0:0:0:0:
93,13,159434,6,0,L|40:3,1,52.8000016113282,0|0,1:0|1:0,0:0:0:0:
167,71,159600,2,0,P|216:52|274:69,1,105.600003222656,10|0,0:0|0:0,0:0:0:0:
410,167,159934,5,8,0:0:0:0:
335,215,160100,1,0,1:0:0:0:
333,309,160267,1,8,0:0:0:0:
404,368,160434,2,0,P|475:336|478:187,1,211.200006445313,4|0,1:0|1:0,0:0:0:0:
364,90,160934,2,0,B|317:67|317:67|255:96,1,105.600003222656,8|0,0:0|0:0,0:0:0:0:
121,192,161267,5,2,1:2:0:0:
72,109,161434,1,0,1:0:0:0:
131,210,161600,5,10,0:2:0:0:
228,209,161767,1,2,3:2:0:0:
110,208,161934,5,2,1:2:0:0:
62,293,162100,1,2,1:2:0:0:
207,348,162267,5,8,0:0:0:0:
244,232,162434,2,0,L|357:220,1,105.600003222656,2|0,0:0|1:0,0:0:0:0:
448,374,162767,1,2,1:2:0:0:
350,327,162934,1,10,0:0:0:0:
439,172,163100,6,0,B|327:156|359:257|208:226,1,211.200006445313,4|0,1:0|1:0,0:0:0:0:
383,41,163600,2,0,L|496:65,1,105.600003222656,8|0,0:0|0:0,0:0:0:0:
483,187,163934,1,0,1:0:0:0:
302,71,164100,1,0,1:0:0:0:
305,234,164267,2,0,L|197:212,1,105.600003222656,8|0,0:0|1:2,0:0:0:0:
201,212,164517,1,0,1:0:0:0:
201,212,164600,1,8,0:0:0:0:
336,61,164767,5,0,1:0:0:0:
108,37,164934,2,0,L|226:12,1,105.600003222656,8|2,0:0|1:2,0:0:0:0:
166,149,165267,1,8,0:0:0:0:
170,191,165350,1,8,0:0:0:0:
174,233,165433,1,8,0:0:0:0:
178,275,165516,1,8,0:0:0:0:
182,317,165600,1,8,0:0:0:0:
73,355,165767,6,0,B|123:339|123:339|193:369|296:350,1,211.200006445313,4|0,1:0|1:0,0:0:0:0:
454,222,166267,2,0,L|449:339,1,105.600003222656,8|0,0:0|0:0,0:0:0:0:
379,152,166600,5,2,3:2:0:0:
465,110,166767,1,0,1:0:0:0:
286,151,166934,5,8,0:0:0:0:
379,132,167101,1,4,1:2:0:0:
196,125,167267,5,2,0:0:0:0:
291,131,167434,1,0,1:0:0:0:
115,76,167600,5,8,0:0:0:0:
206,106,167767,1,2,0:0:0:0:
206,106,167934,1,0,1:0:0:0:
206,106,168100,1,2,1:2:0:0:
331,16,168267,1,8,0:0:0:0:
238,237,168434,6,0,B|239:321|325:362|325:362|388:343,1,211.200006445313,4|0,1:0|1:0,0:0:0:0:
504,262,168934,2,0,L|391:244,1,105.600003222656,10|0,0:0|0:0,0:0:0:0:
238,237,169267,1,0,1:0:0:0:
238,237,169434,1,0,1:0:0:0:
312,152,169600,2,0,L|199:134,1,105.600003222656,10|4,0:0|1:2,0:0:0:0:
46,127,169934,1,0,3:2:0:0:
46,127,170101,1,0,1:0:0:0:
120,42,170267,2,0,L|7:24,1,105.600003222656,10|0,0:0|0:0,0:0:0:0:
141,223,170600,5,2,1:2:0:0:
321,56,170767,1,0,1:0:0:0:
118,9,170934,1,10,0:0:0:0:
357,173,171100,6,0,P|433:140|425:7,1,211.200006445313,4|0,1:0|1:0,0:0:0:0:
243,158,171600,2,0,L|268:274,1,105.600003222656,10|0,0:0|0:0,0:0:0:0:
145,366,171934,5,2,1:2:0:0:
49,338,172100,1,0,1:0:0:0:
186,279,172267,5,10,0:0:0:0:
282,251,172433,1,2,0:0:0:0:
145,192,172601,5,2,1:2:0:0:
49,164,172767,2,0,L|31:54,1,105.600003222656,0|8,1:0|0:0,0:0:0:0:
264,146,173100,2,0,L|282:256,1,105.600003222656,2|0,0:0|1:0,0:0:0:0:
437,361,173434,1,2,1:2:0:0:
485,247,173600,1,10,0:0:0:0:
254,353,173767,6,0,B|212:346|212:346|179:350|179:350|119:330|36:345,1,211.200006445313,4|0,1:0|1:0,0:0:0:0:
185,160,174267,2,0,L|164:43,1,105.600003222656,8|0,0:0|0:0,0:0:0:0:
95,209,174600,1,0,1:0:0:0:
95,209,174767,1,0,1:0:0:0:
269,80,174934,2,0,L|373:103,1,105.600003222656,10|2,0:0|1:2,0:0:0:0:
378,110,175184,1,8,0:0:0:0:
378,110,175267,2,0,L|368:167,1,52.8000016113282,8|8,0:0|0:0,0:0:0:0:
491,319,175434,5,2,1:2:0:0:
491,319,175517,1,8,0:0:0:0:
491,319,175600,2,0,L|483:262,1,52.8000016113282,8|8,0:0|0:0,0:0:0:0:
512,158,175767,5,2,1:2:0:0:
512,158,175850,1,8,0:0:0:0:
512,158,175934,2,0,L|455:177,1,52.8000016113282,8|8,0:0|0:0,0:0:0:0:
325,268,176100,5,8,0:2:0:0:
261,267,176183,1,8,0:0:0:0:
216,222,176266,1,8,0:0:0:0:
210,158,176350,1,8,0:0:0:0:
244,104,176434,1,8,0:2:0:0:
306,89,176517,1,8,0:0:0:0:
362,116,176600,1,6,0:0:0:0:
95,282,180434,6,0,P|147:248|251:250,1,158.400004833985,4|0,1:0|0:0,0:0:0:0:
319,332,180767,6,0,L|376:317,1,52.8000016113282,8|0,0:0|0:0,0:0:0:0:
431,198,180933,6,0,L|407:148,1,52.8000016113282,8|0,0:0|0:0,0:0:0:0:
329,33,181100,6,0,L|308:91,1,52.8000016113282,8|8,0:0|0:0,0:0:0:0:
241,247,181267,5,8,0:0:0:0:
248,180,181350,1,8,0:0:0:0:
231,124,181434,1,8,0:0:0:0:
189,89,181517,1,8,0:0:0:0:
143,74,181600,1,8,0:0:0:0:
101,77,181684,1,8,0:0:0:0:
68,90,181767,1,8,3:0:0:0:
51,104,181850,1,4,3:0:0:0:
43,115,181934,6,0,L|52:147,1,28.8,2|0,3:0|0:0,0:0:0:0:
0,269,182267,6,0,B|46:223|117:225|117:225|125:179|138:144,1,201.599993847656,4|0,1:0|0:0,0:0:0:0:
209,44,182600,1,2,1:2:0:0:
440,144,182767,1,2,1:2:0:0:
231,232,182934,1,10,0:0:0:0:
483,42,183100,6,0,P|475:180|471:293,1,230.39999296875,4|0,1:0|1:0,0:0:0:0:
233,130,183600,2,0,L|364:162,1,115.199996484375,8|0,0:0|0:0,0:0:0:0:
242,313,183934,6,0,P|188:310|155:268,1,100.799996923828,2|0,1:2|0:0,0:0:0:0:
267,327,184267,6,0,P|177:323|129:232,1,172.799994726563,10|0,0:0|0:0,0:0:0:0:
39,227,184600,2,0,L|68:104,1,115.199996484375,2|0,1:2|0:0,0:0:0:0:
158,277,184934,1,8,0:0:0:0:
266,68,185100,1,2,0:0:0:0:
266,68,185184,1,2,0:0:0:0:
266,68,185267,2,0,L|380:34,1,115.199996484375,2|0,1:2|1:0,0:0:0:0:
167,32,185600,1,8,0:0:0:0:
340,220,185767,5,2,1:2:0:0:
426,158,185934,1,8,0:0:0:0:
174,273,186100,5,2,1:2:0:0:
88,211,186267,1,8,0:0:0:0:
316,342,186434,5,2,1:2:0:0:
189,140,186600,1,10,0:0:0:0:
199,71,186683,1,10,0:0:0:0:
240,23,186766,1,10,0:0:0:0:
296,8,186850,1,10,0:0:0:0:
341,17,186933,1,10,0:0:0:0:
369,36,187016,1,10,0:0:0:0:
383,54,187100,6,0,B|406:109|380:172|380:172|309:180,1,172.799994726563,4|0,1:0|0:0,0:0:0:0:
189,140,187434,1,0,1:0:0:0:
353,290,187600,2,0,L|324:159,1,115.199996484375,8|0,0:0|0:0,0:0:0:0:
512,3,187934,2,0,L|488:122,1,115.199996484375,2|0,1:2|1:0,0:0:0:0:
444,338,188267,1,10,0:0:0:0:
330,71,188434,6,0,P|235:127|234:238,1,230.39999296875,4|0,1:0|1:0,0:0:0:0:
53,52,188934,2,0,L|78:178,1,115.199996484375,8|0,0:0|0:0,0:0:0:0:
113,323,189267,6,0,P|167:326|200:368,1,100.799996923828,2|0,1:2|0:0,0:0:0:0:
88,309,189600,6,0,P|178:313|226:404,1,172.799994726563,10|0,0:0|0:0,0:0:0:0:
289,287,189934,2,0,L|258:163,1,115.199996484375,2|2,1:2|1:2,0:0:0:0:
422,274,190267,1,10,0:0:0:0:
496,117,190434,1,2,0:0:0:0:
498,216,190600,1,2,1:2:0:0:
322,133,190767,1,0,1:0:0:0:
405,69,190934,1,10,0:0:0:0:
331,226,191100,6,0,B|277:241|222:223|222:223|191:249|126:243,1,172.799994726563,4|0,1:0|0:0,0:0:0:0:
58,313,191434,1,0,1:0:0:0:
136,145,191600,2,0,P|144:80|158:29,1,115.199996484375,10|0,0:0|0:0,0:0:0:0:
142,237,191934,2,0,P|77:229|26:215,1,115.199996484375,2|0,1:2|1:0,0:0:0:0:
261,350,192267,1,10,0:0:0:0:
261,350,192434,1,0,0:0:0:0:
474,214,192600,6,0,P|427:219|376:188,1,100.799996923828,4|0,1:2|0:0,0:0:0:0:
501,220,192934,6,0,P|421:238|351:177,1,172.799994726563,10|0,0:0|0:0,0:0:0:0:
266,172,193267,1,2,1:2:0:0:
219,0,193434,1,2,1:2:0:0:
300,68,193600,1,10,0:0:0:0:
203,260,193767,6,0,B|122:227|46:238|46:238|-1:311,1,230.39999296875,4|0,1:0|1:0,0:0:0:0:
242,350,194267,2,0,P|310:340|371:335,1,115.199996484375,8|0,0:0|0:0,0:0:0:0:
240,172,194600,1,2,1:2:0:0:
203,260,194767,1,0,1:0:0:0:
369,166,194934,1,10,0:0:0:0:
332,78,195101,1,0,0:0:0:0:
132,160,195267,5,0,1:0:0:0:
73,99,195434,1,2,1:2:0:0:
155,80,195600,1,10,0:0:0:0:
66,221,195767,5,2,0:0:0:0:
240,172,195934,1,2,1:2:0:0:
184,0,196100,1,0,1:0:0:0:
8,43,196267,1,10,0:0:0:0:
248,84,196434,5,2,1:2:0:0:
337,44,196600,1,8,0:0:0:0:
233,366,196767,5,2,1:2:0:0:
322,326,196933,1,8,0:0:0:0:
326,144,197100,5,2,1:2:0:0:
415,104,197266,1,8,0:0:0:0:
167,295,197434,5,0,1:0:0:0:
212,275,197517,1,0,1:0:0:0:
256,255,197600,1,8,0:0:0:0:
504,204,197767,6,0,B|464:215|434:201|434:201|396:240|334:232,1,172.799994726563,4|0,1:0|0:0,0:0:0:0:
297,151,198100,1,0,1:0:0:0:
455,54,198267,2,0,L|430:175,1,115.199996484375,14|0,0:2|0:0,0:0:0:0:
342,323,198600,1,0,1:0:0:0:
249,285,198767,1,0,1:0:0:0:
429,288,198934,1,10,0:0:0:0:
159,322,199100,6,0,L|127:200,1,115.199996484375,6|0,1:2|0:0,0:0:0:0:
159,322,199434,1,0,1:0:0:0:
280,67,199600,2,0,L|250:178,1,115.199996484375,8|0,0:2|0:0,0:0:0:0:
158,104,199934,2,0,P|101:95|38:88,1,115.199996484375,2|0,1:2|1:0,0:0:0:0:
339,208,200267,2,0,P|396:201|453:192,1,115.199996484375,10|0,0:0|0:0,0:0:0:0:
465,34,200600,5,2,1:2:0:0:
453,191,200767,1,2,0:0:0:0:
465,34,200934,2,0,P|395:23|336:44,1,115.199996484375,10|0,0:0|0:0,0:0:0:0:
188,162,201267,1,2,1:2:0:0:
234,67,201434,1,0,1:0:0:0:
196,260,201600,1,10,0:0:0:0:
221,120,201767,6,0,B|281:110|281:110|320:157|411:155,1,172.799994726563,6|0,1:2|0:0,0:0:0:0:
453,191,202100,1,0,1:0:0:0:
319,369,202267,2,0,P|322:312|335:238,1,115.199996484375,10|0,0:0|0:0,0:0:0:0:
319,369,202600,2,0,P|266:355|188:353,1,115.199996484375,2|0,1:2|1:0,0:0:0:0:
333,169,202934,2,0,P|330:112|317:38,1,115.199996484375,10|0,0:0|0:0,0:0:0:0:
37,117,203267,6,0,P|113:128|131:148,1,100.799996923828,4|0,1:0|0:0,0:0:0:0:
9,107,203600,6,0,P|113:102|160:163,1,172.799994726563,10|0,0:0|0:0,0:0:0:0:
99,273,203934,1,2,1:2:0:0:
200,345,204100,1,2,1:2:0:0:
204,223,204267,1,10,0:0:0:0:
43,323,204434,6,0,B|131:304|131:304|164:318|164:318|203:308|269:316,1,230.39999296875,4|0,1:0|1:0,0:0:0:0:
450,251,204934,2,0,P|457:189|449:132,1,115.199996484375,10|0,0:0|0:0,0:0:0:0:
267,201,205267,2,0,P|260:258|267:315,1,115.199996484375,2|0,1:2|1:0,0:0:0:0:
368,98,205600,2,0,P|343:40|307:-4,1,115.199996484375,10|0,0:0|0:0,0:0:0:0:
357,323,205934,2,0,P|403:357|455:379,1,115.199996484375,2|0,1:2|0:0,0:0:0:0:
347,182,206267,5,8,0:0:0:0:
272,248,206434,1,2,0:0:0:0:
101,134,206600,1,2,1:2:0:0:
286,30,206767,1,0,1:0:0:0:
265,126,206934,1,10,0:0:0:0:
148,235,207100,5,10,0:0:0:0:
97,248,207184,1,10,0:0:0:0:
46,261,207267,1,10,0:0:0:0:
364,149,207433,5,10,0:0:0:0:
415,136,207517,1,10,0:0:0:0:
466,123,207600,1,10,0:0:0:0:
148,149,207766,5,10,0:0:0:0:
97,136,207850,1,10,0:0:0:0:
46,123,207933,1,10,0:0:0:0:
364,235,208100,5,10,0:0:0:0:
415,248,208184,1,10,0:0:0:0:
466,261,208267,1,10,0:0:0:0:
256,352,208434,6,0,B|282:222|229:248|258:122,1,230.39999296875,4|0,1:0|1:0,0:0:0:0:
397,9,208934,2,0,L|380:134,1,105.600003222656,10|0,0:0|0:0,0:0:0:0:
453,218,209267,1,0,1:0:0:0:
256,352,209434,2,0,L|266:281,1,52.8000016113282,8|8,0:0|0:0,0:0:0:0:
329,243,209601,2,0,L|390:260,1,52.8000016113282,8|0,0:0|0:0,0:0:0:0:
257,124,209767,6,0,L|140:140,1,105.600003222656,4|2,1:0|0:0,0:0:0:0:
153,138,210017,1,2,0:0:0:0:
153,138,210101,1,0,1:2:0:0:
135,340,210267,2,0,P|79:356|33:335,1,105.600003222656,10|0,0:0|0:0,0:0:0:0:
192,244,210601,1,0,1:0:0:0:
215,247,210684,1,8,0:0:0:0:
239,251,210767,1,8,0:0:0:0:
262,254,210850,1,8,0:0:0:0:
286,257,210934,1,8,0:0:0:0:
440,147,211101,6,0,P|342:178|256:123,1,211.200006445313,4|0,1:0|1:0,0:0:0:0:
440,147,211601,2,0,L|429:269,1,105.600003222656,8|0,0:0|0:0,0:0:0:0:
286,257,211934,1,2,1:2:0:0:
437,379,212101,2,0,L|459:326,1,52.8000016113282,10|8,0:0|0:0,0:0:0:0:
336,349,212267,2,0,L|271:353,1,52.8000016113282,10|0,0:0|0:0,0:0:0:0:
175,324,212434,6,0,P|187:237|135:110,1,211.200006445313,6|0,1:2|1:0,0:0:0:0:
66,54,212851,1,0,1:0:0:0:
58,71,212934,2,0,L|39:129,1,52.8000016113282,8|0,0:0|0:0,0:0:0:0:
71,308,213101,6,0,P|151:326|277:276,1,211.200006445313,4|0,1:0|1:0,0:0:0:0:
365,336,213517,1,0,1:0:0:0:
366,322,213601,2,0,L|354:269,1,52.8000016113282,8|0,0:0|0:0,0:0:0:0:
285,152,213767,6,0,B|351:127|351:127|376:126|376:126|443:106|495:107,1,211.200006445313,4|0,1:0|1:0,0:0:0:0:
338,228,214267,1,10,0:0:0:0:
379,44,214434,1,0,1:0:0:0:
261,171,214600,1,10,0:0:0:0:
200,22,214767,1,0,1:0:0:0:
361,127,214934,1,10,0:0:0:0:
181,265,215100,6,0,P|116:218|15:225,1,158.400004833985,4|0,1:0|0:0,0:0:0:0:
40,215,215434,1,0,1:0:0:0:
231,345,215600,1,10,0:0:0:0:
261,171,215767,1,0,1:0:0:0:
338,228,215934,1,10,0:0:0:0:
152,243,216100,1,0,1:0:0:0:
397,136,216267,1,10,0:0:0:0:
216,75,216434,6,0,L|232:188,1,105.600003222656,4|0,1:0|0:0,0:0:0:0:
152,243,216767,1,0,1:0:0:0:
144,2,216934,1,10,0:0:0:0:
216,75,217100,1,0,1:0:0:0:
74,177,217267,1,10,0:0:0:0:
322,246,217434,1,0,1:0:0:0:
191,335,217600,1,10,0:0:0:0:
354,146,217767,6,0,L|468:187,1,105.600003222656,4|0,1:0|0:0,0:0:0:0:
325,331,218100,1,0,1:0:0:0:
154,157,218267,1,10,0:0:0:0:
241,107,218434,1,0,1:0:0:0:
23,15,218600,1,10,0:0:0:0:
55,173,218767,1,0,1:0:0:0:
87,331,218934,1,10,0:0:0:0:
23,15,219100,1,4,1:0:0:0:
256,192,219184,12,4,221767,1:0:0:0:
