osu file format v14

[General]
AudioFilename: audio.mp3
AudioLeadIn: 0
PreviewTime:29578
Countdown: 0
SampleSet: Soft
StackLeniency: 0.7
Mode: 0
LetterboxInBreaks: 0
WidescreenStoryboard: 1

[Editor]
DistanceSpacing: 2.5
BeatDivisor: 4
GridSize: 8
TimelineZoom: 1.4

[Metadata]
Title:La Di Da (Nightcore & Cut Ver.)
TitleUnicode:La Di Da (Nightcore & Cut Ver.)
Artist:Baracuda
ArtistUnicode:Baracuda
Creator:Sotarks
Version:Insane
Source:
Tags:english pop electronic dance speed sped up short version xahlt gweon sua gweon_sua kuon- ladida night core
BeatmapID:3651278
BeatmapSetID:1782890

[Difficulty]
HPDrainRate:4.8
CircleSize:3.5
OverallDifficulty:7.8
ApproachRate:8
SliderMultiplier:1.52
SliderTickRate:1

[Events]
//Background and Video events
0,0,"bg.jpg",0,0
//Break Periods
//Storyboard Layer 0 (Background)
//Storyboard Layer 1 (Fail)
//Storyboard Layer 2 (Pass)
//Storyboard Layer 3 (Foreground)
//Storyboard Layer 4 (Overlay)
//Storyboard Sound Samples

[TimingPoints]
1240,369.230769230769,4,2,22,52,1,0
1240,-138.888888888889,4,2,22,52,0,0
7147,-138.888888888889,4,2,22,62,0,0
30778,-98.0392156862746,4,2,22,82,0,0

[Colours]
Combo1 : 162,116,199
Combo2 : 67,90,184

[HitObjects]
464,121,1240,6,0,P|395:117|336:85,1,109.440002671875,2|0,0:0|0:0,0:0:0:0:
175,21,1978,2,0,P|169:47|160:73,1,54.7200013359375,2|0,0:0|0:0,0:0:0:0:
99,146,2347,2,0,P|104:172|113:198,1,54.7200013359375
165,272,2716,2,0,P|175:336|183:414,1,109.440002671875,2|0,0:0|0:0,0:0:0:0:
317,269,3455,2,0,P|342:279|368:285,1,54.7200013359375,2|0,0:0|0:0,0:0:0:0:
461,333,3824,1,0,0:0:0:0:
461,333,4009,1,0,0:0:0:0:
489,213,4193,6,0,P|491:144|467:86,1,109.440002671875,2|0,0:0|0:0,0:0:0:0:
258,141,4932,2,0,P|231:133|206:122,1,54.7200013359375,2|0,0:0|0:0,0:0:0:0:
218,31,5301,2,0,P|193:19|166:12,1,54.7200013359375
103,71,5670,2,0,P|39:103|-23:85,1,109.440002671875,2|0,0:0|0:0,0:0:0:0:
106,255,6409,2,0,P|113:281|125:305,1,54.7200013359375,2|0,0:0|0:0,0:0:0:0:
55,366,6778,1,2,0:0:0:0:
55,366,6963,1,0,0:0:0:0:
188,384,7147,6,0,P|216:349|298:359,1,109.440002671875,2|0,0:0|0:0,0:0:0:0:
354,384,7701,1,0,0:0:0:0:
413,314,7886,2,0,P|389:263|376:197,1,109.440002671875,2|0,0:0|0:0,0:0:0:0:
405,123,8439,2,0,P|377:119|351:111,1,54.7200013359375,2|0,0:0|0:0,0:0:0:0:
293,183,8809,2,0,B|245:197|245:197|220:188|220:188|176:200,2,109.440002671875,2|0|2,0:0|0:0|0:0,0:0:0:0:
217,108,9732,1,0,0:0:0:0:
262,34,9916,1,2,0:0:0:0:
125,31,10101,6,0,P|104:87|147:152,1,109.440002671875,2|0,0:0|0:0,0:0:0:0:
188,196,10655,1,0,0:0:0:0:
137,274,10839,2,0,P|145:299|159:405,1,109.440002671875,2|2,0:0|0:0,0:0:0:0:
245,321,11393,2,0,P|282:264|421:291,1,218.88000534375,2|0,0:0|0:0,0:0:0:0:
415,283,12501,1,2,0:0:0:0:
466,215,12686,1,0,0:0:0:0:
413,144,12870,1,2,0:0:0:0:
429,54,13055,6,0,P|396:60|354:79,1,54.7200013359375,2|0,0:0|0:0,0:0:0:0:
272,100,13424,2,0,P|284:69|288:23,1,54.7200013359375,2|0,0:0|0:0,0:0:0:0:
208,28,13793,2,0,P|196:59|192:105,1,54.7200013359375,2|0,0:0|0:0,0:0:0:0:
252,185,14163,1,2,0:0:0:0:
151,167,14347,2,0,P|81:185|40:214,1,109.440002671875,2|0,0:0|0:0,0:0:0:0:
50,204,15086,2,0,L|66:269,1,54.7200013359375,2|0,0:0|0:0,0:0:0:0:
150,279,15455,2,0,L|166:344,1,54.7200013359375,2|0,0:0|0:0,0:0:0:0:
245,384,15824,1,0,0:0:0:0:
315,317,16009,5,0,0:0:0:0:
315,317,16378,2,0,P|357:327|383:327,1,54.7200013359375,2|0,0:0|0:0,0:0:0:0:
445,262,16747,2,0,B|431:223|431:223|437:200|437:200|419:159,1,109.440002671875,2|0,0:0|0:0,0:0:0:0:
447,48,17301,2,0,P|401:133|279:118,1,218.88000534375,2|0,0:0|0:0,0:0:0:0:
290,127,18408,1,2,0:0:0:0:
220,59,18593,1,2,0:0:0:0:
122,83,18778,1,2,0:0:0:0:
92,178,18962,6,0,P|153:181|209:127,1,109.440002671875,2|0,0:0|0:0,0:0:0:0:
246,219,19516,1,2,0:0:0:0:
334,180,19701,2,0,P|326:228|312:305,1,109.440002671875,2|0,0:0|0:0,0:0:0:0:
414,378,20255,2,0,P|405:344|393:317,1,54.7200013359375,2|0,0:0|0:0,0:0:0:0:
455,263,20624,2,0,P|446:229|434:202,1,54.7200013359375,2|0,0:0|0:0,0:0:0:0:
435,98,20993,2,0,P|397:148|343:135,1,109.440002671875,2|0,0:0|0:0,0:0:0:0:
274,92,21547,1,2,0:0:0:0:
201,147,21732,1,2,0:0:0:0:
116,102,21916,6,0,P|68:77|16:89,1,109.440002671875,2|0,0:0|0:0,0:0:0:0:
61,172,22470,1,0,0:0:0:0:
27,264,22655,2,0,L|154:229,1,109.440002671875,2|0,0:0|0:0,0:0:0:0:
187,148,23209,2,0,B|176:196|166:231|166:231|191:276|191:276|173:326|164:373,1,218.88000534375,2|0,0:0|0:0,0:0:0:0:
167,354,24316,1,2,0:0:0:0:
261,306,24501,1,0,0:0:0:0:
338,369,24686,1,2,0:0:0:0:
427,321,24870,6,0,B|411:264|424:269|408:213,1,109.440002671875,2|0,0:0|0:0,0:0:0:0:
257,89,25609,2,0,B|272:145|259:140|275:196,1,109.440002671875,2|2,0:0|0:0,0:0:0:0:
182,165,26163,2,0,P|156:174|129:180,1,54.7200013359375,2|0,0:0|0:0,0:0:0:0:
157,268,26532,2,0,P|210:252|230:241,1,54.7200013359375,2|0,0:0|0:0,0:0:0:0:
271,334,26901,2,0,P|211:365|151:364,2,109.440002671875,2|2|0,0:0|0:0|0:0,0:0:0:0:
357,284,27824,6,0,L|349:355,1,54.7200013359375,0|2,0:0|0:0,0:0:0:0:
433,367,28193,2,0,L|439:312,1,54.7200013359375,2|0,0:0|0:0,0:0:0:0:
491,247,28563,2,0,L|468:135,1,109.440002671875,2|0,0:0|0:0,0:0:0:0:
369,75,29116,2,0,L|391:182,1,109.440002671875,2|0,0:0|0:0,0:0:0:0:
348,282,29670,5,2,0:0:0:0:
407,0,30039,1,2,0:0:0:0:
407,0,30778,6,0,P|370:22|320:18,1,77.5200004731445,6|0,1:2|0:2,0:2:0:0:
163,122,31147,2,0,P|200:100|250:104,1,77.5200004731445,10|0,0:2|0:2,0:2:0:0:
329,185,31516,2,0,P|318:248|307:324,1,116.280000709717,2|0,1:2|0:0,0:2:0:0:
306,329,31886,2,0,P|269:351|219:347,1,77.5200004731445,8|2,0:2|3:2,0:0:0:0:
62,194,32255,5,2,1:2:0:0:
112,347,32439,1,2,0:2:0:0:
231,127,32624,1,10,0:2:0:0:
181,280,32808,1,2,0:2:0:0:
106,41,32993,1,2,1:2:0:0:
156,194,33177,1,2,0:2:0:0:
311,62,33363,1,10,0:2:0:0:
261,215,33547,1,2,3:2:0:0:
401,14,33732,6,0,P|418:70|437:104,1,77.5200004731445,2|0,1:2|0:0,0:2:0:0:
487,274,34101,2,0,P|502:238|512:201,1,77.5200004731445,10|0,0:2|0:2,0:0:0:0:
258,168,34470,2,0,P|294:220|367:209,1,116.280000709717,2|0,1:2|0:0,0:2:0:0:
374,214,34839,2,0,L|354:117,1,77.5200004731445,8|2,0:2|3:2,0:0:0:0:
169,244,35209,5,2,1:2:0:0:
271,78,35393,1,2,0:2:0:0:
110,133,35578,1,10,0:2:0:0:
302,263,35763,1,2,3:2:0:0:
152,366,35947,1,2,1:2:0:0:
244,185,36132,1,2,0:2:0:0:
380,365,36316,1,10,0:2:0:0:
203,272,36501,1,2,3:2:0:0:
349,161,36686,6,0,P|402:171|432:186,1,77.5200004731445,2|0,1:2|0:2,0:2:0:0:
256,20,37055,2,0,P|261:58|275:94,1,77.5200004731445,10|0,0:2|0:2,0:2:0:0:
71,153,37424,2,0,P|127:81|169:87,1,116.280000709717,2|0,1:2|0:0,0:2:0:0:
173,84,37793,2,0,L|183:160,1,77.5200004731445,8|2,0:2|3:2,0:0:0:0:
65,358,38163,5,2,1:2:0:0:
116,233,38347,1,2,0:2:0:0:
263,310,38532,1,10,0:2:0:0:
212,185,38716,1,2,0:2:0:0:
332,383,38901,1,2,1:2:0:0:
383,258,39085,1,2,0:2:0:0:
512,316,39270,1,10,0:2:0:0:
461,191,39454,1,2,0:2:0:0:
263,310,39639,6,0,P|207:337|166:337,1,77.5200004731445,2|0,1:2|0:2,0:2:0:0:
276,129,40009,2,0,P|313:137|346:157,1,77.5200004731445,10|0,0:2|0:2,0:2:0:0:
158,207,40378,2,0,P|139:146|118:110,1,77.5200004731445,2|0,1:2|0:2,0:2:0:0:
391,286,40747,2,0,P|375:321|365:358,1,77.5200004731445,10|0,0:2|3:2,0:2:0:0:
275,224,41116,5,6,1:2:0:0:
275,224,41301,1,0,0:2:0:0:
459,135,41486,1,8,0:2:0:0:
459,135,41670,1,0,0:2:0:0:
274,38,41855,5,2,1:2:0:0:
391,286,42039,1,0,0:2:0:0:
274,51,42224,1,10,0:2:0:0:
390,304,42409,1,2,3:2:0:0:
224,139,42593,6,0,P|173:122|121:125,1,77.5200004731445,6|0,1:2|0:2,0:2:0:0:
343,197,42963,2,0,P|373:173|396:142,1,77.5200004731445,10|0,0:2|3:2,0:2:0:0:
230,257,43332,2,0,P|241:329|300:375,1,116.280000709717,2|0,1:2|0:0,0:2:0:0:
299,368,43701,2,0,L|376:336,1,77.5200004731445,8|2,0:2|3:2,0:0:0:0:
192,179,44070,5,2,1:2:0:0:
364,226,44255,1,2,0:2:0:0:
203,94,44439,1,10,0:2:0:0:
338,36,44624,1,2,0:2:0:0:
192,179,44809,1,2,1:2:0:0:
416,70,44993,1,2,3:2:0:0:
230,257,45178,1,10,0:2:0:0:
411,98,45363,1,2,3:2:0:0:
369,332,45547,6,0,P|358:272|339:239,1,77.5200004731445,2|0,1:2|0:2,0:2:0:0:
299,84,45916,2,0,P|285:120|281:158,1,77.5200004731445,10|0,0:2|0:2,0:2:0:0:
120,296,46286,2,0,L|263:245,1,116.280000709717,2|0,1:2|0:0,0:2:0:0:
260,243,46655,2,0,P|274:279|278:317,1,77.5200004731445,8|2,0:2|3:2,0:0:0:0:
148,171,47024,5,2,1:2:0:0:
194,360,47209,1,2,0:2:0:0:
131,145,47393,1,10,0:2:0:0:
85,334,47578,1,2,3:2:0:0:
187,90,47763,1,2,1:2:0:0:
233,279,47948,1,2,3:2:0:0:
88,73,48132,1,10,0:2:0:0:
42,262,48317,1,2,3:2:0:0:
204,73,48501,6,0,P|265:57|299:59,1,77.5200004731445,2|0,1:2|0:0,0:2:0:0:
308,262,48870,2,0,P|247:278|213:276,1,77.5200004731445,10|0,0:2|0:2,0:0:0:0:
98,157,49239,2,0,B|149:164|149:164|165:181|165:181|223:190,1,116.280000709717,2|0,1:2|0:0,0:2:0:0:
236,178,49609,2,0,P|277:159|319:156,1,77.5200004731445,8|2,0:2|3:2,0:0:0:0:
460,71,49978,5,2,1:2:0:0:
343,242,50163,1,2,0:2:0:0:
263,65,50347,1,10,0:2:0:0:
457,181,50532,1,2,0:2:0:0:
236,324,50716,1,2,1:2:0:0:
315,155,50901,1,2,3:2:0:0:
163,374,51086,1,10,0:2:0:0:
343,242,51270,1,2,0:2:0:0:
103,162,51455,6,0,P|121:210|131:261,1,77.5200004731445,2|0,1:2|0:2,0:2:0:0:
315,155,51824,2,0,P|297:107|287:56,1,77.5200004731445,10|0,0:2|0:2,0:2:0:0:
70,147,52193,2,0,P|88:195|98:246,1,77.5200004731445,2|0,1:2|0:2,0:2:0:0:
347,170,52563,2,0,P|329:122|319:71,1,77.5200004731445,10|0,0:2|3:2,0:2:0:0:
197,273,52932,5,6,1:2:0:0:
197,273,53116,1,0,0:2:0:0:
214,41,53301,1,8,0:2:0:0:
214,41,53486,1,0,3:2:0:0:
94,220,53670,5,0,1:2:0:0:
322,96,53855,1,0,0:2:0:0:
78,253,54039,1,8,0:2:0:0:
336,69,54224,1,0,0:2:0:0:
