osu file format v14

[General]
AudioFilename: audio.mp3
AudioLeadIn: 0
PreviewTime:29578
Countdown: 0
SampleSet: Soft
StackLeniency: 0.7
Mode: 0
LetterboxInBreaks: 0
WidescreenStoryboard: 1

[Editor]
DistanceSpacing: 1.8
BeatDivisor: 4
GridSize: 4
TimelineZoom: 1.4

[Metadata]
Title:La Di Da (Nightcore & Cut Ver.)
TitleUnicode:La Di Da (Nightcore & Cut Ver.)
Artist:Baracuda
ArtistUnicode:Baracuda
Creator:Sotarks
Version:Hard
Source:
Tags:english pop electronic dance speed sped up short version xahlt gweon sua gweon_sua kuon- ladida night core
BeatmapID:3651316
BeatmapSetID:1782890

[Difficulty]
HPDrainRate:4
CircleSize:3.3
OverallDifficulty:7
ApproachRate:7.4
SliderMultiplier:1.42
SliderTickRate:1

[Events]
//Background and Video events
0,0,"bg.jpg",0,0
//Break Periods
//Storyboard Layer 0 (Background)
//Storyboard Layer 1 (Fail)
//Storyboard Layer 2 (Pass)
//Storyboard Layer 3 (Foreground)
//Storyboard Layer 4 (Overlay)
//Storyboard Sound Samples

[TimingPoints]
1240,369.230769230769,4,2,22,52,1,0
1240,-138.888888888889,4,2,22,52,0,0
7147,-138.888888888889,4,2,22,62,0,0
30778,-98.0392156862746,4,2,22,82,0,0

[Colours]
Combo1 : 162,116,199
Combo2 : 67,90,184

[HitObjects]
38,110,1240,6,0,P|107:114|166:146,1,102.240002496094,2|0,0:0|0:0,0:0:0:0:
296,35,1978,2,0,P|302:61|311:87,1,51.1200012480469,2|0,0:0|0:0,0:0:0:0:
399,105,2347,2,0,P|390:129|386:154,1,51.1200012480469
351,239,2716,2,0,P|285:245|232:268,1,102.240002496094,2|0,0:0|0:0,0:0:0:0:
67,242,3455,2,0,P|65:272|55:304,2,51.1200012480469,2|0|0,0:0|0:0|0:0,0:0:0:0:
102,159,4009,1,0,0:0:0:0:
102,159,4193,6,0,P|75:95|108:44,1,102.240002496094,2|0,0:0|0:0,0:0:0:0:
219,193,4932,2,0,P|242:202|267:210,1,51.1200012480469,2|0,0:0|0:0,0:0:0:0:
259,118,5301,2,0,P|283:110|307:100,1,51.1200012480469
357,22,5670,2,0,P|421:54|483:36,1,102.240002496094,2|0,0:0|0:0,0:0:0:0:
479,233,6409,2,0,P|486:259|498:283,2,51.1200012480469,2|0|2,0:0|0:0|0:0,0:0:0:0:
388,248,6963,1,0,0:0:0:0:
388,248,7147,6,0,P|360:213|278:223,1,102.240002496094,2|0,0:0|0:0,0:0:0:0:
234,263,7701,1,0,0:0:0:0:
234,263,7886,2,0,L|208:154,1,102.240002496094,2|0,0:0|0:0,0:0:0:0:
132,115,8439,2,0,L|110:204,1,51.1200012480469,2|0,0:0|0:0,0:0:0:0:
106,258,8809,2,0,B|56:250|56:250|48:254|48:254|-3:246,2,102.240002496094,2|0|2,0:0|0:0|0:0,0:0:0:0:
87,172,9732,1,0,0:0:0:0:
87,172,9916,1,2,0:0:0:0:
18,110,10101,6,0,P|14:48|48:19,1,102.240002496094,2|0,0:0|0:0,0:0:0:0:
131,29,10655,1,0,0:0:0:0:
131,29,10839,2,0,L|256:51,1,102.240002496094,2|2,0:0|0:0,0:0:0:0:
293,115,11393,2,0,P|359:43|453:66,1,204.480004992188,2|0,0:0|0:0,0:0:0:0:
453,66,12501,2,0,L|466:17,2,51.1200012480469,2|0|2,0:0|0:0|0:0,0:0:0:0:
454,158,13055,6,0,P|421:164|379:183,1,51.1200012480469,2|0,0:0|0:0,0:0:0:0:
316,198,13424,2,0,P|291:205|266:209,1,51.1200012480469,2|0,0:0|0:0,0:0:0:0:
177,233,13793,2,0,L|191:113,1,102.240002496094,2|2,0:0|0:0,0:0:0:0:
142,51,14347,1,2,0:0:0:0:
286,164,14716,1,0,0:0:0:0:
396,16,15086,2,0,P|455:10|499:53,2,102.240002496094,2|2|0,0:0|0:0|0:0,0:0:0:0:
328,78,16009,5,0,0:0:0:0:
397,252,16378,2,0,P|422:248|446:241,1,51.1200012480469,2|0,0:0|0:0,0:0:0:0:
449,149,16747,2,0,P|407:145|337:190,1,102.240002496094,2|0,0:0|0:0,0:0:0:0:
305,249,17301,2,0,B|193:278|227:175|101:210,1,204.480004992188,2|0,0:0|0:0,0:0:0:0:
115,206,18409,2,0,L|100:119,2,51.1200012480469,2|2|2,0:0|0:0|0:0,0:0:0:0:
70,286,18962,6,0,P|114:308|165:303,1,102.240002496094,2|0,0:0|0:0,0:0:0:0:
240,249,19516,1,0,0:0:0:0:
240,249,19701,2,0,P|248:297|262:374,1,102.240002496094,2|0,0:0|0:0,0:0:0:0:
346,375,20255,2,0,P|355:341|367:314,1,51.1200012480469,2|0,0:0|0:0,0:0:0:0:
329,239,20624,2,0,P|338:205|350:178,1,51.1200012480469,2|0,0:0|0:0,0:0:0:0:
360,99,20993,2,0,P|336:142|287:148,1,102.240002496094,2|0,0:0|0:0,0:0:0:0:
205,105,21547,1,2,0:0:0:0:
138,168,21732,1,2,0:0:0:0:
138,168,21916,6,0,P|90:143|38:155,1,102.240002496094,2|0,0:0|0:0,0:0:0:0:
31,245,22470,1,0,0:0:0:0:
31,245,22655,2,0,P|79:270|131:258,1,102.240002496094,2|0,0:0|0:0,0:0:0:0:
208,224,23209,2,0,B|249:220|281:208|281:208|332:234|332:234|371:220|425:213,1,204.480004992188,2|0,0:0|0:0,0:0:0:0:
402,216,24316,2,0,L|386:313,2,51.1200012480469,2|0|2,0:0|0:0|0:0,0:0:0:0:
417,128,24870,5,2,0:0:0:0:
417,128,25239,1,0,0:0:0:0:
273,21,25609,1,2,0:0:0:0:
273,21,25978,1,0,0:0:0:0:
193,67,26163,2,0,P|168:61|144:52,1,51.1200012480469,2|0,0:0|0:0,0:0:0:0:
113,139,26532,2,0,P|136:147|161:153,1,51.1200012480469,2|0,0:0|0:0,0:0:0:0:
251,173,26901,2,0,B|257:236|262:232|271:313,2,102.240002496094,2|2|0,0:0|0:0|0:0,0:0:0:0:
298,93,27824,6,0,L|372:110,1,51.1200012480469,0|2,0:0|0:0,0:0:0:0:
403,177,28193,2,0,L|477:194,1,51.1200012480469,2|0,0:0|0:0,0:0:0:0:
488,274,28563,2,0,L|347:306,1,102.240002496094,2|0,0:0|0:0,0:0:0:0:
313,350,29116,2,0,L|172:382,1,102.240002496094,2|0,0:0|0:0,0:0:0:0:
131,330,29670,1,2,0:0:0:0:
282,225,30039,1,2,0:0:0:0:
0,110,30778,6,0,P|20:149|35:207,1,72.4200004420166,6|0,1:2|0:2,0:2:0:0:
109,312,31147,2,0,P|120:277|137:245,1,72.4200004420166,10|0,0:2|0:2,0:2:0:0:
232,155,31516,2,0,P|165:160|113:99,1,144.840000884033,2|8,1:2|0:2,0:2:0:0:
218,27,32070,1,2,3:2:0:0:
329,94,32255,6,0,P|405:69|432:68,1,72.4200004420166,2|2,1:2|0:2,0:0:0:0:
510,133,32624,1,10,0:2:0:0:
510,133,32809,1,2,0:2:0:0:
451,249,32993,2,0,P|375:224|348:223,1,72.4200004420166,2|2,1:2|0:2,0:0:0:0:
280,306,33363,1,10,0:2:0:0:
280,306,33547,1,2,0:2:0:0:
156,262,33732,6,0,P|174:182|173:160,1,72.4200004420166,2|0,1:2|0:2,0:2:0:0:
272,106,34101,2,0,P|277:141|289:175,1,72.4200004420166,10|0,0:2|0:2,0:2:0:0:
389,260,34470,2,0,L|419:81,1,144.840000884033,2|8,1:2|0:2,0:2:0:0:
348,3,35024,1,2,3:2:0:0:
272,106,35209,2,0,P|221:125|171:114,1,72.4200004420166,2|2,1:2|0:2,0:0:0:0:
93,54,35578,1,10,0:2:0:0:
93,54,35763,1,2,0:2:0:0:
23,163,35947,2,0,P|47:201|56:244,1,72.4200004420166,2|2,1:2|0:2,0:0:0:0:
30,355,36316,1,10,0:2:0:0:
30,355,36501,1,2,3:2:0:0:
142,288,36686,6,0,P|217:303|235:315,1,72.4200004420166,2|0,1:2|0:2,0:2:0:0:
317,222,37055,2,0,P|242:207|224:195,1,72.4200004420166,10|0,0:2|0:2,0:2:0:0:
133,144,37424,2,0,P|188:85|254:93,1,144.840000884033,2|8,1:2|0:2,0:2:0:0:
363,29,37978,1,2,3:2:0:0:
452,124,38163,6,0,P|385:139|344:174,1,72.4200004420166,2|2,1:2|0:2,0:0:0:0:
269,203,38532,1,10,0:2:0:0:
269,203,38716,1,2,0:2:0:0:
360,303,38901,1,2,1:2:0:0:
360,303,39085,1,2,0:2:0:0:
230,317,39270,2,0,P|196:303|160:300,1,72.4200004420166,10|2,0:2|0:2,0:0:0:0:
40,351,39639,6,0,L|16:224,1,108.630000663025,2|0,1:2|0:0,0:2:0:0:
19,244,40009,2,0,P|48:218|105:210,1,72.4200004420166,10|0,0:2|0:2,0:2:0:0:
213,223,40378,2,0,L|237:96,1,108.630000663025,2|0,1:2|0:0,0:2:0:0:
234,116,40748,2,0,P|205:90|148:82,1,72.4200004420166,10|0,0:2|0:2,0:2:0:0:
60,16,41116,6,0,L|79:109,1,72.4200004420166,6|0,1:2|0:2,0:0:0:0:
119,210,41486,2,0,L|133:280,1,72.4200004420166,8|0,0:2|0:2,0:0:0:0:
236,361,41855,1,2,1:2:0:0:
350,298,42039,1,0,0:2:0:0:
227,251,42224,1,10,0:2:0:0:
343,191,42409,1,2,3:2:0:0:
464,237,42593,6,0,P|494:176|455:100,2,144.840000884033,6|10|2,1:2|0:2|1:2,0:2:0:0:
252,83,43701,1,8,0:2:0:0:
146,161,43886,1,2,3:2:0:0:
28,105,44070,6,0,P|16:165|4:201,1,72.4200004420166,2|2,1:2|0:2,0:0:0:0:
80,287,44439,1,10,0:2:0:0:
80,287,44624,1,2,0:2:0:0:
210,281,44809,2,0,P|269:259|301:253,1,72.4200004420166,2|2,1:2|0:2,0:0:0:0:
349,147,45178,1,10,0:2:0:0:
349,147,45363,1,2,0:2:0:0:
269,44,45547,6,0,P|211:92|231:183,2,144.840000884033,2|10|2,1:2|0:2|1:2,0:2:0:0:
386,277,46655,1,8,0:2:0:0:
483,191,46839,1,2,3:2:0:0:
435,69,47024,6,0,P|375:92|336:96,1,72.4200004420166,2|2,1:2|0:2,0:0:0:0:
265,174,47393,1,10,0:2:0:0:
265,174,47578,1,2,0:2:0:0:
136,151,47763,2,0,P|151:211|148:245,1,72.4200004420166,2|2,1:2|0:2,0:0:0:0:
162,351,48132,1,10,0:2:0:0:
271,281,48316,1,2,3:2:0:0:
386,341,48501,6,0,P|414:277|407:183,2,144.840000884033,2|10|2,1:2|0:2|1:2,0:2:0:0:
194,163,49609,1,8,0:2:0:0:
294,80,49793,1,2,3:2:0:0:
181,14,49978,6,0,P|150:37|97:52,1,72.4200004420166,2|2,1:2|0:2,0:0:0:0:
19,134,50347,1,10,0:2:0:0:
19,134,50532,1,2,0:2:0:0:
112,223,50716,1,2,1:2:0:0:
112,223,50901,1,2,0:2:0:0:
28,323,51086,2,0,P|59:346|112:361,1,72.4200004420166,10|2,0:2|0:2,0:0:0:0:
205,294,51455,6,0,P|251:257|324:263,1,108.630000663025,2|0,1:2|0:0,0:2:0:0:
298,253,51824,2,0,L|314:172,1,72.4200004420166,10|0,0:2|0:2,0:2:0:0:
432,127,52193,2,0,P|386:90|313:96,1,108.630000663025,2|0,1:2|0:0,0:2:0:0:
338,87,52562,2,0,L|322:5,1,72.4200004420166,10|0,0:2|0:2,0:2:0:0:
206,73,52932,6,0,P|156:94|117:91,1,72.4200004420166,6|0,1:2|0:2,0:0:0:0:
32,171,53301,2,0,P|82:192|121:189,1,72.4200004420166,8|0,0:2|0:2,0:0:0:0:
214,254,53670,2,0,P|164:275|125:272,1,72.4200004420166,0|0,1:2|0:2,0:0:0:0:
46,359,54039,1,8,0:2:0:0:
46,359,54224,1,0,0:2:0:0:
