osu file format v14

[General]
AudioFilename: Beethoven Influenza.mp3
AudioLeadIn: 0
PreviewTime: 77803
Countdown: 0
SampleSet: Soft
StackLeniency: 0.3
Mode: 0
LetterboxInBreaks: 0
WidescreenStoryboard: 1

[Editor]
DistanceSpacing: 1.83
BeatDivisor: 4
GridSize: 8
TimelineZoom: 2.799999

[Metadata]
Title:Beethoven Influenza
TitleUnicode:Beethoven Influenza
Artist:Banya & Warak
ArtistUnicode:Banya & Warak
Creator:Miutrex
Version:s14(It's Standard!!!)
Source:Pump it Up Prime 2015
Tags:Deathstream 2015 Banya Warak Pump it up prime Beethoven Virus Remix
BeatmapID:1221709
BeatmapSetID:567691

[Difficulty]
HPDrainRate:4
CircleSize:4
OverallDifficulty:5
ApproachRate:8.3
SliderMultiplier:1.4
SliderTickRate:1

[Events]
//Background and Video events
0,0,"Ludwig Van Beethoven(Standard).jpg",0,0
//Break Periods
//Storyboard Layer 0 (Background)
//Storyboard Layer 1 (Fail)
//Storyboard Layer 2 (Pass)
//Storyboard Layer 3 (Foreground)
//Storyboard Sound Samples

[TimingPoints]
1568,352.941176470588,4,2,1,75,1,0
7215,-83.3333333333333,4,2,1,75,0,0
20626,-100,4,2,1,75,0,0
20979,-71.4285714285714,4,2,1,75,0,0
21332,-83.3333333333333,4,2,1,75,0,0
31567,-50,4,2,1,75,0,0
32626,-83.3333333333333,4,2,1,75,0,1
33332,-100,4,2,1,75,0,1
34038,-125,4,2,1,75,0,1
34920,-125,4,2,1,75,0,0
35450,-125,4,2,1,75,0,1
40744,-125,4,2,1,75,0,0
41097,-50,4,2,1,75,0,1
41626,-83.3333333333333,4,2,1,75,0,1
42862,-50,4,2,1,75,0,0
43920,-83.3333333333333,4,2,1,75,0,1
47141,-83.3333333333333,4,2,1,5,0,1
47273,-83.3333333333333,4,2,1,75,0,1
47317,-83.3333333333333,4,2,1,5,0,1
47450,-83.3333333333333,4,2,1,75,0,1
47847,-83.3333333333333,4,2,1,5,0,1
47979,-83.3333333333333,4,2,1,75,0,1
48023,-83.3333333333333,4,2,1,5,0,1
48156,-83.3333333333333,4,2,1,75,0,1
49567,-100,4,2,1,75,0,0
56273,-83.3333333333333,4,2,1,75,0,0
56626,-100,4,2,1,75,0,0
56979,-125,4,2,1,75,0,0
57332,-166.666666666667,4,2,1,75,0,0
58038,-90.9090909090909,4,2,1,75,0,0
59097,-76.9230769230769,4,2,1,75,0,0
59450,-90.9090909090909,4,2,1,75,0,0
59803,-111.111111111111,4,2,1,75,0,0
61567,-83.3333333333333,4,2,1,75,0,0
66509,-100,4,2,1,75,0,0
68979,-50,4,2,1,75,0,0
69332,-100,4,2,1,75,0,0
71803,-50,4,2,1,75,0,0
72156,-100,4,2,1,75,0,0
73567,-80,4,2,1,75,0,0
74626,-68.9655172413793,4,2,1,75,0,0
75509,-80,4,2,1,75,0,0
77803,-76.9230769230769,4,2,1,75,0,1
88479,-80,4,2,1,5,0,0
89979,-83.3333333333333,4,2,1,75,0,0
92097,-66.6666666666667,4,2,1,75,0,0
93332,-83.3333333333333,4,2,1,75,0,0
96332,-66.6666666666667,4,2,1,75,0,0
97215,-83.3333333333333,4,2,1,75,0,0
97744,-66.6666666666667,4,2,1,75,0,0
98979,-83.3333333333333,4,2,1,75,0,0
103391,-66.6666666666667,4,2,1,75,0,0
107097,-83.3333333333333,4,2,1,75,0,0

[Colours]
Combo1 : 196,172,40
Combo2 : 254,210,80
Combo3 : 196,133,2
Combo4 : 255,0,0
Combo5 : 0,0,0
Combo6 : 183,0,0
SliderBorder : 254,225,139

[HitObjects]
192,128,7215,5,0,0:0:0:0:
180,51,7391,2,0,P|128:83|115:118,1,83.9999974365235
200,136,7744,1,0,0:0:0:0:
129,189,7920,2,0,P|162:218|205:225,1,83.9999974365235
208,144,8273,1,0,0:0:0:0:
288,184,8450,2,0,P|298:139|275:86,1,83.9999974365235
216,152,8803,1,0,0:0:0:0:
208,64,8979,2,0,P|160:80|133:135,1,83.9999974365235
72,138,9332,6,0,P|96:169|148:180,1,83.9999974365235
158,252,9685,2,0,P|204:222|212:172,1,83.9999974365235
304,232,10038,53,0,0:0:0:0:
376,264,10215,2,0,P|376:200|352:168,1,83.9999974365235
288,232,10567,1,0,0:0:0:0:
384,184,10744,2,0,P|398:222|392:263,1,83.9999974365235
272,232,11097,1,0,0:0:0:0:
408,264,11273,2,0,P|413:222|399:184,1,83.9999974365235
256,192,11538,12,0,12862,0:0:0:0:
248,104,13390,5,0,0:0:0:0:
280,184,13567,2,0,L|312:280,1,83.9999974365235
360,152,13920,2,0,L|333:72,1,83.9999974365235
384,224,14273,1,0,0:0:0:0:
392,248,14450,1,0,0:0:0:0:
271,167,14803,69,0,0:0:0:0:
249,85,14979,2,0,L|276:186,1,83.9999974365235
184,176,15332,2,0,L|184:272,1,83.9999974365235
96,200,15685,6,0,L|64:336,1,125.999996154785
64,344,16038,2,0,P|104:384|176:336,1,125.999996154785
176,344,16391,2,0,P|224:312|288:344,1,125.999996154785
296,360,16744,2,0,P|368:368|376:312,1,125.999996154785
376,306,17097,69,0,0:0:0:0:
336,249,17273,2,0,P|364:237|395:238,2,41.9999987182618
264,288,17626,1,0,0:0:0:0:
240,192,17803,1,0,0:0:0:0:
176,264,17979,1,0,0:0:0:0:
160,160,18156,38,0,L|152:96,3,41.9999987182618
164,191,18509,53,0,0:0:0:0:
180,295,18685,1,0,0:0:0:0:
272,128,19038,70,0,L|288:216,1,83.9999974365235
384,288,19391,2,0,L|368:205,1,83.9999974365235
348,87,19744,1,0,0:0:0:0:
445,73,19920,1,0,0:0:0:0:
462,179,20097,1,0,0:0:0:0:
328,256,20449,21,0,0:0:0:0:
263,228,20626,2,0,P|294:193|328:186,1,70
199,194,20979,2,0,P|243:139|302:116,1,97.9999970092774
135,160,21332,2,0,P|180:97|223:65,1,125.999996154785
240,64,21685,70,0,P|280:112|336:96,1,125.999996154785
360,104,22038,2,0,P|344:152|408:192,1,125.999996154785
408,216,22391,2,0,P|352:264|368:312,1,125.999996154785
376,328,22744,21,0,0:0:0:0:
264,320,22920,21,0,0:0:0:0:
248,304,23009,1,0,0:0:0:0:
232,291,23097,2,0,B|232:248|232:248|256:216,1,83.9999974365235
272,200,23362,1,0,0:0:0:0:
288,184,23450,2,0,B|328:136|328:136|328:56|328:56,1,125.999996154785
328,40,23803,1,0,0:0:0:0:
120,112,24156,37,0,0:0:0:0:
224,104,24332,1,0,0:0:0:0:
280,192,24509,1,0,0:0:0:0:
136,128,24862,53,0,0:0:0:0:
232,136,25038,1,0,0:0:0:0:
280,224,25215,1,0,0:0:0:0:
344,280,25567,22,0,P|320:280|284:254,3,41.9999987182618
336,208,25920,2,0,P|320:192|312:144,3,41.9999987182618
380,150,26273,2,0,P|380:126|408:88,3,41.9999987182618
451,145,26626,2,0,P|464:128|496:112,3,41.9999987182618
512,183,26979,70,0,P|466:215|431:213,1,83.9999974365235
392,88,27332,1,0,0:0:0:0:
382,160,27685,2,0,P|406:200|451:215,1,83.9999974365235
472,120,28038,1,0,0:0:0:0:
288,200,28391,70,0,L|328:144,3,41.9999987182618
240,144,28744,2,0,L|207:192,3,41.9999987182618
312,192,29097,2,0,L|352:136,3,41.9999987182618
216,152,29450,2,0,L|168:216,3,41.9999987182618
165,253,29803,2,0,P|223:252|255:220,1,83.9999974365235
368,120,30156,22,0,P|392:168|376:224,1,83.9999974365235
328,320,30509,2,0,P|304:272|320:224,1,83.9999974365235
392,104,30862,2,0,P|408:160|392:208,1,83.9999974365235
305,325,31215,2,0,P|288:296|284:270,3,41.9999987182618
355,274,31567,22,0,B|379:298|379:298|363:282|363:282|379:298|379:298|379:274|379:274|379:298|379:298|379:250|379:250|379:202|379:202|379:226|379:226|379:186|379:186|379:202|379:202|379:170|379:170|355:194|355:194|371:178|371:178|339:210|339:210,1,420
328,208,32273,69,0,0:0:0:0:
304,200,32362,1,0,0:0:0:0:
288,184,32450,1,0,0:0:0:0:
280,160,32538,1,0,0:0:0:0:
280,136,32626,22,0,B|240:120|240:120|224:80|224:80|144:48,1,167.999994873047
112,112,33156,5,0,0:0:0:0:
221,191,33332,2,0,B|178:176|168:136|168:136|103:109,1,140
80,176,33862,69,0,0:0:0:0:
166,244,34038,2,0,B|126:219|112:189|112:189|70:172,1,112
112,304,34744,1,0,0:0:0:0:
224,304,34920,5,0,0:0:0:0:
248,288,35009,1,0,0:0:0:0:
264,264,35097,1,0,0:0:0:0:
280,240,35185,1,0,0:0:0:0:
287,209,35273,1,0,0:0:0:0:
288,176,35362,1,0,0:0:0:0:
280,144,35450,69,0,0:0:0:0:
187,93,35626,1,0,0:0:0:0:
176,192,35803,1,0,0:0:0:0:
78,156,35979,1,0,0:0:0:0:
88,286,36156,53,0,0:0:0:0:
184,248,36332,1,0,0:0:0:0:
278,285,36509,1,0,0:0:0:0:
367,245,36685,1,0,0:0:0:0:
279,184,36862,1,0,0:0:0:0:
256,192,37038,12,0,37567,0:0:0:0:
400,171,37920,54,0,P|420:175|466:161,1,56
425,97,38273,2,0,P|355:107|363:239,1,224
216,234,39332,5,0,0:0:0:0:
150,198,39509,1,0,0:0:0:0:
89,156,39685,2,0,P|161:126|211:244,1,224
348,112,40744,54,0,P|320:144|284:154,1,56
280,80,41097,37,0,0:0:0:0:
247,194,41273,1,0,0:0:0:0:
375,191,41450,1,0,0:0:0:0:
446,145,41626,22,0,L|373:193,1,83.9999974365235
264,256,41979,1,0,0:0:0:0:
264,256,42067,1,0,0:0:0:0:
264,256,42156,2,0,P|208:256|184:224,2,83.9999974365235
264,256,42862,70,0,B|253:253|248:240|248:240|253:253|264:256|264:256|252:252|248:240|248:240|242:229|248:216|248:216|242:229|248:240|248:240|242:229|248:216|248:216|252:204|264:199|264:199|252:205|248:216|248:216|252:204|264:199|264:199|271:197|280:199|280:199|271:196|264:199|264:199|271:197|280:199|280:199|291:205|296:216|296:216|296:216|296:216|296:248|296:248|296:232|296:232|296:264|296:264|296:248|296:248|296:288|296:288,1,420
312,312,43567,69,0,0:0:0:0:
344,304,43656,1,0,0:0:0:0:
368,280,43744,1,0,0:0:0:0:
384,248,43832,1,0,0:0:0:0:
392,216,43920,70,0,B|400:96|400:96|360:160,1,167.999994873047
328,208,44450,1,0,0:0:0:0:
320,304,44626,2,0,B|304:176|304:176|328:208,1,167.999994873047
384,248,45156,1,0,0:0:0:0:
423,308,45332,2,0,B|481:261|473:189|409:141|345:181|356:221|355:260|401:245,1,251.999992309571
256,192,46215,69,0,0:0:0:0:
240,184,46303,1,0,0:0:0:0:
232,168,46392,2,0,P|224:136|224:120,3,41.9999987182618
248,192,46744,21,0,0:0:0:0:
352,192,46920,1,0,0:0:0:0:
352,296,47097,22,0,L|368:320,1,20.9999993591309
248,296,47273,2,0,L|264:320,1,20.9999993591309
280,176,47450,53,0,0:0:0:0:
379,204,47626,1,0,0:0:0:0:
337,327,47803,22,0,L|338:355,1,20.9999993591309
246,275,47979,2,0,L|247:303,1,20.9999993591309
376,248,48156,53,0,0:0:0:0:
256,192,48244,12,0,49038,0:0:0:0:
272,240,49215,54,0,P|304:248|320:248,1,41.9999987182618
312,208,49391,2,0,P|328:208|352:192,1,41.9999987182618
336,168,49567,2,0,P|368:128|304:112,2,140
256,216,50450,1,0,0:0:0:0:
168,224,50626,70,0,P|152:224|128:208,1,35
144,184,50803,2,0,P|120:176|104:152,1,35
128,136,50979,2,0,P|96:112|112:16,2,140
155,72,51862,1,0,0:0:0:0:
206,120,52038,2,0,P|224:86|209:28,1,70
200,24,52391,37,0,0:0:0:0:
232,32,52479,1,0,0:0:0:0:
256,48,52567,1,0,0:0:0:0:
280,64,52656,1,0,0:0:0:0:
296,88,52744,2,0,P|312:104|336:112,3,35
360,48,53097,21,0,0:0:0:0:
390,66,53185,1,0,0:0:0:0:
414,88,53273,1,0,0:0:0:0:
432,115,53362,1,0,0:0:0:0:
434,147,53450,2,0,P|434:165|416:194,3,35
424,224,53803,54,0,B|411:239|369:260|316:248|287:190|311:158|367:134|383:190,1,210
391,191,54509,1,0,0:0:0:0:
441,142,54685,54,0,L|385:198,2,70
441,142,55215,2,0,P|400:112|352:120,1,70
312,87,55567,54,0,P|312:135|336:167,1,70
368,216,55920,1,0,0:0:0:0:
424,296,56097,1,0,0:0:0:0:
280,232,56273,2,0,L|328:312,1,83.9999974365235
200,234,56626,2,0,L|246:313,1,70
120,234,56979,2,0,L|154:293,1,56
42,233,57332,38,0,L|69:285,3,41.9999987182618
80,288,57950,1,0,0:0:0:0:
104,296,58038,38,0,P|152:280|168:248,1,77.0000023498536
231,288,58391,2,0,P|175:272|159:248,1,77.0000023498536
120,200,58744,2,0,P|168:184|200:192,1,77.0000023498536
272,144,59097,54,0,P|304:96|368:80,1,90.9999958343508
347,155,59450,2,0,P|387:155|420:175,1,77.0000023498536
366,226,59803,2,0,P|388:262|390:292,1,62.9999980773926
316,281,60156,37,0,0:0:0:0:
294,279,60244,1,0,0:0:0:0:
275,274,60332,2,0,P|244:248|239:210,1,62.9999980773926
216,136,60685,1,0,0:0:0:0:
216,136,60773,1,0,0:0:0:0:
216,136,60862,1,0,0:0:0:0:
296,112,61038,37,0,0:0:0:0:
376,112,61215,1,0,0:0:0:0:
440,160,61391,1,0,0:0:0:0:
488,224,61567,2,0,P|480:272|440:216,1,125.999996154785
408,224,61920,2,0,P|344:208|368:264,1,125.999996154785
344,272,62273,53,0,0:0:0:0:
240,272,62450,1,0,0:0:0:0:
288,184,62626,1,0,0:0:0:0:
183,183,62803,1,0,0:0:0:0:
246,128,62979,6,0,L|174:192,2,83.9999974365235
272,112,63420,5,0,0:0:0:0:
304,104,63509,1,0,0:0:0:0:
336,104,63597,1,0,0:0:0:0:
368,112,63685,54,0,B|400:120|424:152|424:152|400:160,1,83.9999974365235
384,176,64038,1,0,0:0:0:0:
304,208,64215,1,0,0:0:0:0:
216,248,64391,2,0,L|168:272,2,41.9999987182618
168,192,64744,2,0,L|75:240,2,83.9999974365235
280,144,65273,21,0,0:0:0:0:
280,144,65450,1,0,0:0:0:0:
304,136,65538,1,0,0:0:0:0:
328,136,65626,1,0,0:0:0:0:
352,144,65715,1,0,0:0:0:0:
376,160,65803,54,0,L|400:184,14,20.9999993591309
352,144,66509,38,0,B|248:40|248:40|280:112,1,210
288,120,67126,1,0,0:0:0:0:
304,144,67215,2,0,L|376:216,1,70
384,240,67567,2,0,L|320:176,1,70
248,184,67920,5,0,0:0:0:0:
152,184,68097,1,0,0:0:0:0:
248,256,68273,2,0,P|222:289|192:296,1,70
144,256,68626,2,0,P|170:289|200:296,1,70
196,217,68979,38,0,B|196:233|196:233|196:217|196:217|196:233|196:233|196:249|196:249|196:233|196:233|196:249|196:249|196:265|196:265|196:249|196:249|196:265|196:265|196:281|196:281|196:265|196:265|196:281|196:281|196:297|196:297|196:281|196:281|196:297|196:297|196:313|196:313,1,210
208,320,69332,6,0,B|248:304|264:272|264:272|280:304|336:320,1,140
326,238,69862,2,0,P|359:252|385:258,1,35
336,224,70038,2,0,P|400:248|432:248,1,70
504,224,70391,2,0,P|448:248|424:248,1,70
421,175,70744,6,0,L|421:135,3,35
344,112,71097,2,0,L|344:152,3,35
272,176,71450,1,0,0:0:0:0:
272,88,71626,1,0,0:0:0:0:
191,130,71803,38,0,B|204:138|204:138|191:130|191:130|204:138|204:138|218:145|218:145|204:138|204:138|218:145|218:145|232:154|232:154|218:145|218:145|232:154|232:154|246:162|246:162|232:154|232:154|246:162|246:162|260:170|260:170|246:162|246:162|260:170|260:170|274:178|274:178,1,210
239,238,72156,6,0,P|321:209|289:105,1,210
272,96,72773,1,0,0:0:0:0:
246,96,72862,1,0,0:0:0:0:
224,104,72950,1,0,0:0:0:0:
206,120,73038,1,0,0:0:0:0:
191,139,73126,1,0,0:0:0:0:
184,164,73215,2,0,P|178:181|179:204,3,35
184,232,73567,6,0,P|216:264|264:256,1,87.5
264,240,73832,1,0,0:0:0:0:
288,224,73920,2,0,P|344:208|384:224,1,87.5
336,280,74273,1,0,0:0:0:0:
336,136,74450,1,0,0:0:0:0:
392,112,74626,38,0,B|336:136|336:136|368:176|296:216|248:176|272:112,1,203.000006195069
264,72,75509,5,0,0:0:0:0:
240,80,75597,1,0,0:0:0:0:
216,88,75685,2,0,P|256:115|296:104,1,87.5
327,41,76038,2,0,P|362:80|364:129,1,87.5
312,208,76391,6,0,L|288:253,3,43.75
360,264,76744,2,0,L|361:307,3,43.75
416,288,77097,1,0,0:0:0:0:
432,272,77185,1,0,0:0:0:0:
448,256,77273,1,0,0:0:0:0:
456,232,77362,1,0,0:0:0:0:
464,208,77450,1,0,0:0:0:0:
464,184,77538,1,0,0:0:0:0:
456,160,77626,1,0,0:0:0:0:
440,136,77715,1,0,0:0:0:0:
416,120,77803,6,0,P|368:112|320:128,1,90.9999958343508
284,200,78156,2,0,P|330:211|380:192,1,90.9999958343508
325,138,78509,5,0,0:0:0:0:
420,153,78685,1,0,0:0:0:0:
307,89,78862,53,0,0:0:0:0:
406,110,79038,1,0,0:0:0:0:
286,20,79215,2,0,P|241:57|236:100,1,90.9999958343508
157,95,79567,2,0,P|182:148|223:168,1,90.9999958343508
305,178,79920,5,0,0:0:0:0:
249,255,80097,1,0,0:0:0:0:
348,186,80273,53,0,0:0:0:0:
344,296,80450,1,0,0:0:0:0:
423,227,80626,2,0,P|367:211|343:171,1,90.9999958343508
273,227,80979,2,0,P|329:211|353:171,1,90.9999958343508
416,152,81332,5,0,0:0:0:0:
440,56,81509,1,0,0:0:0:0:
284,155,81685,53,0,0:0:0:0:
260,59,81862,1,0,0:0:0:0:
368,128,82038,6,0,P|400:112|416:88,1,45.4999979171754
352,195,82215,2,0,P|406:190|433:174,1,45.4999979171754
306,246,82391,2,0,P|337:263|369:264,1,45.4999979171754
238,254,82567,2,0,P|251:288|266:303,1,45.4999979171754
200,248,82744,53,0,0:0:0:0:
168,240,82832,1,0,0:0:0:0:
144,224,82920,1,0,0:0:0:0:
128,200,83009,1,0,0:0:0:0:
119,172,83097,1,0,0:0:0:0:
120,142,83185,1,0,0:0:0:0:
127,115,83273,1,0,0:0:0:0:
150,94,83362,1,0,0:0:0:0:
179,81,83450,5,0,0:0:0:0:
264,152,83626,1,0,0:0:0:0:
264,64,83803,1,0,0:0:0:0:
352,144,83979,1,0,0:0:0:0:
344,56,84156,1,0,0:0:0:0:
424,128,84332,1,0,0:0:0:0:
422,37,84509,54,0,L|424:139,1,90.9999958343508
448,240,84862,5,0,0:0:0:0:
352,208,85038,1,0,0:0:0:0:
352,304,85215,1,0,0:0:0:0:
272,256,85391,1,0,0:0:0:0:
272,344,85567,1,0,0:0:0:0:
183,295,85744,1,0,0:0:0:0:
102,325,85920,54,0,P|158:317|190:285,1,90.9999958343508
216,232,86273,6,0,P|192:224|152:232,3,45.4999979171754
288,216,86626,2,0,P|272:184|240:160,3,45.4999979171754
344,264,86979,2,0,P|360:224|360:208,1,45.4999979171754
336,335,87156,2,0,P|377:328|401:312,1,45.4999979171754
266,343,87332,2,0,P|272:368|303:397,1,45.4999979171754
222,288,87509,2,0,P|201:314|196:342,1,45.4999979171754
190,227,87685,53,0,0:0:0:0:
174,195,87773,1,0,0:0:0:0:
174,163,87862,1,0,0:0:0:0:
182,131,87950,1,0,0:0:0:0:
206,107,88038,1,0,0:0:0:0:
238,91,88126,1,0,0:0:0:0:
270,91,88215,1,0,0:0:0:0:
302,107,88303,1,0,0:0:0:0:
326,131,88391,2,0,P|334:155|334:187,1,45.4999979171754
184,216,89979,54,0,P|239:220|279:186,1,83.9999974365235
215,150,90332,1,0,0:0:0:0:
224,77,90509,2,0,P|276:111|229:223,1,167.999994873047
215,150,91038,53,0,0:0:0:0:
143,148,91215,2,0,P|178:213|284:172,1,167.999994873047
215,150,91744,2,0,L|264:72,1,83.9999974365235
295,22,92097,54,0,B|269:62|269:62|265:69|265:69|269:62|269:62|265:69|265:69|269:62|269:62|265:69|265:69|269:62|269:62|265:69|265:69|269:62|269:62|265:69|265:69|269:62|269:62|265:69|265:69|269:62|269:62|265:69|265:69|269:62|269:62|265:69|265:69|235:116,2,210.000008010865
320,16,92979,5,0,0:0:0:0:
344,24,93067,1,0,0:0:0:0:
368,40,93156,1,0,0:0:0:0:
384,64,93244,1,0,0:0:0:0:
400,88,93332,6,0,P|376:144|328:144,1,83.9999974365235
322,95,93685,2,0,P|362:104|399:87,1,83.9999974365235
400,88,94038,2,0,P|352:56|424:24,2,167.999994873047
469,72,94832,6,0,P|487:48|491:23,4,41.9999987182618
421,20,95273,54,0,P|353:36|400:88,1,167.999994873047
464,128,95803,2,0,L|448:184,1,41.9999987182618
376,160,95979,2,0,L|352:232,1,41.9999987182618
283,190,96156,1,0,0:0:0:0:
251,274,96332,38,0,B|271:221|271:221|268:229|268:229|268:229|268:229|271:221|271:221|268:229|268:229|271:221|271:221|268:229|268:229|271:221|271:221|268:229|268:229|271:221|271:221|268:229|268:229|271:221|271:221|268:229|268:229|271:221|271:221|268:229|268:229|271:221|271:221|288:176,2,210.000008010865
214,335,97215,54,0,P|184:296|184:272,1,41.9999987182618
114,299,97391,2,0,P|128:262|148:242,1,41.9999987182618
87,199,97567,1,0,0:0:0:0:
179,206,97744,6,0,B|161:191|148:188|124:188|124:188|132:188|132:188|124:188|124:188|132:188|132:188|124:188|124:188|132:188|132:188|124:188|124:188|132:188|132:188|124:188|124:188|132:188|132:188|124:188|124:188|132:188|132:188|124:188|124:188|132:188|132:188|124:188|108:189|94:193|78:207,2,210.000008010865
130,262,98626,5,0,0:0:0:0:
200,336,98803,1,0,0:0:0:0:
272,264,98979,2,0,L|344:192,3,83.9999974365235
328,192,99597,1,0,0:0:0:0:
328,176,99685,2,0,B|329:134|329:134|366:129|389:91,1,83.9999974365235
440,56,100038,5,0,0:0:0:0:
320,64,100215,1,0,0:0:0:0:
215,111,100391,2,0,P|207:135|215:167,2,41.9999987182618
142,174,100744,2,0,P|159:207|183:223,2,41.9999987182618
123,271,101097,2,0,P|153:283|195:274,2,41.9999987182618
231,327,101450,54,0,B|256:296|256:296|272:288|272:288|296:256,1,83.9999974365235
256,336,101803,2,0,B|296:288|296:288|320:288|320:288|376:216,1,167.999994873047
296,200,102332,1,0,0:0:0:0:
416,120,102509,2,0,B|376:176|376:176|376:216|376:216|320:288,1,167.999994873047
303,311,103038,2,0,L|375:215,1,83.9999974365235
405,180,103391,54,0,B|384:204|384:204|379:211|379:211|384:204|384:204|379:211|379:211|384:204|384:204|379:211|379:211|384:204|384:204|379:211|379:211|384:204|384:204|379:211|379:211|384:204|384:204|379:211|379:211|384:204|384:204|379:211|379:211|384:204|384:204|379:211|379:211|384:204|384:204|379:211|379:211|339:260,2,210.000008010865
368,160,104185,6,0,L|320:224,4,52.5000020027161
312,96,104626,21,0,0:0:0:0:
296,88,104715,1,0,0:0:0:0:
208,72,104891,1,0,0:0:0:0:
184,72,104979,1,0,0:0:0:0:
104,112,105156,1,0,0:0:0:0:
96,120,105244,1,0,0:0:0:0:
72,216,105420,1,0,0:0:0:0:
72,232,105509,1,0,0:0:0:0:
112,320,105685,6,0,L|160:272,1,52.5000020027161
176,304,105862,2,0,L|224:256,1,52.5000020027161
240,280,106038,1,0,0:0:0:0:
256,192,106126,12,0,106920,0:0:0:0:
240,120,107097,22,0,L|216:80,3,41.9999987182618
264,152,107450,37,0,0:0:0:0:
320,232,107626,1,0,0:0:0:0:
376,144,107979,6,0,L|360:176,1,20.9999993591309
304,80,108332,5,0,0:0:0:0:
