osu file format v14

[General]
AudioFilename: Banshi - Ne-nuit - 04 Kotonoha.mp3
AudioLeadIn: 0
PreviewTime: 20547
Countdown: 0
SampleSet: Soft
StackLeniency: 0.7
Mode: 0
LetterboxInBreaks: 0
WidescreenStoryboard: 0

[Editor]
DistanceSpacing: 1.2
BeatDivisor: 2
GridSize: 4
TimelineZoom: 1.7

[Metadata]
Title:Kotonoha
TitleUnicode:Kotonoha
Artist:Banshi
ArtistUnicode:ばんし
Creator:Nozhomi
Version:Normal
Source:
Tags:Ne-nuit nizi ringo Aia
BeatmapID:1071617
BeatmapSetID:415003

[Difficulty]
HPDrainRate:3
CircleSize:3.1
OverallDifficulty:4.1
ApproachRate:5.2
SliderMultiplier:0.999999999999999
SliderTickRate:1

[Events]
//Background and Video events
0,0,"nyaaa.jpg",0,0
//Break Periods
2,94870,96026
//Storyboard Layer 0 (Background)
//Storyboard Layer 1 (Fail)
//Storyboard Layer 2 (Pass)
//Storyboard Layer 3 (Foreground)
//Storyboard Sound Samples

[TimingPoints]
202,319.148936170213,4,2,1,50,1,0
202,-100,4,2,1,50,0,0
15521,-100,4,2,2,50,0,0
20627,-100,4,2,2,70,0,0
39776,-100,4,2,2,50,0,0
41053,-100,4,2,1,60,0,0
46159,-100,4,2,2,70,0,0
50946,-100,4,2,2,50,0,0
51265,-100,4,2,2,70,0,0
59563,-100,4,2,2,50,0,0
61478,-100,4,2,2,70,0,0
74324,-100,4,2,1,70,0,0
74882,-100,4,2,1,70,0,0
75521,-100,4,2,2,70,0,0
81505,-100,4,2,2,50,0,0
81904,-100,4,2,2,70,0,0
91159,-100,4,2,2,50,0,0
92116,-100,4,2,2,70,0,0
100095,-100,4,2,2,30,0,0
100414,-100,4,2,2,35,0,0
100733,-100,4,2,2,40,0,0
101053,-100,4,2,2,50,0,0
102329,-100,4,2,2,70,0,1
114457,-100,4,2,2,40,0,1
116053,-100,4,2,1,50,0,0

[Colours]
Combo1 : 217,32,217
Combo2 : 197,192,24
Combo3 : 105,196,222
Combo4 : 127,75,147

[HitObjects]
80,200,202,6,0,P|60:128|85:59,2,150,2|0|0,0:0|0:0|0:0,0:0:0:0:
156,292,1478,2,0,B|224:316|224:316|352:292,1,200,2|2,0:0|3:0,0:0:0:0:
468,268,2436,1,0,0:0:0:0:
396,172,2755,6,0,P|396:140|432:84,1,99.9999999999999,2|0,0:0|0:0,0:0:0:0:
476,48,3233,2,0,L|356:40,1,99.9999999999999,0|0,0:0|0:0,0:0:0:0:
256,36,3872,1,0,0:0:0:0:
296,148,4191,6,0,P|288:180|272:204,1,50,0|0,0:0|0:0,0:0:0:0:
220,204,4510,2,0,L|168:204,2,50,2|2|0,0:0|3:0|0:0,0:0:0:0:
260,248,4989,2,0,P|271:270|276:294,1,50,0|0,0:0|0:0,0:0:0:0:
240,344,5308,6,0,L|76:328,2,150,2|0|0,0:0|0:0|0:0,0:0:0:0:
344,288,6584,2,0,P|351:204|270:227,1,200,2|2,0:0|3:0,0:0:0:0:
240,344,7542,1,0,0:0:0:0:
356,368,7861,6,0,P|401:348|440:295,1,99.9999999999999,2|0,0:0|0:0,0:0:0:0:
452,252,8340,2,0,P|441:188|416:152,1,99.9999999999999,0|0,0:0|0:0,0:0:0:0:
368,132,8819,2,0,L|304:128,1,50,0|0,0:0|0:0,0:0:0:0:
256,192,9138,12,4,10414,0:0:0:0:
436,40,11372,5,0,0:0:0:0:
348,120,11691,2,0,P|256:153|164:120,1,200,2|0,0:0|0:0,0:0:0:0:
56,68,12648,2,0,P|48:88|46:138,1,50,2|0,0:0|0:0,0:0:0:0:
56,176,12967,6,0,B|68:228|68:228|55:273,1,99.9999999999999,2|0,0:0|0:0,0:0:0:0:
48,332,13446,2,0,P|108:312|164:316,1,99.9999999999999,2|0,0:0|0:0,0:0:0:0:
256,356,14084,1,2,0:0:0:0:
367,312,14404,2,0,P|417:314|464:332,1,99.9999999999999,0|2,0:0|0:0,0:0:0:0:
448,212,15042,2,0,L|456:96,1,99.9999999999999,0|0,0:0|0:0,0:0:0:0:
428,60,15521,5,4,0:0:0:0:
316,108,15840,1,0,1:0:0:0:
196,108,16159,1,2,0:0:0:0:
84,60,16478,1,0,1:0:0:0:
100,180,16797,2,0,P|135:213|182:227,1,99.9999999999999,2|0,0:0|1:0,0:0:0:0:
304,228,17436,2,0,P|351:213|387:179,1,99.9999999999999,2|0,0:0|1:0,0:0:0:0:
416,64,18074,6,0,L|424:-8,2,50,2|2|0,0:0|0:0|1:0,0:0:0:0:
356,76,18553,2,0,L|316:32,2,50,2|2|2,0:0|0:0|0:0,0:0:0:0:
366,136,19031,2,0,B|292:140|240:112|240:112|192:128|192:128|148:112|148:112|112:124|64:188|106:257,1,400,0|2,0:0|0:0,0:0:0:0:
176,356,20627,5,2,0:0:0:0:
176,356,20787,2,0,P|211:319|226:258,1,99.9999999999999,0|0,0:0|0:0,0:0:0:0:
235,214,21265,2,0,P|238:164|219:117,1,99.9999999999999,0|0,0:0|1:0,0:0:0:0:
180,73,21744,2,0,P|143:38|96:23,1,99.9999999999999,0|0,0:0|0:0,0:0:0:0:
36,28,22223,1,0,1:0:0:0:
84,140,22542,1,0,0:0:0:0:
36,248,22861,1,0,1:0:0:0:
156,232,23180,5,2,0:0:0:0:
156,232,23340,2,0,B|204:212|204:212|264:208,1,99.9999999999999,0|0,0:0|0:0,0:0:0:0:
312,216,23819,2,0,B|360:224|360:224|408:260,1,99.9999999999999,0|0,0:0|1:0,0:0:0:0:
420,312,24297,1,0,0:0:0:0:
300,332,24616,2,0,L|300:382,2,50,0|0|0,0:0|1:0|0:0,0:0:0:0:
252,296,25095,2,0,P|224:293|192:299,1,50,2|2,0:0|0:0,0:0:0:0:
144,316,25414,1,0,1:0:0:0:
72,224,25733,5,2,0:0:0:0:
72,224,25893,2,0,B|78:124,1,99.9999999999999,0|0,0:0|0:0,0:0:0:0:
120,79,26371,2,0,P|168:68|216:81,1,99.9999999999999,0|0,0:0|1:0,0:0:0:0:
259,124,26850,2,0,B|267:224,1,99.9999999999999,0|0,0:0|0:0,0:0:0:0:
304,272,27329,1,0,1:0:0:0:
416,316,27648,2,0,P|425:266|411:218,1,99.9999999999999,0|0,0:0|1:0,0:0:0:0:
340,124,28287,6,0,L|496:132,2,150,2|0|0,0:0|0:0|1:0,0:0:0:0:
228,164,29563,2,0,P|252:204|306:238,1,99.9999999999999,2|0,0:0|1:0,0:0:0:0:
339,123,30202,2,0,P|313:81|272:53,1,99.9999999999999,2|0,0:0|1:0,0:0:0:0:
158,58,30840,5,6,0:0:0:0:
158,58,30999,2,0,P|117:84|92:127,1,99.9999999999999,0|0,0:0|0:0,0:0:0:0:
72,184,31478,2,0,L|74:294,1,99.9999999999999,0|0,0:0|1:0,0:0:0:0:
64,344,31957,2,0,P|104:324|164:336,1,99.9999999999999,0|0,0:0|0:0,0:0:0:0:
216,348,32436,1,0,1:0:0:0:
276,248,32755,1,0,0:0:0:0:
364,328,33074,1,0,1:0:0:0:
460,256,33393,5,2,0:0:0:0:
460,256,33553,2,0,P|496:208|496:160,1,99.9999999999999,0|0,0:0|0:0,0:0:0:0:
476,116,34031,1,2,0:0:0:0:
360,80,34350,1,0,1:0:0:0:
360,80,34510,2,0,L|244:76,1,99.9999999999999
200,72,34989,1,0,1:0:0:0:
84,96,35308,2,0,B|56:140|56:140|48:200,1,99.9999999999999,2|0,0:0|1:0,0:0:0:0:
52,248,35787,1,0,0:0:0:0:
72,304,35946,6,0,P|112:336|176:340,1,99.9999999999999,2|0,0:0|1:0,0:0:0:0:
212,312,36425,2,0,B|256:288|256:288|300:312,1,99.9999999999999,0|2,0:0|0:0,0:0:0:0:
352,342,36904,2,0,P|401:334|440:304,1,99.9999999999999,0|2,1:0|0:0,0:0:0:0:
464,248,37382,1,0,0:0:0:0:
464,248,37542,2,0,L|460:144,1,99.9999999999999,0|2,1:0|0:0,0:0:0:0:
400,44,38180,1,0,1:0:0:0:
288,84,38499,6,0,L|236:80,1,50,6|0,0:0|0:0,0:0:0:0:
176,184,38978,2,0,L|228:180,1,50,2|2,0:0|0:0,0:0:0:0:
288,284,39457,2,0,L|236:280,1,50,0|0,1:0|0:0,0:0:0:0:
184,304,39776,2,0,L|155:345,2,50,0|0|0,1:0|1:0|1:0,0:0:0:0:
120,204,40414,2,0,L|70:213,2,50,0|0|0,1:0|1:0|1:0,0:0:0:0:
160,92,41053,5,4,1:0:0:0:
256,192,41212,12,0,43606,0:0:0:0:
383,246,44882,6,0,P|360:290|316:312,1,99.9999999999999,2|0,0:0|0:0,0:0:0:0:
196,312,45521,2,0,P|152:290|128:247,1,99.9999999999999,2|0,0:0|0:3,0:0:0:0:
140,128,46159,5,2,0:0:0:0:
232,52,46478,1,2,3:0:0:0:
232,52,46638,1,0,0:0:0:0:
340,104,46957,2,0,L|336:54,1,50,2|2,0:0|3:0,0:0:0:0:
248,137,47436,2,0,L|251:186,1,50,2|2,0:0|0:0,0:0:0:0:
255,247,47755,2,0,P|231:316|165:347,1,150,2|2,3:0|0:0,0:0:0:0:
108,328,48393,1,2,3:0:0:0:
60,216,48712,6,0,L|64:116,1,99.9999999999999,2|2,0:0|3:0,0:0:0:0:
104,72,49191,1,0,0:0:0:0:
220,104,49510,2,0,L|288:96,1,50,2|2,0:0|3:0,0:0:0:0:
388,120,49989,1,2,0:0:0:0:
444,224,50308,1,2,3:0:0:0:
372,320,50627,1,0,0:0:0:0:
252,308,50946,2,0,L|188:304,1,50,2|2,0:0|0:0,0:0:0:0:
144,292,51265,6,0,P|93:256|80:200,1,99.9999999999999,4|0,0:0|1:0,0:0:0:0:
144,120,51904,2,0,L|248:132,1,99.9999999999999,0|0,0:0|1:0,0:0:0:0:
364,144,52542,2,0,P|406:110|432:55,1,99.9999999999999,2|0,0:0|1:0,0:0:0:0:
312,32,53180,1,0,0:0:0:0:
243,131,53499,1,0,1:0:0:0:
317,224,53819,6,0,B|325:276|325:276|313:336,1,99.9999999999999,2|0,0:0|1:0,0:0:0:0:
196,322,54457,2,0,B|187:276|187:276|195:224,1,99.9999999999999,0|0,0:0|1:0,0:0:0:0:
232,108,55095,1,2,0:0:0:0:
232,108,55255,2,0,L|164:112,1,50,0|0,0:0|1:0,0:0:0:0:
68,148,55733,2,0,P|75:171|92:190,1,50,2|2,0:0|0:0,0:0:0:0:
145,218,56053,2,0,P|170:223|195:223,1,50,0|0,1:0|0:0,0:0:0:0:
252,208,56372,6,0,P|300:197|348:207,1,99.9999999999999,6|0,0:0|1:0,0:0:0:0:
348,327,57010,2,0,P|300:338|252:328,1,99.9999999999999,0|0,0:0|1:0,0:0:0:0:
148,268,57648,2,0,P|117:229|106:181,1,99.9999999999999,2|0,0:0|1:0,0:0:0:0:
124,60,58287,1,2,0:0:0:0:
244,76,58606,1,0,1:0:0:0:
226,196,58925,6,0,L|275:192,2,50,0|0|0,1:0|0:0|1:0,0:0:0:0:
196,312,59563,2,0,L|140:308,2,50,0|0|0,1:0|1:0|1:0,0:0:0:0:
316,304,60202,2,0,B|372:288|412:312|412:312|380:272|392:196|392:196|432:216|469:209,1,300,4|2,0:0|0:0,0:0:0:0:
488,92,61478,6,0,P|456:80|384:96,1,99.9999999999999,6|0,0:0|1:0,0:0:0:0:
340,120,61957,2,0,P|276:148|192:140,1,150,0|0,0:0|1:0,0:0:0:0:
84,104,62755,2,0,P|73:57|95:13,2,99.9999999999999,2|0|0,0:0|1:0|0:0,0:0:0:0:
112,220,63712,2,0,L|108:284,1,50,0|0,1:0|0:0,0:0:0:0:
108,332,64031,6,0,P|184:312|216:308,1,99.9999999999999,2|0,0:0|1:0,0:0:0:0:
264,304,64510,1,0,0:0:0:0:
208,196,64829,2,0,L|208:144,1,50,2|0,0:0|1:0,0:0:0:0:
236,92,65148,2,0,P|288:84|340:92,1,99.9999999999999,0|0,0:0|0:0,0:0:0:0:
388,120,65627,1,0,1:0:0:0:
468,212,65946,2,0,L|472:272,2,50,2|2|0,0:0|0:0|1:0,0:0:0:0:
348,204,66584,6,0,L|351:303,1,99.9999999999999,2|0,0:0|1:0,0:0:0:0:
296,276,67063,2,0,P|220:256|148:276,1,150,0|0,0:0|1:0,0:0:0:0:
40,320,67861,2,0,P|31:257|51:210,1,99.9999999999999,2|0,0:0|1:0,0:0:0:0:
88,116,68499,1,0,0:0:0:0:
184,188,68819,2,0,P|208:191|233:192,1,50,0|0,1:0|0:0,0:0:0:0:
291,176,69138,6,0,P|340:166|389:176,1,99.9999999999999,2|0,0:0|1:0,0:0:0:0:
436,212,69616,2,0,P|460:248|456:308,1,99.9999999999999,0|2,0:0|0:0,0:0:0:0:
412,340,70095,2,0,L|352:336,1,50,0|2,1:0|0:0,0:0:0:0:
304,332,70414,1,2,0:0:0:0:
316,212,70733,1,0,1:0:0:0:
196,212,71053,1,2,0:0:0:0:
208,332,71372,1,0,1:0:0:0:
104,276,71691,6,0,P|84:225|92:171,1,99.9999999999999,6|0,0:0|1:0,0:0:0:0:
112,124,72170,2,0,P|158:95|213:93,1,99.9999999999999,0|2,0:0|0:0,0:0:0:0:
324,120,72808,1,0,0:0:0:0:
324,120,72967,2,0,L|329:20,2,99.9999999999999,2|0|0,0:0|1:0|0:0,0:0:0:0:
312,240,73925,1,0,1:0:0:0:
408,312,74244,6,0,P|441:324|496:316,2,66.6666666666666,2|0|0,0:0|0:0|0:0,0:0:0:0:
420,232,74882,2,0,P|452:216|484:176,2,66.6666666666666,2|0|0,0:0|0:0|0:0,0:0:0:0:
376,164,75521,2,0,P|380:112|360:60,1,99.9999999999999,2|0,0:0|1:0,0:0:0:0:
256,16,76159,1,2,0:0:0:0:
144,60,76478,2,0,P|116:64|76:56,1,50,0|0,1:0|0:0,0:0:0:0:
36,47,76797,6,0,L|49:164,1,99.9999999999999,6|0,0:0|1:0,0:0:0:0:
46,206,77276,2,0,L|63:360,1,150,0|0,0:0|1:0,0:0:0:0:
181,332,78074,2,0,L|192:232,1,99.9999999999999,2|0,0:0|1:0,0:0:0:0:
256,132,78712,2,0,L|256:82,2,50,0|2|0,0:0|0:0|1:0,0:0:0:0:
320,232,79350,6,0,P|368:244|416:232,1,99.9999999999999,2|0,0:0|1:0,0:0:0:0:
463,196,79829,2,0,P|483:164|471:100,1,99.9999999999999,2|2,0:0|0:0,0:0:0:0:
431,60,80308,2,0,P|399:48|379:48,1,50,0|2,1:0|0:0,0:0:0:0:
323,60,80627,1,0,0:0:0:0:
208,96,80946,1,0,1:0:0:0:
280,192,81265,1,2,0:0:0:0:
164,212,81584,1,2,0:0:0:0:
76,128,81904,6,0,P|68:96|84:32,1,99.9999999999999,6|0,0:0|1:0,0:0:0:0:
188,88,82542,1,0,0:0:0:0:
188,88,82702,2,0,L|184:148,1,50,2|0,0:0|1:0,0:0:0:0:
180,256,83180,2,0,P|216:296|272:292,1,99.9999999999999,2|0,0:0|1:0,0:0:0:0:
376,264,83819,1,0,0:0:0:0:
376,264,83978,2,0,L|436:272,1,50,2|0,0:0|1:0,0:0:0:0:
388,156,84457,6,0,P|380:116|392:52,1,99.9999999999999,2|0,0:0|1:0,0:0:0:0:
332,80,84936,2,0,B|304:88|304:88|232:80,1,99.9999999999999,0|2,0:0|0:0,0:0:0:0:
124,128,85574,1,0,0:0:0:0:
124,128,85733,2,0,P|153:168|205:195,1,99.9999999999999,2|0,0:0|1:0,0:0:0:0:
316,196,86372,2,0,P|340:168|368:152,2,50,2|2|0,0:0|0:0|1:0,0:0:0:0:
272,308,87010,6,0,P|228:332|160:328,1,99.9999999999999,2|0,0:0|1:0,0:0:0:0:
88,256,87648,2,0,L|96:152,1,99.9999999999999,0|0,0:0|1:0,0:0:0:0:
187,234,88287,2,0,L|179:333,1,99.9999999999999,2|0,0:0|1:0,0:0:0:0:
280,272,88925,2,0,B|304:260|304:260|336:256,1,50,2|2,0:0|0:0,0:0:0:0:
388,260,89244,2,0,B|416:264|416:264|440:280,1,50,0|0,1:0|0:0,0:0:0:0:
484,308,89563,6,0,L|488:192,1,99.9999999999999,2|0,0:0|1:0,0:0:0:0:
492,88,90202,2,0,P|448:116|396:124,1,99.9999999999999,2|0,0:0|1:0,0:0:0:0:
284,100,90840,1,2,0:0:0:0:
164,116,91159,1,2,0:0:0:0:
96,216,91478,1,2,0:0:0:0:
216,236,91797,2,0,L|276:232,1,50,2|2,0:0|0:0,0:0:0:0:
325,226,92116,5,4,0:0:0:0:
256,192,92276,12,0,94670,0:0:0:0:
112,226,97223,5,2,0:0:0:0:
228,194,97542,2,0,P|252:190|277:195,1,50,2|0,3:0|0:0,0:0:0:0:
386,245,98021,2,0,P|410:249|435:244,1,50,2|2,0:0|3:0,0:0:0:0:
382,137,98499,2,0,P|406:133|431:138,2,50,2|2|2,0:0|0:0|3:0,0:0:0:0:
277,195,99138,2,0,L|277:295,1,99.9999999999999,0|0,0:0|0:0,0:0:0:0:
168,344,99776,6,0,P|157:288|175:234,1,99.9999999999999,2|2,0:0|3:0,0:0:0:0:
212,136,100414,2,0,P|223:87|210:39,1,99.9999999999999,0|0,1:0|1:0,0:0:0:0:
89,39,101053,2,0,P|76:87|88:136,1,99.9999999999999,2|2,0:0|0:0,0:0:0:0:
158,233,101691,1,2,0:0:0:0:
228,136,102010,1,2,0:0:0:0:
280,108,102170,1,2,0:0:0:0:
332,80,102329,6,0,B|380:92|380:92|429:80,1,99.9999999999999,6|0,0:0|1:0,0:0:0:0:
376,188,102967,2,0,P|364:224|380:292,1,99.9999999999999,2|0,0:0|1:0,0:0:0:0:
280,356,103606,2,0,P|256:300|260:256,1,99.9999999999999,2|0,0:0|1:0,0:0:0:0:
280,144,104244,1,2,0:0:0:0:
372,224,104563,1,0,1:0:0:0:
258,262,104882,6,0,L|154:254,1,99.9999999999999,2|0,0:0|1:0,0:0:0:0:
220,360,105521,2,0,L|324:352,1,99.9999999999999,2|0,0:0|1:0,0:0:0:0:
404,268,106159,1,2,0:0:0:0:
306,192,106478,1,0,1:0:0:0:
188,216,106797,2,0,P|184:191|188:166,1,50,2|0,0:0|0:0,0:0:0:0:
204,108,107116,2,0,P|207:83|203:58,1,50,0|2,1:0|0:0,0:0:0:0:
152,28,107436,6,0,P|112:28|60:64,1,99.9999999999999,2|0,0:0|1:0,0:0:0:0:
32,176,108074,2,0,L|40:292,1,99.9999999999999,2|0,0:0|1:0,0:0:0:0:
144,332,108712,2,0,L|150:232,1,99.9999999999999,2|0,0:0|1:0,0:0:0:0:
216,132,109350,1,2,0:0:0:0:
304,216,109670,1,0,1:0:0:0:
416,168,109989,6,0,P|428:215|415:263,1,99.9999999999999,2|0,0:0|1:0,0:0:0:0:
304,216,110627,2,0,P|291:168|303:120,1,99.9999999999999,2|0,0:0|1:0,0:0:0:0:
400,48,111265,1,2,0:0:0:0:
416,168,111584,1,0,1:0:0:0:
303,120,111904,2,0,L|252:108,1,50,2|2,0:0|0:0,0:0:0:0:
204,140,112223,2,0,L|153:128,1,50,0|2,1:0|0:0,0:0:0:0:
108,164,112542,6,0,P|58:156|10:166,1,99.9999999999999,6|0,0:0|1:0,0:0:0:0:
60,276,113180,2,0,P|108:284|176:264,1,99.9999999999999,2|0,0:0|1:0,0:0:0:0:
256,204,113819,1,4,0:0:0:0:
355,273,114138,1,0,1:0:0:0:
360,152,114457,1,2,0:0:0:0:
256,92,114776,1,4,0:0:0:0:
152,152,115095,6,0,L|160:220,2,50,0|0|0,1:0|1:0|1:0,0:0:0:0:
132,96,115574,2,0,L|140:28,2,50,0|0|0,1:0|1:0|1:0,0:0:0:0:
256,192,116053,12,4,117329,3:0:0:0:
