osu file format v14

[General]
AudioFilename: Banshi - Ne-nuit - 04 Kotonoha.mp3
AudioLeadIn: 0
PreviewTime: 20547
Countdown: 0
SampleSet: Soft
StackLeniency: 0.7
Mode: 0
LetterboxInBreaks: 0
WidescreenStoryboard: 0

[Editor]
DistanceSpacing: 1.4
BeatDivisor: 4
GridSize: 4
TimelineZoom: 1.3

[Metadata]
Title:Kotonoha
TitleUnicode:Kotonoha
Artist:Banshi
ArtistUnicode:ばんし
Creator:Nozhomi
Version:Hard
Source:
Tags:Ne-nuit nizi ringo Aia
BeatmapID:1071616
BeatmapSetID:415003

[Difficulty]
HPDrainRate:4
CircleSize:3.9
OverallDifficulty:6.5
ApproachRate:7.7
SliderMultiplier:1.3
SliderTickRate:1

[Events]
//Background and Video events
0,0,"nyaaa.jpg",0,0
//Break Periods
2,94870,96428
//Storyboard Layer 0 (Background)
//Storyboard Layer 1 (Fail)
//Storyboard Layer 2 (Pass)
//Storyboard Layer 3 (Foreground)
//Storyboard Sound Samples

[TimingPoints]
202,319.148936170213,4,2,1,50,1,0
202,-100,4,2,1,50,0,0
15521,-100,4,2,2,50,0,0
20627,-100,4,2,2,70,0,0
39776,-100,4,2,2,50,0,0
41053,-100,4,2,1,60,0,0
46159,-100,4,2,2,70,0,0
50946,-100,4,2,2,50,0,0
51265,-100,4,2,2,70,0,0
59563,-100,4,2,2,50,0,0
61478,-100,4,2,2,70,0,0
74324,-100,4,2,1,70,0,0
75521,-100,4,2,2,70,0,0
81505,-100,4,2,2,50,0,0
81904,-100,4,2,2,70,0,0
91159,-100,4,2,2,50,0,0
92116,-100,4,2,2,70,0,0
100095,-100,4,2,2,30,0,0
100414,-100,4,2,2,35,0,0
100733,-100,4,2,2,40,0,0
101053,-100,4,2,2,50,0,0
102329,-83.3333333333333,4,2,2,70,0,1
114457,-83.3333333333333,4,2,2,40,0,1
116053,-100,4,2,1,50,0,0

[Colours]
Combo1 : 217,32,217
Combo2 : 197,192,24
Combo3 : 105,196,222
Combo4 : 127,75,147

[HitObjects]
68,208,202,6,0,P|114:254|201:273,1,130,2|0,0:0|0:0,0:0:0:0:
251,273,680,2,0,P|312:254|355:207,1,130,0|0,0:0|0:0,0:0:0:0:
372,132,1159,1,0,0:0:0:0:
251,273,1478,6,0,L|256:344,1,65
170,339,1797,2,0,L|174:274,1,65,0|0,0:0|0:0,0:0:0:0:
208,204,2116,1,2,3:0:0:0:
340,124,2436,1,0,0:0:0:0:
418,170,2595,1,0,0:0:0:0:
334,208,2755,6,0,B|294:220|294:220|208:204,1,130,2|0,0:0|0:0,0:0:0:0:
127,203,3233,2,0,P|143:255|223:279,1,130,0|0,0:0|0:0,0:0:0:0:
216,280,3872,1,0,0:0:0:0:
224,276,4191,6,0,L|221:340,1,65
136,296,4510,1,2,0:0:0:0:
84,213,4670,1,2,3:0:0:0:
80,132,4829,1,0,0:0:0:0:
140,76,4989,2,0,L|208:72,1,65,0|0,0:0|0:0,0:0:0:0:
296,92,5308,6,0,P|264:140|280:212,1,130,2|0,0:0|0:0,0:0:0:0:
352,224,5787,2,0,P|384:176|368:104,1,130,0|0,0:0|0:0,0:0:0:0:
296,92,6265,1,0,0:0:0:0:
144,136,6584,6,0,P|112:160|76:160,1,65,2|0,0:0|0:0,0:0:0:0:
124,232,6904,2,0,P|132:268|120:304,1,65,0|0,0:0|0:0,0:0:0:0:
56,264,7223,1,2,3:0:0:0:
200,328,7542,1,0,0:0:0:0:
276,304,7702,1,0,0:0:0:0:
276,304,7861,6,0,P|330:292|342:357,1,130,2|0,0:0|0:0,0:0:0:0:
276,304,8340,2,0,L|284:168,1,130,0|0,0:0|0:0,0:0:0:0:
360,156,8819,2,0,L|363:220,1,65,0|0,0:0|0:0,0:0:0:0:
436,184,9138,6,0,P|423:105|374:75,1,130,2|0,0:0|0:0,0:0:0:0:
308,76,9616,2,0,B|212:88|212:88|168:80,1,130,0|0,0:0|0:0,0:0:0:0:
104,60,10095,1,0,0:0:0:0:
75,212,10414,6,0,P|112:281|152:210,2,195,4|2|0,0:0|0:0|0:0,0:0:0:0:
223,159,11691,2,0,P|325:171|261:91,1,260,2|0,0:0|0:0,0:0:0:0:
112,140,12648,1,2,0:0:0:0:
151,209,12808,1,0,0:0:0:0:
212,256,12967,6,0,P|282:275|341:257,1,130,2|0,0:0|0:0,0:0:0:0:
392,204,13446,2,0,L|400:64,1,130,2|0,0:0|0:0,0:0:0:0:
252,132,14084,1,2,0:0:0:0:
396,208,14404,5,0,0:0:0:0:
396,208,14563,2,0,L|468:204,1,65,0|2,0:0|0:0,0:0:0:0:
408,284,14882,2,0,L|336:280,1,65,0|0,0:0|0:0,0:0:0:0:
256,304,15202,1,2,0:0:0:0:
256,304,15361,1,0,0:0:0:0:
180,356,15521,6,0,P|158:292|191:235,1,130,4|0,0:0|1:0,0:0:0:0:
326,239,16159,2,0,P|354:296|332:356,1,130,2|0,0:0|1:0,0:0:0:0:
185,240,16797,2,0,P|133:220|57:236,1,130,2|0,0:0|1:0,0:0:0:0:
232,304,17436,2,0,L|225:160,1,130,2|0,0:0|1:0,0:0:0:0:
364,244,18074,6,0,P|396:252|436:240,1,65,2|2,0:0|0:0,0:0:0:0:
396,172,18393,1,0,1:0:0:0:
352,108,18553,2,0,L|368:56,4,32.5,2|2|2|2|2,0:0|0:0|0:0|0:0|0:0,0:0:0:0:
256,192,19031,12,2,20308,0:0:0:0:
176,152,20627,5,2,0:0:0:0:
176,152,20787,2,0,B|128:164|128:164|40:152,1,130,0|0,0:0|0:0,0:0:0:0:
48,153,21265,2,0,L|56:248,1,65,0|2,0:0|0:0,0:0:0:0:
92,288,21584,2,0,P|128:264|164:260,1,65,0|0,1:0|0:0,0:0:0:0:
228,264,21904,1,2,0:0:0:0:
308,288,22063,1,0,0:0:0:0:
308,288,22223,2,0,P|372:300|444:276,1,130,0|0,1:0|0:0,0:0:0:0:
492,228,22702,1,2,0:0:0:0:
418,205,22861,1,0,1:0:0:0:
328,80,23180,5,2,0:0:0:0:
328,79,23340,2,0,P|319:144|326:208,1,130,0|0,0:0|0:0,0:0:0:0:
326,208,23819,2,0,P|280:204|256:208,1,65,0|2,0:0|0:0,0:0:0:0:
183,219,24138,2,0,P|176:188|178:156,1,65,0|0,1:0|0:0,0:0:0:0:
200,80,24457,1,2,0:0:0:0:
124,100,24616,2,0,P|128:64|120:32,2,65,0|0|0,0:0|1:0|0:0,0:0:0:0:
92,176,25095,1,2,0:0:0:0:
92,176,25175,1,0,0:0:0:0:
92,176,25255,1,2,0:0:0:0:
108,252,25414,1,0,1:0:0:0:
260,212,25733,5,2,0:0:0:0:
260,212,25893,2,0,B|304:200|304:200|400:216,1,130,0|0,0:0|0:0,0:0:0:0:
387,213,26372,2,0,P|392:252|388:296,1,65,0|2,0:0|0:0,0:0:0:0:
360,349,26691,1,0,1:0:0:0:
288,381,26851,2,0,P|255:386|224:381,1,65,0|2,0:0|0:0,0:0:0:0:
167,304,27170,1,0,0:0:0:0:
168,304,27329,2,0,P|230:287|294:296,1,130,0|0,1:0|0:0,0:0:0:0:
208,168,27967,1,0,1:0:0:0:
68,48,28287,6,0,L|68:188,1,130,2|0,0:0|1:0,0:0:0:0:
152,116,28765,2,0,P|201:92|276:134,1,130,0|2,0:0|0:0,0:0:0:0:
284,236,29244,2,0,L|152:212,1,130,0|2,1:0|0:0,0:0:0:0:
88,252,29723,1,0,0:0:0:0:
156,292,29882,2,0,L|220:304,1,65,0|0,1:0|0:0,0:0:0:0:
296,324,30202,1,2,0:0:0:0:
296,324,30361,2,0,P|307:354|330:376,2,65,2|0|0,0:0|1:0|0:0,0:0:0:0:
284,236,30840,5,6,0:0:0:0:
284,235,31000,2,0,P|298:174|352:140,1,130,0|0,0:0|0:0,0:0:0:0:
424,172,31478,2,0,P|456:176|492:168,1,65,0|2,0:0|0:0,0:0:0:0:
480,92,31797,2,0,P|447:88|416:94,1,65,0|0,1:0|0:0,0:0:0:0:
352,140,32116,1,2,0:0:0:0:
284,104,32276,1,0,0:0:0:0:
284,104,32436,2,0,P|216:88|148:112,1,130,0|0,1:0|0:0,0:0:0:0:
100,156,32914,1,2,0:0:0:0:
88,76,33074,1,0,1:0:0:0:
112,240,33393,5,2,0:0:0:0:
112,240,33553,2,0,L|120:312,1,65,0|0,0:0|1:0,0:0:0:0:
188,267,33872,2,0,P|251:255|314:271,1,130,0|2,0:0|0:0,0:0:0:0:
384,308,34350,1,0,1:0:0:0:
320,352,34510,1,0,0:0:0:0:
314,271,34670,2,0,B|304:240|304:240|308:196,1,65,2|0,0:0|0:0,0:0:0:0:
328,132,34989,2,0,B|332:100|332:100|324:64,2,65,0|0|2,1:0|0:0|0:0,0:0:0:0:
252,152,35467,1,0,0:0:0:0:
252,152,35627,2,0,P|219:147|187:152,1,65,0|0,1:0|0:0,0:0:0:0:
124,199,35946,6,0,P|100:259|119:319,1,130,2|0,0:0|1:0,0:0:0:0:
29,304,36425,2,0,P|27:227|54:168,1,130,0|2,0:0|0:0,0:0:0:0:
108,131,36904,2,0,P|112:107|104:63,1,65,0|0,1:0|0:0,0:0:0:0:
184,72,37223,1,2,0:0:0:0:
260,60,37382,1,0,0:0:0:0:
260,59,37542,2,0,P|322:43|383:62,1,130,0|2,1:0|0:0,0:0:0:0:
448,108,38021,1,2,0:0:0:0:
416,180,38180,2,0,L|422:244,1,65,0|2,1:0|0:0,0:0:0:0:
368,300,38499,5,6,0:0:0:0:
368,300,38659,2,0,P|346:277|315:268,1,65,0|0,0:0|1:0,0:0:0:0:
202,271,38978,1,2,0:0:0:0:
202,271,39138,2,0,P|171:280|148:303,1,65,2|0,0:0|0:0,0:0:0:0:
132,212,39457,2,0,P|112:188|56:172,1,65,0|0,1:0|0:0,0:0:0:0:
28,116,39776,6,0,L|60:104,3,32.5,0|0|0|0,1:0|1:0|1:0|1:0,0:0:0:0:
84,72,40095,2,0,L|120:60,3,32.5,0|0|0|0,1:0|1:0|1:0|1:0,0:0:0:0:
152,76,40414,2,0,L|197:61,3,32.5,0|0|0|0,1:0|1:0|1:0|1:0,0:0:0:0:
212,40,40733,2,0,L|245:29,3,32.5,0|0|0|0,1:0|1:0|1:0|1:0,0:0:0:0:
280,44,41053,5,4,1:0:0:0:
256,192,41132,12,0,43606,0:0:0:0:
320,148,44882,6,0,P|360:160|404:160,2,65,2|0|0,0:0|0:0|0:0,0:0:0:0:
256,104,45361,1,0,0:0:0:0:
192,148,45521,2,0,P|152:156|120:148,1,65,2|0,0:0|0:0,0:0:0:0:
140,228,45840,2,0,P|144:272|136:296,1,65,0|0,0:3|0:0,0:0:0:0:
96,356,46159,6,0,P|152:336|224:340,1,130,2|2,0:0|3:0,0:0:0:0:
376,360,46797,1,0,0:0:0:0:
376,360,46957,1,2,0:0:0:0:
356,284,47116,2,0,B|349:253|349:253|355:214,1,65,2|0,3:0|0:0,0:0:0:0:
376,148,47436,6,0,B|383:117|383:117|377:84,1,65,2|2,0:0|0:0,0:0:0:0:
304,113,47755,1,2,3:0:0:0:
160,52,48074,1,0,0:0:0:0:
92,88,48233,1,2,0:0:0:0:
92,88,48393,2,0,L|24:84,1,65,2|0,3:0|0:0,0:0:0:0:
48,160,48712,6,0,P|108:180|120:256,1,130,2|2,0:0|3:0,0:0:0:0:
23,272,49191,2,0,P|10:211|47:160,1,130,0|2,0:0|0:0,0:0:0:0:
160,132,49669,1,2,3:0:0:0:
196,200,49829,1,0,0:0:0:0:
264,164,49989,5,2,0:0:0:0:
284,88,50148,2,0,P|296:52|292:20,1,65,0|2,0:0|3:0,0:0:0:0:
368,52,50467,2,0,P|373:83|386:113,1,65,2|0,0:0|0:0,0:0:0:0:
424,184,50787,1,2,0:0:0:0:
380,248,50946,2,0,L|296:244,1,65,2|2,0:0|0:0,0:0:0:0:
208,256,51265,6,0,P|140:288|124:340,1,130,4|0,0:0|1:0,0:0:0:0:
212,344,51744,1,0,0:0:0:0:
212,344,51824,1,0,0:0:0:0:
212,344,51904,2,0,L|284:332,1,65,0|2,0:0|0:0,0:0:0:0:
287,252,52223,2,0,P|280:216|248:188,1,65,0|0,1:0|0:0,0:0:0:0:
324,148,52542,6,0,P|328:116|349:91,1,65,2|0,0:0|0:0,0:0:0:0:
284,44,52861,2,0,P|200:64|140:56,1,130,0|0,1:0|0:0,0:0:0:0:
84,32,53340,1,2,0:0:0:0:
88,108,53499,2,0,P|110:131|140:142,1,65,0|0,1:0|0:0,0:0:0:0:
240,140,53819,6,0,B|260:200|216:200|232:280,1,130,2|0,0:0|1:0,0:0:0:0:
304,244,54297,2,0,L|336:240,2,32.5,0|0|0,0:0|0:0|0:0,0:0:0:0:
284,320,54616,1,2,0:0:0:0:
364,316,54776,2,0,P|393:298|412:266,1,65,0|0,1:0|0:0,0:0:0:0:
432,196,55095,6,0,L|425:131,1,65,2|0,0:0|0:0,0:0:0:0:
360,88,55414,2,0,P|328:128|248:144,1,130,0|2,1:0|0:0,0:0:0:0:
180,120,55893,1,2,0:0:0:0:
196,196,56053,2,0,P|188:228|160:256,1,65,0|0,1:0|0:0,0:0:0:0:
260,260,56372,6,0,L|408:264,1,130,6|0,0:0|1:0,0:0:0:0:
440,320,56850,2,0,L|499:321,2,32.5,0|0|0,0:0|0:0|0:0,0:0:0:0:
364,340,57170,1,2,0:0:0:0:
288,340,57329,2,0,L|223:338,1,65,0|0,1:0|0:0,0:0:0:0:
164,283,57648,6,0,P|190:265|221:257,1,65,2|0,0:0|0:0,0:0:0:0:
300,263,57967,2,0,P|280:204|222:179,1,130,0|2,1:0|0:0,0:0:0:0:
144,192,58446,1,0,0:0:0:0:
68,212,58606,2,0,P|36:216|3:212,1,65,0|0,1:0|0:0,0:0:0:0:
36,128,58925,5,0,1:0:0:0:
68,212,59084,1,0,0:0:0:0:
112,108,59244,1,0,1:0:0:0:
144,192,59403,1,0,0:0:0:0:
188,84,59563,2,0,L|232:68,3,32.5,0|0|0|0,1:0|1:0|1:0|1:0,0:0:0:0:
256,88,59882,2,0,L|288:76,3,32.5,0|0|0|0,1:0|1:0|1:0|1:0,0:0:0:0:
326,90,60202,6,0,B|372:136|380:212|364:272|310:313|310:313|235:273|251:177,1,390,4|2,0:0|0:0,0:0:0:0:
444,160,61478,6,0,P|448:216|434:288,1,130,6|0,0:0|1:0,0:0:0:0:
432,300,61877,1,0,0:0:0:0:
428,312,61957,2,0,P|360:332|284:300,1,130,0|2,0:0|0:0,0:0:0:0:
248,264,62436,2,0,P|232:232|232:196,1,65,0|0,1:0|0:0,0:0:0:0:
156,176,62755,2,0,P|152:248|140:308,1,130,2|0,0:0|1:0,0:0:0:0:
156,176,63393,2,0,L|144:100,1,65,0|2,0:0|0:0,0:0:0:0:
224,124,63712,2,0,L|238:48,1,65,0|0,1:0|0:0,0:0:0:0:
308,92,64031,6,0,P|372:80|440:96,1,130,2|0,0:0|1:0,0:0:0:0:
434,174,64510,2,0,P|371:188|308:176,1,130,0|2,0:0|0:0,0:0:0:0:
312,256,64989,2,0,P|272:244|236:208,1,65,0|0,1:0|0:0,0:0:0:0:
236,308,65308,1,2,0:0:0:0:
159,316,65467,2,0,L|139:351,2,32.5,0|0|0,0:0|0:0|1:0,0:0:0:0:
108,255,65787,2,0,P|107:223|98:192,1,65,0|2,0:0|0:0,0:0:0:0:
64,124,66106,1,2,0:0:0:0:
63,123,66265,2,0,P|54:93|53:60,1,65,0|0,1:0|0:0,0:0:0:0:
120,16,66584,6,0,P|148:44|144:140,1,130,2|0,0:0|1:0,0:0:0:0:
144,140,66983,1,0,0:0:0:0:
136,148,67063,2,0,P|192:148|236:216,1,130,0|2,0:0|0:0,0:0:0:0:
196,268,67542,2,0,L|120:264,1,65,0|0,1:0|0:0,0:0:0:0:
96,336,67861,2,0,L|225:342,1,130,2|0,0:0|1:0,0:0:0:0:
380,348,68499,2,0,P|356:308|356:276,1,65,0|2,0:0|0:0,0:0:0:0:
352,212,68819,2,0,P|363:166|385:144,1,65,0|0,1:0|0:0,0:0:0:0:
436,104,69138,6,0,P|384:116|284:88,1,130,2|0,0:0|1:0,0:0:0:0:
240,68,69616,2,0,P|176:54|113:66,1,130,0|2,0:0|0:0,0:0:0:0:
40,96,70095,2,0,P|32:72|36:48,2,32.5,0|0|2,1:0|0:0|0:0,0:0:0:0:
80,164,70414,2,0,P|88:220|76:252,1,65,2|0,0:0|0:0,0:0:0:0:
164,264,70733,2,0,P|160:231|168:200,1,65,0|2,1:0|0:0,0:0:0:0:
240,144,71053,2,0,L|304:148,1,65,2|2,0:0|0:0,0:0:0:0:
256,232,71372,2,0,L|320:236,1,65,0|0,1:0|0:0,0:0:0:0:
399,175,71691,6,0,P|420:236|399:297,1,130,6|0,0:0|1:0,0:0:0:0:
320,236,72170,2,0,P|291:293|233:321,1,130,0|2,0:0|0:0,0:0:0:0:
156,324,72648,2,0,L|72:308,1,65,0|0,1:0|0:0,0:0:0:0:
128,244,72967,2,0,L|191:231,1,65,2|0,0:0|0:0,0:0:0:0:
152,164,73287,2,0,P|126:106|148:47,1,130,0|0,1:0|0:0,0:0:0:0:
204,104,73765,1,2,0:0:0:0:
260,47,73925,2,0,P|291:41|323:47,1,65,0|0,1:0|0:0,0:0:0:0:
372,108,74244,6,0,P|397:72|396:22,2,86.6666666666667,2|0|2,0:0|0:0|0:0,0:0:0:0:
378,213,74882,2,0,P|421:205|455:169,2,86.6666666666667,0|2|0,0:0|0:0|0:0,0:0:0:0:
440,296,75521,6,0,L|310:289,1,130,2|0,0:0|1:0,0:0:0:0:
244,248,75999,1,0,0:0:0:0:
171,280,76159,2,0,P|168:295|171:311,2,32.5,2|0|2,0:0|0:0|0:0,0:0:0:0:
180,202,76478,2,0,P|183:170|177:138,1,65,0|0,1:0|0:0,0:0:0:0:
104,112,76797,6,0,P|86:172|105:234,1,130,6|0,0:0|1:0,0:0:0:0:
171,280,77276,1,0,0:0:0:0:
244,252,77436,2,0,B|288:244|288:244|392:252,1,130,0|0,0:0|1:0,0:0:0:0:
240,332,78074,2,0,P|200:320|173:285,1,65,2|0,0:0|0:0,0:0:0:0:
168,228,78393,2,0,P|200:184|272:177,1,130,0|0,1:0|0:0,0:0:0:0:
344,204,78872,1,2,0:0:0:0:
416,232,79031,2,0,P|450:237|490:222,1,65,0|0,1:0|0:0,0:0:0:0:
444,160,79350,5,2,0:0:0:0:
336,48,79670,1,0,1:0:0:0:
272,92,79829,2,0,P|212:104|140:88,1,130,2|2,0:0|0:0,0:0:0:0:
76,52,80308,1,0,1:0:0:0:
77,130,80467,1,2,0:0:0:0:
144,172,80627,2,0,P|180:180|224:181,1,65,0|2,0:0|0:0,0:0:0:0:
284,172,80946,2,0,P|310:163|340:136,1,65,0|0,1:0|0:0,0:0:0:0:
400,188,81265,2,0,P|364:224|352:304,1,130,2|2,0:0|0:0,0:0:0:0:
300,360,81744,1,2,0:0:0:0:
300,360,81824,1,2,0:0:0:0:
300,360,81904,6,0,P|268:348|228:348,1,65,6|0,0:0|0:0,0:0:0:0:
160,352,82223,2,0,P|148:312|152:272,1,65,0|0,1:0|0:0,0:0:0:0:
160,212,82542,2,0,P|159:179|148:149,1,65,0|2,0:0|0:0,0:0:0:0:
104,84,82861,1,0,1:0:0:0:
72,156,83021,1,0,0:0:0:0:
148,149,83180,2,0,P|171:127|181:83,2,65,2|0|0,0:0|0:0|1:0,0:0:0:0:
116,224,83659,2,0,L|245:216,1,130,0|2,0:0|0:0,0:0:0:0:
324,208,84138,2,0,P|352:196|380:160,1,65,0|0,1:0|0:0,0:0:0:0:
424,112,84457,6,0,L|412:248,1,130,2|0,0:0|1:0,0:0:0:0:
330,273,84936,2,0,L|324:208,1,65,0|0,0:0|0:0,0:0:0:0:
316,128,85254,1,2,0:0:0:0:
244,168,85414,2,0,P|212:172|160:160,1,65,0|0,1:0|0:0,0:0:0:0:
179,88,85733,2,0,P|211:84|244:88,1,65,2|0,0:0|0:0,0:0:0:0:
316,128,86053,2,0,B|352:136|352:136|448:124,1,130,0|2,1:0|0:0,0:0:0:0:
500,68,86531,1,2,0:0:0:0:
444,124,86691,2,0,P|440:168|444:200,1,65,0|0,1:0|0:0,0:0:0:0:
428,264,87010,6,0,P|368:236|296:240,1,130,2|0,0:0|1:0,0:0:0:0:
236,256,87489,1,0,0:0:0:0:
236,256,87569,1,0,0:0:0:0:
236,256,87648,1,0,0:0:0:0:
160,280,87808,2,0,P|88:288|76:284,1,65,2|0,0:0|1:0,0:0:0:0:
36,144,88287,2,0,B|100:124|100:124|176:136,1,130,2|0,0:0|1:0,0:0:0:0:
228,176,88765,1,0,0:0:0:0:
292,132,88925,2,0,P|328:128|376:140,1,65,2|2,0:0|0:0,0:0:0:0:
428,164,89244,2,0,P|456:186|481:229,1,65,0|0,1:0|0:0,0:0:0:0:
476,288,89563,5,2,0:0:0:0:
332,344,89882,1,0,1:0:0:0:
256,208,90202,1,2,0:0:0:0:
180,344,90521,1,0,1:0:0:0:
88,216,90840,6,0,P|72:180|72:132,1,65,2|2,0:0|0:0,0:0:0:0:
148,164,91159,2,0,P|145:124|161:79,1,65,2|2,0:0|0:0,0:0:0:0:
221,134,91478,2,0,P|223:117|231:95,2,32.5,2|2|2,0:0|0:0|0:0,0:0:0:0:
299,136,91797,2,0,P|306:121|322:103,2,32.5,2|2|2,0:0|0:0|0:0,0:0:0:0:
370,166,92116,5,4,0:0:0:0:
256,192,92196,12,0,94670,0:0:0:0:
436,40,97223,5,2,0:0:0:0:
388,188,97542,1,2,3:0:0:0:
192,60,98021,2,0,L|127:63,1,65,2|2,0:0|3:0,0:0:0:0:
28,184,98499,5,2,0:0:0:0:
28,184,98659,1,2,0:0:0:0:
104,176,98819,2,0,B|233:170,1,130,2|0,3:0|0:0,0:0:0:0:
368,248,99457,1,2,3:0:0:0:
444,112,99776,6,0,P|416:52|336:36,1,130,2|2,0:0|3:0,0:0:0:0:
284,54,100255,2,0,L|143:46,1,130
124,120,100733,2,0,L|188:123,1,65,0|0,0:0|1:0,0:0:0:0:
268,132,101053,1,2,0:0:0:0:
343,110,101212,6,0,P|345:142|335:173,1,65,2|2,0:0|0:0,0:0:0:0:
330,251,101531,2,0,P|310:275|280:286,1,65,2|2,0:0|0:0,0:0:0:0:
233,346,101850,2,0,P|201:345|171:333,1,65,2|2,0:0|0:0,0:0:0:0:
103,294,102170,1,2,0:0:0:0:
56,200,102329,6,0,L|212:216,1,155.999995239258,6|0,0:0|1:0,0:0:0:0:
312,216,102808,1,0,0:0:0:0:
312,216,102888,1,0,0:0:0:0:
312,216,102967,2,0,P|320:172|308:128,1,77.999997619629,2|0,0:0|0:0,0:0:0:0:
276,52,103287,2,0,P|320:68|364:64,1,77.999997619629,0|0,1:0|0:0,0:0:0:0:
440,40,103606,5,2,0:0:0:0:
416,128,103765,2,0,B|408:164|408:164|416:212,1,77.999997619629,0|0,0:0|1:0,0:0:0:0:
432,296,104084,1,0,0:0:0:0:
344,248,104244,2,0,L|332:166,1,77.999997619629,2|0,0:0|0:0,0:0:0:0:
244,140,104563,2,0,P|240:176|260:228,1,77.999997619629,0|0,1:0|0:0,0:0:0:0:
280,328,104882,6,0,B|180:312|180:312|104:324,1,155.999995239258,2|0,0:0|1:0,0:0:0:0:
36,344,105361,2,0,L|18:378,2,38.9999988098145,0|0|2,0:0|0:0|0:0,0:0:0:0:
56,252,105680,1,0,0:0:0:0:
56,160,105840,2,0,L|44:72,1,77.999997619629,0|0,1:0|0:0,0:0:0:0:
132,120,106159,5,2,0:0:0:0:
132,120,106319,2,0,P|169:129|212:128,1,77.999997619629,0|0,0:0|1:0,0:0:0:0:
300,108,106638,1,0,0:0:0:0:
222,53,106797,2,0,P|207:89|208:128,1,77.999997619629,2|0,0:0|0:0,0:0:0:0:
275,200,107116,2,0,P|313:201|350:188,1,77.999997619629,0|2,1:0|0:0,0:0:0:0:
448,120,107436,6,0,P|471:199|424:280,1,155.999995239258,2|0,0:0|1:0,0:0:0:0:
360,308,107914,1,0,0:0:0:0:
360,308,107994,1,0,0:0:0:0:
360,308,108074,2,0,L|256:300,1,77.999997619629,2|0,0:0|0:0,0:0:0:0:
216,236,108393,2,0,P|256:220|296:216,1,77.999997619629,0|0,1:0|0:0,0:0:0:0:
204,316,108712,5,2,0:0:0:0:
132,256,108871,2,0,B|136:176,1,77.999997619629,0|0,0:0|1:0,0:0:0:0:
52,220,109190,1,0,0:0:0:0:
56,128,109350,2,0,L|60:48,1,77.999997619629,2|0,0:0|0:0,0:0:0:0:
139,100,109669,2,0,L|135:177,1,77.999997619629,0|0,1:0|0:0,0:0:0:0:
100,308,109989,6,0,P|48:307|100:272,1,155.999995239258,2|0,0:0|1:0,0:0:0:0:
184,307,110467,2,0,P|182:327|175:345,2,38.9999988098145,0|0|2,0:0|0:0|0:0,0:0:0:0:
180,212,110787,1,0,0:0:0:0:
236,140,110947,2,0,B|272:132|272:132|316:140,1,77.999997619629,0|0,1:0|0:0,0:0:0:0:
352,232,111266,5,2,0:0:0:0:
352,232,111426,2,0,P|314:241|275:233,1,77.999997619629,0|0,0:0|1:0,0:0:0:0:
180,212,111745,1,0,0:0:0:0:
216,336,111904,1,2,0:0:0:0:
88,308,112063,1,2,0:0:0:0:
180,212,112223,1,0,1:0:0:0:
56,164,112382,1,2,0:0:0:0:
180,84,112542,6,0,P|216:72|280:88,1,77.999997619629,6|2,0:0|0:0,0:0:0:0:
268,168,112861,2,0,P|305:169|360:205,1,77.999997619629,0|2,1:0|0:0,0:0:0:0:
236,262,113180,2,0,P|202:243|180:212,1,77.999997619629,2|2,0:0|0:0,0:0:0:0:
268,168,113499,2,0,P|252:132|253:93,1,77.999997619629,0|2,1:0|0:0,0:0:0:0:
372,108,113819,5,4,0:0:0:0:
372,108,113978,1,0,0:0:0:0:
440,200,114138,1,0,1:0:0:0:
440,200,114297,1,0,0:0:0:0:
392,300,114457,1,2,0:0:0:0:
392,300,114616,1,2,0:0:0:0:
284,276,114776,1,4,0:0:0:0:
268,168,114936,1,2,0:0:0:0:
184,236,115095,6,0,P|168:244|136:248,3,38.9999988098145,0|0|0|0,1:0|1:0|1:0|1:0,0:0:0:0:
92,240,115414,2,0,P|75:234|49:214,3,38.9999988098145,0|0|0|0,1:0|1:0|1:0|1:0,0:0:0:0:
28,176,115733,2,0,P|19:160|15:128,3,38.9999988098145,0|0|0|0,1:0|1:0|1:0|1:0,0:0:0:0:
256,192,116053,12,4,117329,3:0:0:0:
