osu file format v14

[General]
AudioFilename: Banshi - Ne-nuit - 04 Kotonoha.mp3
AudioLeadIn: 0
PreviewTime: 20547
Countdown: 0
SampleSet: Soft
StackLeniency: 0.5
Mode: 0
LetterboxInBreaks: 0
WidescreenStoryboard: 0

[Editor]
DistanceSpacing: 1.8
BeatDivisor: 4
GridSize: 4
TimelineZoom: 1.7

[Metadata]
Title:Kotonoha
TitleUnicode:Kotonoha
Artist:Banshi
ArtistUnicode:ばんし
Creator:Nozhomi
Version:Night World
Source:
Tags:Ne-nuit nizi ringo Aia
BeatmapID:899398
BeatmapSetID:415003

[Difficulty]
HPDrainRate:6.5
CircleSize:4.2
OverallDifficulty:8.2
ApproachRate:9.1
SliderMultiplier:1.7
SliderTickRate:1

[Events]
//Background and Video events
0,0,"nyaaa.jpg",0,0
//Break Periods
2,94870,96623
//Storyboard Layer 0 (Background)
//Storyboard Layer 1 (Fail)
//Storyboard Layer 2 (Pass)
//Storyboard Layer 3 (Foreground)
//Storyboard Sound Samples

[TimingPoints]
202,319.148936170213,4,2,1,50,1,0
202,-166.666666666667,4,2,1,50,0,0
15521,-166.666666666667,4,2,2,50,0,0
20627,-100,4,2,2,70,0,0
28765,-83.3333333333333,4,2,2,70,0,0
29244,-71.4285714285714,4,2,2,70,0,0
29563,-100,4,2,2,70,0,0
38978,-100,4,2,0,70,0,0
39058,-100,4,2,2,70,0,0
39776,-100,4,2,2,50,0,0
41053,-166.666666666667,4,2,1,60,0,0
46159,-166.666666666667,4,2,2,70,0,0
50308,-166.666666666667,4,2,2,70,0,0
50627,-166.666666666667,4,2,2,70,0,0
50946,-166.666666666667,4,2,2,50,0,0
51265,-100,4,2,2,70,0,0
59563,-100,4,2,2,50,0,0
61478,-100,4,2,2,70,0,0
74324,-100,4,2,1,70,0,0
75521,-100,4,2,2,70,0,0
81505,-100,4,2,2,50,0,0
81904,-100,4,2,2,70,0,0
91159,-100,4,2,2,50,0,0
92116,-166.666666666667,4,2,2,70,0,0
100095,-166.666666666667,4,2,2,30,0,0
100414,-166.666666666667,4,2,2,35,0,0
100733,-166.666666666667,4,2,2,40,0,0
101053,-166.666666666667,4,2,2,50,0,0
102329,-100,4,2,2,70,0,1
114457,-100,4,2,2,40,0,1
116053,-100,4,2,1,50,0,0

[Colours]
Combo1 : 217,32,217
Combo2 : 197,192,24
Combo3 : 105,196,222
Combo4 : 127,75,147

[HitObjects]
104,88,202,6,0,P|140:116|200:116,1,101.999996887207,2|0,0:0|0:0,0:0:0:0:
268,84,680,1,0,0:0:0:0:
320,20,840,2,0,P|349:70|339:125,1,101.999996887207,2|0,3:0|0:0,0:0:0:0:
256,248,1478,5,2,0:0:0:0:
172,308,1638,1,0,0:0:0:0:
256,368,1797,1,0,0:0:0:0:
340,308,1957,1,0,0:0:0:0:
256,248,2116,1,2,3:0:0:0:
256,40,2436,1,0,0:0:0:0:
152,84,2595,1,0,0:0:0:0:
340,192,2755,5,2,0:0:0:0:
152,84,3074,1,0,0:0:0:0:
244,136,3233,1,0,0:0:0:0:
100,232,3553,1,0,0:0:0:0:
120,220,3872,1,0,0:0:0:0:
140,208,4191,1,0,0:0:0:0:
256,276,4350,1,0,0:0:0:0:
432,192,4510,5,2,0:0:0:0:
484,48,4670,1,2,3:0:0:0:
368,92,4829,1,0,0:0:0:0:
268,68,4989,1,0,0:0:0:0:
300,156,5148,1,0,0:0:0:0:
256,276,5308,6,0,P|216:304|160:296,1,101.999996887207,2|0,0:0|0:0,0:0:0:0:
88,269,5787,1,0,0:0:0:0:
76,188,5946,2,0,L|88:76,1,101.999996887207,2|0,3:0|0:0,0:0:0:0:
86,86,6584,5,2,0:0:0:0:
160,152,6744,1,0,0:0:0:0:
256,172,6904,1,0,0:0:0:0:
352,152,7063,1,0,0:0:0:0:
426,86,7223,1,2,3:0:0:0:
256,24,7542,1,0,0:0:0:0:
256,156,7702,1,0,0:0:0:0:
256,156,7861,6,0,P|252:216|216:260,1,101.999996887207,2|0,0:0|0:0,0:0:0:0:
116,200,8340,2,0,P|136:185|160:176,1,50.9999984436036,0|2,0:0|3:0,0:0:0:0:
256,156,8659,1,0,0:0:0:0:
352,176,8819,2,0,P|372:191|395:200,1,50.9999984436036
480,148,9138,6,0,L|468:264,1,101.999996887207,2|0,0:0|0:0,0:0:0:0:
388,296,9616,1,0,0:0:0:0:
396,201,9776,2,0,L|406:99,1,101.999996887207,2|0,3:0|0:0,0:0:0:0:
255,160,10414,6,0,P|217:97|256:35,2,152.999995330811,4|2|0,0:0|0:0|0:0,0:0:0:0:
347,224,11691,2,0,P|256:274|161:222,1,203.999993774414,2|0,0:0|0:0,0:0:0:0:
4,96,12648,1,2,0:0:0:0:
106,110,12808,1,0,0:0:0:0:
40,188,12967,6,0,P|28:212|36:288,1,101.999996887207,2|0,0:0|0:0,0:0:0:0:
120,242,13446,2,0,P|128:267|187:315,1,101.999996887207,2|0,0:0|0:0,0:0:0:0:
350,193,14084,2,0,P|303:176|256:192,1,101.999996887207,2|0,0:0|0:0,0:0:0:0:
168,260,14563,1,0,0:0:0:0:
288,320,14723,1,2,0:0:0:0:
88,232,14882,1,0,0:0:0:0:
245,92,15042,1,0,0:0:0:0:
392,124,15202,2,0,B|371:132|371:132|344:124,1,50.9999984436036,2|0,0:0|0:0,0:0:0:0:
192,36,15521,6,0,P|168:80|190:146,1,101.999996887207,4|0,0:0|1:0,0:0:0:0:
319,348,16159,2,0,P|343:304|335:254,1,101.999996887207,2|0,0:0|1:0,0:0:0:0:
177,129,16797,2,0,P|127:110|128:60,1,101.999996887207,2|0,0:0|1:0,0:0:0:0:
335,129,17276,1,0,0:0:0:0:
335,129,17356,1,0,0:0:0:0:
335,129,17436,2,0,P|385:110|384:60,1,101.999996887207,2|0,0:0|1:0,0:0:0:0:
168,56,18074,5,2,0:0:0:0:
232,136,18233,1,2,0:0:0:0:
335,129,18393,1,0,1:0:0:0:
283,39,18553,1,2,0:0:0:0:
255,64,18632,1,2,0:0:0:0:
237,98,18712,1,2,0:0:0:0:
232,136,18792,1,2,0:0:0:0:
241,170,18872,1,2,0:0:0:0:
260,200,18952,1,2,0:0:0:0:
287,221,19031,6,0,B|341:234|341:234|401:221|401:221|420:284|420:284|341:303|341:303|261:284|261:284|232:296|200:284,1,407.999987548829,0|2,0:0|0:0,0:0:0:0:
64,68,20627,5,2,0:0:0:0:
64,68,20787,2,0,L|152:80,1,85,0|0,0:0|1:0,0:0:0:0:
444,156,21106,1,0,0:0:0:0:
444,156,21186,1,0,0:0:0:0:
444,156,21266,2,0,L|356:168,1,85,0|2,0:0|0:0,0:0:0:0:
64,236,21584,1,0,1:0:0:0:
64,236,21744,2,0,L|152:248,1,85,0|2,0:0|0:0,0:0:0:0:
444,324,22063,1,0,0:0:0:0:
444,324,22223,2,0,L|356:336,1,85,0|0,1:0|0:0,0:0:0:0:
68,324,22542,2,0,L|156:336,1,85,0|2,0:0|0:0,0:0:0:0:
256,244,22861,1,0,1:0:0:0:
140,44,23180,5,2,0:0:0:0:
140,44,23340,2,0,P|110:73|110:114,1,85,0|0,0:0|1:0,0:0:0:0:
372,340,23659,1,0,0:0:0:0:
372,340,23739,1,0,0:0:0:0:
372,340,23819,2,0,P|401:310|401:269,1,85,0|2,0:0|0:0,0:0:0:0:
108,308,24138,1,0,1:0:0:0:
107,307,24297,2,0,P|136:336|177:336,1,85,0|2,0:0|0:0,0:0:0:0:
404,76,24616,1,0,0:0:0:0:
404,76,24776,2,0,P|375:47|334:46,1,85,0|0,1:0|0:0,0:0:0:0:
334,248,25095,2,0,P|375:247|404:217,1,85,2|2,0:0|0:0,0:0:0:0:
334,147,25414,1,0,1:0:0:0:
120,48,25733,5,2,0:0:0:0:
120,48,25893,2,0,B|142:84|142:84|120:120,1,85,0|0,0:0|1:0,0:0:0:0:
380,160,26212,1,0,0:0:0:0:
380,160,26292,1,0,0:0:0:0:
380,160,26372,2,0,B|358:196|358:196|380:232,1,85,0|2,0:0|0:0,0:0:0:0:
128,276,26691,1,0,1:0:0:0:
128,276,26851,2,0,B|150:312|150:312|128:348,1,85,0|2,0:0|0:0,0:0:0:0:
74,186,27170,1,0,0:0:0:0:
74,186,27329,2,0,P|118:198|174:182,1,85,0|0,1:0|0:0,0:0:0:0:
438,186,27648,2,0,P|394:198|338:182,1,85,0|2,0:0|0:0,0:0:0:0:
256,76,27967,1,0,1:0:0:0:
136,332,28287,6,0,P|74:298|135:264,1,170,2|0,0:0|1:0,0:0:0:0:
264,312,28765,2,0,B|292:332|304:360|304:360|280:272|328:212,1,203.999993774414
392,116,29244,2,0,B|404:72|444:64|480:68|504:88|520:128|504:160|504:160|444:148,1,237.999992736817,0|2,1:0|0:0,0:0:0:0:
288,112,29723,1,0,0:0:0:0:
180,80,29882,2,0,P|152:48|142:7,2,85,0|0|2,1:0|0:0|0:0,0:0:0:0:
208,192,30361,2,0,P|204:232|172:276,2,85,2|0|0,0:0|1:0|0:0,0:0:0:0:
88,144,30840,5,6,0:0:0:0:
28,292,30999,1,0,0:0:0:0:
180,269,31159,1,0,1:0:0:0:
88,144,31319,1,0,0:0:0:0:
88,144,31398,1,0,0:0:0:0:
88,144,31478,2,0,P|144:172|184:160,1,85,0|2,0:0|0:0,0:0:0:0:
316,116,31797,1,0,1:0:0:0:
316,116,31957,2,0,L|312:220,1,85,0|2,0:0|0:0,0:0:0:0:
476,264,32276,1,0,0:0:0:0:
476,264,32436,2,0,L|479:179,1,85,0|0,1:0|0:0,0:0:0:0:
484,64,32755,1,0,0:0:0:0:
396,180,32914,1,2,0:0:0:0:
256,68,33074,1,0,1:0:0:0:
92,140,33393,5,2,0:0:0:0:
92,140,33553,2,0,P|92:196|116:244,1,85,0|0,0:0|1:0,0:0:0:0:
256,344,33872,1,0,0:0:0:0:
256,344,33952,1,0,0:0:0:0:
256,344,34032,2,0,L|256:240,1,85,0|2,0:0|0:0,0:0:0:0:
420,140,34350,1,0,1:0:0:0:
420,140,34510,2,0,P|420:196|396:244,1,85,0|2,0:0|0:0,0:0:0:0:
256,259,34829,1,0,0:0:0:0:
122,219,34989,2,0,P|80:212|20:236,1,85,0|0,1:0|0:0,0:0:0:0:
184,356,35308,1,2,0:0:0:0:
195,220,35468,2,0,P|183:176|120:147,1,85,0|0,0:0|1:0,0:0:0:0:
160,288,35787,1,0,0:0:0:0:
232,124,35946,6,0,P|169:70|86:102,1,170,2|0,0:0|1:0,0:0:0:0:
60,272,36425,1,0,0:0:0:0:
60,272,36505,1,0,0:0:0:0:
60,272,36584,2,0,P|80:305|143:317,1,85,0|2,0:0|0:0,0:0:0:0:
452,272,36904,1,0,1:0:0:0:
452,272,37063,2,0,P|432:305|369:317,1,85,0|2,0:0|0:0,0:0:0:0:
256,144,37382,1,0,0:0:0:0:
256,144,37542,2,0,L|256:59,1,85,0|0,1:0|0:0,0:0:0:0:
96,120,37861,1,2,0:0:0:0:
184,236,38021,1,2,0:0:0:0:
328,236,38180,1,0,1:0:0:0:
416,120,38340,1,2,0:0:0:0:
100,35,38499,5,6,0:0:0:0:
186,151,38659,2,0,B|184:236,1,85,0|0,0:0|1:0,0:0:0:0:
412,36,38978,1,2,0:0:0:0:
325,151,39138,2,0,B|328:236,1,85,2|0,0:0|0:0,0:0:0:0:
152,88,39457,1,0,1:0:0:0:
352,84,39616,1,0,0:0:0:0:
256,260,39776,5,0,1:0:0:0:
260,272,39856,1,0,1:0:0:0:
264,284,39936,1,0,1:0:0:0:
268,296,40015,1,0,1:0:0:0:
272,308,40095,1,0,1:0:0:0:
283,320,40175,1,0,1:0:0:0:
302,328,40255,1,0,1:0:0:0:
326,320,40334,1,0,1:0:0:0:
341,294,40414,5,0,1:0:0:0:
325,263,40494,1,0,1:0:0:0:
291,257,40574,1,0,1:0:0:0:
260,272,40654,1,0,1:0:0:0:
231,290,40733,1,0,1:0:0:0:
197,296,40813,1,0,1:0:0:0:
164,286,40893,1,0,1:0:0:0:
139,262,40973,1,0,1:0:0:0:
129,225,41053,5,4,1:0:0:0:
256,192,41132,12,0,43606,0:0:0:0:
256,108,44882,6,0,L|256:44,2,50.9999984436036,2|0|0,0:0|0:0|0:0,0:0:0:0:
256,192,45361,1,0,0:0:0:0:
192,244,45521,2,0,L|147:269,1,50.9999984436036,2|0,0:0|0:0,0:0:0:0:
320,244,45840,2,0,L|364:269,1,50.9999984436036,0|0,0:3|0:0,0:0:0:0:
480,232,46159,6,0,L|391:181,1,101.999996887207,2|2,0:0|3:0,0:0:0:0:
296,120,46638,1,0,0:0:0:0:
256,214,46797,1,0,0:0:0:0:
216,120,46957,1,2,0:0:0:0:
120,181,47116,2,0,L|65:213,1,50.9999984436036,2|0,3:0|0:0,0:0:0:0:
8,284,47436,5,2,0:0:0:0:
144,320,47595,1,2,0:0:0:0:
120,181,47755,2,0,P|140:136|184:96,1,101.999996887207,2|0,3:0|0:0,0:0:0:0:
256,76,48233,1,2,0:0:0:0:
335,100,48393,2,0,P|368:104|408:104,1,50.9999984436036,2|0,3:0|0:0,0:0:0:0:
500,104,48712,6,0,P|481:125|464:154,1,50.9999984436036,2|0,0:0|0:0,0:0:0:0:
452,224,49031,1,2,3:0:0:0:
440,304,49191,1,0,0:0:0:0:
426,325,49270,1,0,0:0:0:0:
409,344,49350,1,0,0:0:0:0:
280,312,49510,1,2,0:0:0:0:
256,304,49590,1,0,0:0:0:0:
232,312,49670,1,2,3:0:0:0:
103,344,49829,1,0,0:0:0:0:
172,216,49989,1,2,0:0:0:0:
59,114,50148,5,0,0:0:0:0:
27,264,50308,1,2,3:0:0:0:
172,216,50467,1,2,0:0:0:0:
77,130,50627,1,0,0:0:0:0:
57,257,50787,1,2,0:0:0:0:
244,200,50946,1,2,0:0:0:0:
256,196,51026,1,2,0:0:0:0:
268,192,51106,1,2,0:0:0:0:
280,188,51186,1,2,0:0:0:0:
291,184,51265,6,0,B|336:168|376:188|376:188|372:240|335:256,1,170,4|0,0:0|1:0,0:0:0:0:
220,312,51744,1,0,0:0:0:0:
220,312,51824,1,0,0:0:0:0:
220,312,51903,2,0,P|257:331|299:338,1,85,0|2,0:0|0:0,0:0:0:0:
400,328,52143,1,0,0:0:0:0:
400,328,52223,2,0,P|444:292|468:252,1,85,0|0,1:0|0:0,0:0:0:0:
444,116,52542,5,2,0:0:0:0:
328,168,52701,1,0,0:0:0:0:
208,124,52861,2,0,P|193:162|204:202,1,85,0|0,1:0|0:0,0:0:0:0:
204,203,53100,1,0,0:0:0:0:
204,203,53180,1,0,0:0:0:0:
328,168,53340,1,2,0:0:0:0:
248,60,53499,2,0,P|208:48|161:65,1,85,0|0,1:0|0:0,0:0:0:0:
80,175,53818,6,0,P|9:168|50:111,1,170,2|0,0:0|1:0,0:0:0:0:
196,148,54297,1,0,0:0:0:0:
196,148,54377,1,0,0:0:0:0:
196,148,54457,2,0,P|197:210|173:243,1,85,0|2,0:0|0:0,0:0:0:0:
112,304,54696,1,0,0:0:0:0:
112,304,54776,2,0,L|220:300,1,85,0|0,1:0|0:0,0:0:0:0:
352,296,55095,5,2,0:0:0:0:
352,296,55255,1,0,0:0:0:0:
314,176,55414,2,0,B|354:101|354:101|394:176,1,170,0|2,1:0|0:0,0:0:0:0:
352,296,55893,1,2,0:0:0:0:
314,176,56052,1,0,1:0:0:0:
272,56,56212,1,0,0:0:0:0:
314,176,56372,6,0,B|332:232|332:232|284:212|200:232,1,170,6|0,0:0|1:0,0:0:0:0:
96,272,56850,1,0,0:0:0:0:
96,272,56930,1,0,0:0:0:0:
96,272,57010,2,0,P|88:212|108:160,1,85,0|2,0:0|0:0,0:0:0:0:
172,116,57249,1,0,0:0:0:0:
172,116,57329,2,0,L|268:100,1,85,0|0,1:0|0:0,0:0:0:0:
400,152,57648,6,0,P|371:182|330:191,1,85,2|0,0:0|0:0,0:0:0:0:
172,116,57967,2,0,P|212:125|241:156,1,85,0|0,1:0|0:0,0:0:0:0:
256,332,58287,2,0,P|243:291|256:251,1,85,2|0,0:0|0:0,0:0:0:0:
400,152,58605,1,0,1:0:0:0:
428,320,58765,1,0,0:0:0:0:
255,252,58925,6,0,L|252:200,1,42.5,0|0,1:0|0:0,0:0:0:0:
192,96,59084,2,0,L|194:138,1,42.5
148,260,59244,1,0,1:0:0:0:
137,287,59324,1,0,0:0:0:0:
109,299,59404,1,0,0:0:0:0:
79,295,59483,1,0,0:0:0:0:
54,278,59563,1,0,1:0:0:0:
48,248,59643,1,0,1:0:0:0:
54,218,59723,1,0,1:0:0:0:
72,194,59803,1,0,1:0:0:0:
91,171,59882,1,0,1:0:0:0:
98,142,59962,1,0,1:0:0:0:
95,112,60042,1,0,1:0:0:0:
71,93,60122,1,0,1:0:0:0:
42,102,60202,6,0,B|6:181|54:218|54:218|121:192|182:212|182:212|216:194|252:193|252:193|319:256|423:240,1,510,4|2,0:0|0:0,0:0:0:0:
428,32,61478,6,0,P|364:88|257:87,1,170,6|0,0:0|1:0,0:0:0:0:
253,88,61877,1,0,0:0:0:0:
223,81,61958,2,0,P|180:76|140:88,1,85
48,152,62276,1,2,0:0:0:0:
130,230,62436,2,0,L|136:339,1,85,0|0,1:0|0:0,0:0:0:0:
254,362,62755,6,0,B|282:322|282:322|274:194,1,170,2|0,0:0|1:0,0:0:0:0:
264,56,63233,1,0,0:0:0:0:
274,201,63393,1,0,0:0:0:0:
292,204,63473,1,2,0:0:0:0:
310,201,63553,1,2,0:0:0:0:
407,176,63712,2,0,P|450:166|490:177,1,85,0|0,1:0|0:0,0:0:0:0:
488,314,64031,6,0,P|458:284|448:244,1,85,2|0,0:0|0:0,0:0:0:0:
464,100,64350,1,0,1:0:0:0:
336,168,64510,2,0,P|297:185|256:181,1,85
240,180,64750,1,2,0:0:0:0:
224,176,64830,1,2,0:0:0:0:
128,144,64989,2,0,P|85:147|51:170,1,85,0|0,1:0|0:0,0:0:0:0:
82,276,65308,6,0,B|94:300|94:300|105:243,1,85,2|0,0:0|0:0,0:0:0:0:
108,232,65547,1,0,0:0:0:0:
111,221,65627,1,0,1:0:0:0:
192,84,65787,1,0,0:0:0:0:
256,224,65946,1,2,0:0:0:0:
320,84,66106,1,2,0:0:0:0:
192,84,66265,1,0,1:0:0:0:
256,224,66425,1,0,0:0:0:0:
340,352,66584,6,0,B|376:300|376:300|364:184,1,170,2|0,0:0|1:0,0:0:0:0:
364,181,66983,1,0,0:0:0:0:
363,168,67063,1,0,0:0:0:0:
256,84,67223,1,0,0:0:0:0:
256,84,67303,1,2,0:0:0:0:
256,84,67383,1,2,0:0:0:0:
149,168,67542,2,0,L|141:252,1,85,0|0,1:0|0:0,0:0:0:0:
216,356,67861,6,0,P|253:315|253:194,1,170,2|0,0:0|1:0,0:0:0:0:
92,128,68499,1,0,0:0:0:0:
84,132,68579,1,2,0:0:0:0:
76,136,68659,1,2,0:0:0:0:
200,168,68819,2,0,P|212:128|200:88,1,85,0|0,1:0|0:0,0:0:0:0:
76,136,69138,6,0,P|63:175|76:215,1,85,2|0,0:0|0:0,0:0:0:0:
164,308,69457,1,0,1:0:0:0:
200,168,69616,1,0,0:0:0:0:
344,180,69776,2,0,L|400:172,2,42.5,0|0|2,0:0|0:0|0:0,0:0:0:0:
308,72,70094,1,0,1:0:0:0:
328,68,70175,1,0,0:0:0:0:
348,64,70254,1,2,0:0:0:0:
464,132,70414,6,0,P|479:173|448:230,1,85,2|0,0:0|0:0,0:0:0:0:
388,312,70733,1,0,1:0:0:0:
268,272,70893,1,2,0:0:0:0:
148,232,71053,1,2,0:0:0:0:
268,196,71212,1,2,0:0:0:0:
388,156,71372,1,0,1:0:0:0:
268,120,71531,1,0,0:0:0:0:
120,156,71691,6,0,B|92:168|92:168|132:96|88:28,1,170,6|0,0:0|1:0,0:0:0:0:
23,148,72170,2,0,P|23:190|47:224,1,85
72,240,72409,1,2,0:0:0:0:
100,252,72489,2,0,L|200:248,1,85,2|0,0:0|1:0,0:0:0:0:
260,340,72808,2,0,L|175:343,1,85,0|2,0:0|0:0,0:0:0:0:
100,252,73126,5,0,0:0:0:0:
176,128,73287,2,0,P|186:87|171:48,1,85,0|0,1:0|0:0,0:0:0:0:
52,96,73606,1,0,0:0:0:0:
56,104,73686,1,2,0:0:0:0:
60,112,73766,1,2,0:0:0:0:
171,198,73925,2,0,L|271:190,1,85,0|0,1:0|0:0,0:0:0:0:
423,171,74244,6,0,P|370:186|338:231,2,113.333333333333,2|0|0,0:0|0:0|0:0,0:0:0:0:
255,191,74882,2,0,P|248:248|292:312,2,113.333333333333,2|0|0,0:0|0:0|0:0,0:0:0:0:
334,61,75521,6,0,B|338:231,1,170,2|0,0:0|1:0,0:0:0:0:
380,352,75999,2,0,P|332:336|280:340,1,85,0|2,0:0|0:0,0:0:0:0:
284,340,76239,1,2,0:0:0:0:
272,344,76319,1,2,0:0:0:0:
136,368,76478,1,0,1:0:0:0:
44,268,76638,1,0,0:0:0:0:
44,268,76717,1,0,0:0:0:0:
44,268,76797,6,0,B|32:209|32:209|64:81,1,170,6|0,0:0|1:0,0:0:0:0:
160,24,77276,1,0,0:0:0:0:
176,152,77436,1,0,0:0:0:0:
176,152,77515,1,2,0:0:0:0:
176,152,77595,1,2,0:0:0:0:
276,76,77755,2,0,P|312:64|368:64,1,85,0|0,1:0|0:0,0:0:0:0:
460,140,78074,6,0,P|452:177|424:225,1,85,2|0,0:0|0:0,0:0:0:0:
312,267,78393,2,0,P|281:239|259:203,1,85,0|0,1:0|0:0,0:0:0:0:
276,76,78712,1,0,0:0:0:0:
276,76,78792,1,2,0:0:0:0:
276,76,78872,1,2,0:0:0:0:
168,139,79031,2,0,P|152:176|151:227,1,85,0|0,1:0|0:0,0:0:0:0:
216,348,79350,6,0,B|268:364|268:364|392:347,1,170,2|0,0:0|1:0,0:0:0:0:
486,271,79829,1,2,0:0:0:0:
486,271,79909,1,2,0:0:0:0:
486,271,79989,1,0,0:0:0:0:
440,108,80148,2,0,L|437:192,1,85,2|0,0:0|1:0,0:0:0:0:
382,348,80467,2,0,L|384:263,1,85,2|0,0:0|0:0,0:0:0:0:
308,122,80786,5,2,0:0:0:0:
312,127,80866,1,0,0:0:0:0:
316,131,80946,1,0,1:0:0:0:
256,20,81106,1,0,0:0:0:0:
194,132,81265,2,0,P|255:148|316:132,1,127.5,2|0,0:0|0:0,0:0:0:0:
330,123,81584,1,2,0:0:0:0:
345,115,81664,1,2,0:0:0:0:
360,108,81744,1,2,0:0:0:0:
376,103,81824,1,2,0:0:0:0:
392,101,81904,5,6,0:0:0:0:
484,224,82063,1,0,0:0:0:0:
328,328,82223,1,0,1:0:0:0:
256,176,82382,1,0,0:0:0:0:
184,328,82542,1,0,0:0:0:0:
60,256,82702,1,2,0:0:0:0:
256,268,82861,1,0,1:0:0:0:
131,196,83021,1,0,0:0:0:0:
372,192,83180,5,2,0:0:0:0:
488,304,83340,1,0,0:0:0:0:
334,343,83499,1,0,1:0:0:0:
284,196,83659,2,0,P|209:164|133:195,1,170,0|2,0:0|0:0,0:0:0:0:
208,329,84138,2,0,L|344:345,1,127.5,0|0,1:0|0:0,0:0:0:0:
420,356,84457,6,0,P|396:312|396:272,1,85,2|0,0:0|0:0,0:0:0:0:
416,151,84776,1,0,0:0:0:0:
316,220,84937,2,0,P|268:224|220:208,1,85,0|0,1:0|0:0,0:0:0:0:
220,204,85175,1,2,0:0:0:0:
212,192,85255,1,2,0:0:0:0:
128,60,85414,2,0,L|131:151,1,85,0|0,1:0|0:0,0:0:0:0:
136,304,85733,6,0,L|132:219,1,85,2|0,0:0|0:0,0:0:0:0:
60,108,86053,2,0,P|48:148|59:188,1,85,0|0,1:0|0:0,0:0:0:0:
70,207,86292,1,0,0:0:0:0:
90,216,86372,1,2,0:0:0:0:
111,221,86452,1,0,0:0:0:0:
132,219,86532,1,2,0:0:0:0:
216,84,86691,2,0,L|310:79,1,85,0|0,1:0|0:0,0:0:0:0:
416,24,87010,6,0,B|396:84|396:84|420:196,1,170,2|0,0:0|1:0,0:0:0:0:
448,328,87489,1,0,0:0:0:0:
455,338,87569,1,0,0:0:0:0:
467,334,87649,1,0,0:0:0:0:
467,321,87728,1,0,0:0:0:0:
455,317,87808,1,2,0:0:0:0:
332,284,87967,2,0,P|288:276|232:296,1,85,0|0,1:0|0:0,0:0:0:0:
128,328,88287,6,0,P|156:293|167:235,1,85,2|0,0:0|0:0,0:0:0:0:
200,132,88606,2,0,P|215:174|260:212,1,85,0|0,1:0|0:0,0:0:0:0:
242,202,88845,1,2,0:0:0:0:
242,202,88925,1,2,0:0:0:0:
368,252,89084,1,2,0:0:0:0:
348,116,89244,1,0,1:0:0:0:
242,202,89404,1,0,0:0:0:0:
56,80,89563,5,2,0:0:0:0:
120,328,89882,1,0,1:0:0:0:
256,112,90202,1,2,0:0:0:0:
392,328,90521,1,0,1:0:0:0:
424,204,90680,1,2,0:0:0:0:
456,80,90840,5,2,0:0:0:0:
344,20,90999,1,2,0:0:0:0:
256,112,91159,5,2,0:0:0:0:
232,136,91239,1,2,0:0:0:0:
199,146,91319,1,2,0:0:0:0:
165,140,91398,1,2,0:0:0:0:
133,126,91478,1,2,0:0:0:0:
101,114,91558,1,2,0:0:0:0:
68,123,91638,1,2,0:0:0:0:
53,153,91717,1,2,0:0:0:0:
55,187,91797,1,2,0:0:0:0:
69,217,91877,1,2,0:0:0:0:
76,250,91957,1,2,0:0:0:0:
73,284,92037,1,2,0:0:0:0:
64,309,92116,5,4,0:0:0:0:
256,192,92196,12,0,94670,0:0:0:0:
104,112,97223,5,2,0:0:0:0:
256,52,97542,1,2,3:0:0:0:
256,52,98021,1,2,0:0:0:0:
256,192,98180,1,2,3:0:0:0:
408,272,98499,5,2,0:0:0:0:
332,304,98659,1,2,0:0:0:0:
256,332,98818,1,2,3:0:0:0:
256,332,99297,1,2,0:0:0:0:
256,192,99456,1,2,3:0:0:0:
112,268,99776,5,2,0:0:0:0:
48,188,99936,1,2,0:0:0:0:
88,91,100095,1,2,3:0:0:0:
101,84,100175,1,0,0:0:0:0:
116,81,100255,1,0,0:0:0:0:
133,82,100334,1,0,0:0:0:0:
149,88,100414,5,0,1:0:0:0:
166,97,100494,1,0,1:0:0:0:
182,109,100574,1,0,1:0:0:0:
192,129,100654,1,0,1:0:0:0:
197,151,100733,1,0,1:0:0:0:
204,175,100813,1,0,1:0:0:0:
221,193,100893,1,0,1:0:0:0:
247,203,100973,1,0,1:0:0:0:
275,204,101053,5,2,0:0:0:0:
303,194,101132,1,0,0:0:0:0:
336,172,101212,1,2,0:0:0:0:
341,131,101292,1,0,0:0:0:0:
312,102,101372,1,2,0:0:0:0:
271,107,101452,1,0,0:0:0:0:
250,141,101531,1,2,0:0:0:0:
264,180,101611,1,0,0:0:0:0:
303,194,101691,5,2,0:0:0:0:
345,212,101771,1,2,0:0:0:0:
387,229,101850,1,2,0:0:0:0:
432,255,101930,1,2,0:0:0:0:
432,307,102010,1,2,0:0:0:0:
387,332,102090,1,2,0:0:0:0:
343,306,102170,1,2,0:0:0:0:
343,256,102249,1,2,0:0:0:0:
386,229,102329,6,0,P|428:140|389:55,1,170,6|0,0:0|1:0,0:0:0:0:
288,36,102808,1,0,0:0:0:0:
288,36,102888,1,0,0:0:0:0:
288,36,102967,2,0,B|256:52|256:52|184:40,1,85,2|0,0:0|0:0,0:0:0:0:
96,80,103207,1,0,0:0:0:0:
96,80,103287,2,0,P|120:120|157:147,1,85,0|0,1:0|0:0,0:0:0:0:
260,208,103606,5,2,0:0:0:0:
362,129,103765,1,0,0:0:0:0:
464,204,103925,2,0,P|479:242|468:282,1,85,0|0,1:0|0:0,0:0:0:0:
468,282,104164,1,0,0:0:0:0:
468,282,104244,1,2,0:0:0:0:
368,360,104404,1,0,0:0:0:0:
252,308,104563,2,0,P|212:300|172:316,1,85,0|0,1:0|0:0,0:0:0:0:
56,384,104882,6,0,L|44:204,1,170,2|0,0:0|1:0,0:0:0:0:
36,88,105361,1,0,0:0:0:0:
36,88,105441,1,0,0:0:0:0:
36,88,105521,2,0,P|92:116|132:108,1,85,2|0,0:0|0:0,0:0:0:0:
208,96,105760,1,0,0:0:0:0:
208,96,105840,2,0,P|249:98|284:122,1,85,0|0,1:0|0:0,0:0:0:0:
368,220,106159,5,2,0:0:0:0:
356,348,106319,1,0,0:0:0:0:
211,342,106478,2,0,P|184:248|204:168,1,170,0|2,1:0|0:0,0:0:0:0:
240,48,106957,1,0,0:0:0:0:
324,144,107116,1,0,1:0:0:0:
198,179,107276,1,2,0:0:0:0:
59,80,107436,6,0,P|31:159|44:242,1,170,2|0,0:0|1:0,0:0:0:0:
156,320,107914,1,0,0:0:0:0:
156,320,107994,1,0,0:0:0:0:
155,320,108074,2,0,L|260:312,1,85,2|0,0:0|0:0,0:0:0:0:
388,268,108313,1,0,0:0:0:0:
388,268,108393,2,0,P|336:264|284:232,1,85,0|0,1:0|0:0,0:0:0:0:
220,152,108712,5,2,0:0:0:0:
340,108,108872,1,0,0:0:0:0:
220,67,109031,2,0,L|220:152,1,85,0|0,1:0|0:0,0:0:0:0:
175,237,109271,1,0,0:0:0:0:
175,237,109350,2,0,P|219:248|268:234,1,85,2|0,0:0|0:0,0:0:0:0:
140,163,109670,2,0,P|95:151|46:165,1,85,0|0,1:0|0:0,0:0:0:0:
36,316,109989,6,0,B|56:344|60:368|60:368|64:296|104:252,1,170,2|0,0:0|1:0,0:0:0:0:
196,176,110467,1,0,0:0:0:0:
196,176,110547,1,0,0:0:0:0:
196,176,110627,2,0,B|224:192|224:192|304:176,1,85,2|0,0:0|0:0,0:0:0:0:
368,140,110866,1,0,0:0:0:0:
368,140,110946,2,0,B|352:168|352:168|368:248,1,85,0|0,1:0|0:0,0:0:0:0:
396,340,111265,5,2,0:0:0:0:
296,264,111425,2,0,P|256:251|216:263,1,85,0|0,0:0|1:0,0:0:0:0:
200,268,111904,1,2,0:0:0:0:
256,98,112063,1,2,0:0:0:0:
311,268,112223,1,0,1:0:0:0:
166,162,112382,1,2,0:0:0:0:
345,162,112542,5,6,0:0:0:0:
376,176,112702,1,2,0:0:0:0:
166,162,112861,5,0,1:0:0:0:
136,176,113021,1,2,0:0:0:0:
256,328,113180,5,2,0:0:0:0:
256,296,113340,1,2,0:0:0:0:
256,56,113499,5,0,1:0:0:0:
256,88,113659,1,2,0:0:0:0:
164,276,113819,2,0,L|176:192,1,85,4|0,0:0|0:0,0:0:0:0:
336,192,114138,2,0,L|347:276,1,85,0|0,1:0|0:0,0:0:0:0:
164,276,114457,5,2,0:0:0:0:
121,262,114537,1,2,0:0:0:0:
85,287,114616,1,2,0:0:0:0:
81,330,114696,1,2,0:0:0:0:
113,359,114776,1,4,0:0:0:0:
157,353,114856,1,2,0:0:0:0:
178,316,114936,1,2,0:0:0:0:
164,276,115015,1,2,0:0:0:0:
156,225,115095,5,0,1:0:0:0:
161,174,115175,1,0,1:0:0:0:
183,128,115255,1,0,1:0:0:0:
230,111,115334,1,0,1:0:0:0:
280,118,115414,1,0,1:0:0:0:
314,155,115494,1,0,1:0:0:0:
329,203,115574,1,0,1:0:0:0:
360,243,115654,1,0,1:0:0:0:
409,253,115733,1,0,1:0:0:0:
451,224,115813,1,0,1:0:0:0:
466,175,115893,1,0,1:0:0:0:
435,133,115973,1,0,1:0:0:0:
385,119,116053,5,2,0:0:0:0:
256,192,116132,12,4,117329,3:0:0:0:
