osu file format v14

[General]
AudioFilename: Banshi - Ne-nuit - 04 Kotonoha.mp3
AudioLeadIn: 0
PreviewTime: 20547
Countdown: 0
SampleSet: Soft
StackLeniency: 0.7
Mode: 0
LetterboxInBreaks: 0
WidescreenStoryboard: 0

[Editor]
Bookmarks: 103287
DistanceSpacing: 1.2
BeatDivisor: 3
GridSize: 4
TimelineZoom: 2.5

[Metadata]
Title:Kotonoha
TitleUnicode:Kotonoha
Artist:Banshi
ArtistUnicode:ばんし
Creator:Nozhomi
Version:Aia's Insane
Source:
Tags:Ne-nuit nizi ringo Aia
BeatmapID:978137
BeatmapSetID:415003

[Difficulty]
HPDrainRate:6.2
CircleSize:4
OverallDifficulty:7.6
ApproachRate:8.9
SliderMultiplier:1.7
SliderTickRate:1

[Events]
//Background and Video events
0,0,"nyaaa.jpg",0,0
//Break Periods
2,41253,45544
2,92316,96608
//Storyboard Layer 0 (Background)
//Storyboard Layer 1 (Fail)
//Storyboard Layer 2 (Pass)
//Storyboard Layer 3 (Foreground)
//Storyboard Sound Samples

[TimingPoints]
202,319.148936170213,4,2,1,50,1,0
202,-166.666666666667,4,2,1,50,0,0
10414,-125,4,2,1,50,0,0
15521,-111.111111111111,4,2,2,50,0,0
19031,-200,4,2,2,50,0,0
20228,-200,4,2,2,50,0,0
20308,-200,4,2,2,50,0,0
20627,-100,4,2,2,70,0,0
28765,-83.3333333333333,4,2,2,70,0,0
29244,-71.4285714285714,4,2,2,70,0,0
29563,-100,4,2,2,70,0,0
39776,-100,4,2,2,50,0,0
41053,-166.666666666667,4,2,1,60,0,0
46159,-166.666666666667,4,2,2,70,0,0
49989,-142.857142857143,4,2,2,70,0,0
50627,-125,4,2,2,70,0,0
50946,-111.111111111111,4,2,2,50,0,0
51265,-100,4,2,2,70,0,0
59563,-100,4,2,2,50,0,0
60202,-200,4,2,2,50,0,0
61478,-100,4,2,2,70,0,0
74324,-100,4,2,1,70,0,0
75521,-100,4,2,2,70,0,0
81505,-100,4,2,2,50,0,0
81904,-100,4,2,2,70,0,0
91159,-100,4,2,2,50,0,0
92116,-166.666666666667,4,2,2,70,0,0
100095,-166.666666666667,4,2,2,30,0,0
100414,-166.666666666667,4,2,2,35,0,0
100733,-166.666666666667,4,2,2,40,0,0
101053,-166.666666666667,4,2,2,50,0,0
102329,-100,4,2,2,70,0,1
114457,-100,4,2,2,40,0,1
116053,-133.333333333333,4,2,1,50,0,0

[Colours]
Combo1 : 217,32,217
Combo2 : 197,192,24
Combo3 : 105,196,222
Combo4 : 127,75,147

[HitObjects]
247,103,202,6,0,P|287:79|346:74,1,101.999996887207,2|0,0:0|0:0,0:0:0:0:
412,112,680,1,0,0:0:0:0:
395,192,840,2,0,B|355:200|355:200|279:192,1,101.999996887207,2|0,3:0|0:0,0:0:0:0:
197,82,1478,2,0,L|186:12,1,50.9999984436036,2|0,0:0|0:0,0:0:0:0:
271,117,1797,2,0,L|283:56,1,50.9999984436036,0|0,0:0|0:0,0:0:0:0:
159,171,2116,2,0,P|110:164|64:141,1,101.999996887207,2|0,3:0|0:0,0:0:0:0:
119,80,2595,1,0,0:0:0:0:
56,231,2755,6,0,P|56:263|84:335,1,101.999996887207,2|0,0:0|0:0,0:0:0:0:
159,341,3233,2,0,B|204:334|204:334|267:341,1,101.999996887207,0|0,0:0|0:0,0:0:0:0:
415,287,3872,2,0,P|429:253|408:174,1,101.999996887207,0|0,0:0|0:0,0:0:0:0:
337,189,4350,2,0,P|311:187|277:175,1,50.9999984436036,0|2,0:0|0:0,0:0:0:0:
227,69,4670,2,0,P|251:61|276:59,1,50.9999984436036,2|0,3:0|0:0,0:0:0:0:
172,145,4989,1,0,0:0:0:0:
172,145,5148,1,0,0:0:0:0:
294,233,5308,6,0,P|293:287|269:337,1,101.999996887207,2|0,0:0|0:0,0:0:0:0:
199,364,5787,1,0,0:0:0:0:
367,292,5946,2,0,P|417:304|458:331,1,101.999996887207,2|0,3:0|0:0,0:0:0:0:
432,216,6584,2,0,P|427:192|426:151,1,50.9999984436036,2|0,0:0|0:0,0:0:0:0:
457,89,6904,1,0,0:0:0:0:
344,150,7063,1,0,0:0:0:0:
418,22,7223,2,0,P|456:12|520:44,1,101.999996887207,2|0,3:0|0:0,0:0:0:0:
457,89,7702,1,0,0:0:0:0:
318,62,7861,6,0,P|271:47|206:41,1,101.999996887207,2|0,0:0|0:0,0:0:0:0:
137,201,8340,2,0,P|187:197|238:183,1,101.999996887207,0|0,0:0|0:0,0:0:0:0:
89,104,8819,1,0,0:0:0:0:
89,104,8978,1,0,0:0:0:0:
137,201,9138,2,0,P|129:253|113:299,1,101.999996887207,2|0,0:0|0:0,0:0:0:0:
40,227,9616,1,0,0:0:0:0:
210,136,10095,1,0,0:0:0:0:
98,78,10414,5,4,0:0:0:0:
201,9,10574,1,0,0:0:0:0:
201,9,10654,1,0,0:0:0:0:
201,9,10733,1,0,0:0:0:0:
98,78,10893,2,0,L|129:210,1,136,2|0,0:0|0:0,0:0:0:0:
40,289,11372,2,0,L|50:212,1,68,0|0,0:0|0:0,0:0:0:0:
171,304,11691,2,0,P|286:290|232:188,1,272,2|0,0:0|0:0,0:0:0:0:
232,188,12648,6,0,P|226:227|223:264,1,68,2|0,0:0|0:0,0:0:0:0:
360,201,12967,2,0,P|355:140|337:65,1,136,2|0,0:0|0:0,0:0:0:0:
428,266,13446,2,0,P|444:200|450:132,1,136,2|0,0:0|0:0,0:0:0:0:
339,290,14084,2,0,L|198:251,1,136,2|0,0:0|0:0,0:0:0:0:
100,117,14563,5,0,0:0:0:0:
100,117,14723,1,2,0:0:0:0:
243,73,14882,1,0,0:0:0:0:
126,205,15042,1,0,0:0:0:0:
174,38,15202,1,2,0:0:0:0:
126,205,15361,1,0,0:0:0:0:
256,148,15521,6,0,L|242:72,1,76.4999976654053,4|0,0:0|0:0,0:0:0:0:
200,245,15840,1,0,1:0:0:0:
342,192,15999,1,0,0:0:0:0:
342,192,16079,1,0,0:0:0:0:
342,192,16159,2,0,L|354:112,1,76.4999976654053,2|0,0:0|0:0,0:0:0:0:
200,245,16478,2,0,L|181:162,1,76.4999976654053,0|0,1:0|0:0,0:0:0:0:
106,88,16797,5,2,0:0:0:0:
46,221,16957,1,0,0:0:0:0:
106,88,17116,1,0,1:0:0:0:
182,170,17276,1,0,0:0:0:0:
182,170,17356,1,0,0:0:0:0:
182,170,17436,2,0,P|223:162|267:146,1,76.4999976654053,2|0,0:0|0:0,0:0:0:0:
106,88,17755,1,0,1:0:0:0:
106,88,18074,5,2,0:0:0:0:
259,40,18233,1,2,0:0:0:0:
106,88,18393,1,0,1:0:0:0:
182,170,18553,1,2,0:0:0:0:
182,170,18632,1,2,0:0:0:0:
182,170,18712,2,0,L|199:106,3,38.2499988327027,2|2|2|2,0:0|0:0|0:0|0:0,0:0:0:0:
219,106,19031,6,0,P|330:94|286:242,1,318.75,0|0,0:0|0:0,0:0:0:0:
280,160,20308,1,2,0:0:0:0:
134,100,20627,6,0,L|152:183,1,85,2|0,0:0|0:0,0:0:0:0:
89,302,20946,1,0,1:0:0:0:
265,283,21106,1,0,0:0:0:0:
265,283,21186,1,0,0:0:0:0:
265,283,21265,2,0,B|177:266,1,85,0|2,0:0|0:0,0:0:0:0:
353,214,21584,1,0,1:0:0:0:
288,366,21744,6,0,L|104:332,1,170,0|0,0:0|0:0,0:0:0:0:
265,283,22223,1,0,1:0:0:0:
166,204,22382,1,0,0:0:0:0:
166,204,22462,1,0,0:0:0:0:
166,204,22542,2,0,L|82:220,1,85,0|2,0:0|0:0,0:0:0:0:
265,283,22861,2,0,L|348:265,1,85,0|0,1:0|0:0,0:0:0:0:
166,204,23180,5,2,0:0:0:0:
241,362,23340,2,0,L|407:327,1,170,0|0,0:0|0:0,0:0:0:0:
366,242,23739,1,0,0:0:0:0:
366,242,23819,2,0,L|283:259,1,85,0|2,0:0|0:0,0:0:0:0:
418,157,24138,1,0,1:0:0:0:
308,125,24297,6,0,L|135:156,1,170,0|0,0:0|0:0,0:0:0:0:
101,251,24776,2,0,L|204:233,1,85,0|0,1:0|0:0,0:0:0:0:
20,192,25095,1,2,0:0:0:0:
72,350,25255,1,2,0:0:0:0:
20,192,25414,1,0,1:0:0:0:
20,192,25733,5,2,0:0:0:0:
97,125,25893,2,0,L|264:97,1,170,0|0,0:0|0:0,0:0:0:0:
330,132,26292,1,0,0:0:0:0:
330,132,26372,2,0,P|326:176|314:231,1,85,0|2,0:0|0:0,0:0:0:0:
189,279,26691,1,0,1:0:0:0:
111,231,26850,6,0,P|180:205|188:279,1,170,0|0,0:0|0:0,0:0:0:0:
330,304,27329,2,0,L|423:277,1,85,0|0,1:0|0:0,0:0:0:0:
428,204,27569,1,0,0:0:0:0:
428,204,27648,2,0,P|474:207|512:201,1,85,0|2,0:0|0:0,0:0:0:0:
367,105,27967,1,0,1:0:0:0:
367,105,28287,6,0,P|289:144|333:193,1,170,2|0,0:0|1:0,0:0:0:0:
428,204,28765,1,0,0:0:0:0:
428,204,28845,1,0,0:0:0:0:
428,204,28925,2,0,P|444:154|452:96,1,101.999996887207,0|0,0:0|0:0,0:0:0:0:
360,19,29244,1,0,1:0:0:0:
360,19,29404,1,0,0:0:0:0:
281,107,29563,6,0,P|242:102|193:89,1,85,2|0,0:0|0:0,0:0:0:0:
88,180,29882,2,0,P|129:169|172:164,1,85,0|0,1:0|0:0,0:0:0:0:
205,191,30122,1,0,0:0:0:0:
205,191,30202,2,0,B|188:277,1,85,2|2,0:0|0:0,0:0:0:0:
269,343,30521,2,0,B|286:259,1,85,0|0,1:0|0:0,0:0:0:0:
138,339,30840,5,6,0:0:0:0:
314,236,30999,1,0,0:0:0:0:
314,236,31079,1,0,0:0:0:0:
313,236,31159,2,0,P|355:240|396:252,1,85,0|0,1:0|0:0,0:0:0:0:
425,233,31398,1,0,0:0:0:0:
425,233,31478,1,0,0:0:0:0:
336,129,31638,1,2,0:0:0:0:
380,327,31797,1,0,1:0:0:0:
336,129,31957,6,0,P|260:137|202:210,1,170,0|0,0:0|0:0,0:0:0:0:
313,236,32436,1,0,1:0:0:0:
426,151,32595,1,0,0:0:0:0:
426,151,32674,1,0,0:0:0:0:
426,151,32755,2,0,P|420:108|409:67,1,85,0|2,0:0|0:0,0:0:0:0:
274,14,33074,1,0,1:0:0:0:
274,14,33393,5,2,0:0:0:0:
274,14,33553,2,0,P|198:61|257:105,1,170,0|0,0:0|0:0,0:0:0:0:
260,128,33952,1,0,0:0:0:0:
260,128,34031,2,0,P|306:119|363:119,1,85,0|2,0:0|0:0,0:0:0:0:
437,208,34350,1,0,1:0:0:0:
437,208,34510,6,0,P|447:253|343:256,1,170,0|0,0:0|0:0,0:0:0:0:
376,102,34989,1,0,1:0:0:0:
264,234,35148,1,0,0:0:0:0:
376,102,35308,1,2,0:0:0:0:
376,102,35388,1,0,0:0:0:0:
376,102,35467,1,0,0:0:0:0:
264,234,35627,2,0,P|221:230|181:216,1,85,0|0,1:0|0:0,0:0:0:0:
127,105,35946,6,0,P|129:45|212:68,1,170,2|0,0:0|1:0,0:0:0:0:
294,152,36425,1,0,0:0:0:0:
294,152,36505,1,0,0:0:0:0:
294,152,36584,2,0,P|340:147|387:134,1,85,0|2,0:0|0:0,0:0:0:0:
215,227,36904,1,0,1:0:0:0:
397,158,37063,6,0,P|434:218|363:224,1,170,0|0,0:0|0:0,0:0:0:0:
309,81,37542,1,0,1:0:0:0:
215,227,37702,1,0,0:0:0:0:
309,81,37861,2,0,P|268:68|227:61,1,85,2|2,0:0|0:0,0:0:0:0:
61,211,38180,1,0,1:0:0:0:
193,143,38340,1,2,0:0:0:0:
69,82,38499,5,6,0:0:0:0:
129,263,38659,1,0,0:0:0:0:
69,82,38978,1,2,0:0:0:0:
129,263,39138,2,0,P|212:257|295:231,1,170,2|0,0:0|1:0,0:0:0:0:
193,157,39616,1,0,0:0:0:0:
394,107,39776,6,0,P|392:131|386:160,3,42.5,0|0|0|0,1:0|1:0|1:0|1:0,0:0:0:0:
435,205,40095,2,0,P|433:229|427:258,3,42.5,0|0|0|0,1:0|1:0|1:0|1:0,0:0:0:0:
368,292,40414,5,0,1:0:0:0:
344,288,40494,1,0,1:0:0:0:
320,284,40574,1,0,1:0:0:0:
296,280,40654,1,0,1:0:0:0:
272,276,40733,1,0,1:0:0:0:
248,272,40813,1,0,1:0:0:0:
224,268,40893,1,0,1:0:0:0:
200,264,40973,1,0,1:0:0:0:
176,260,41053,5,4,1:0:0:0:
168,128,46159,6,0,P|194:120|234:116,1,50.9999984436036,2|0,0:0|0:0,0:0:0:0:
291,151,46478,1,2,3:0:0:0:
257,225,46638,1,0,0:0:0:0:
257,225,46717,1,0,0:0:0:0:
257,225,46797,2,0,L|220:219,3,25.4999992218018,0|0|2|0,0:0|0:0|0:0|0:0,0:0:0:0:
162,262,47116,2,0,L|136:266,3,25.4999992218018,2|0|0|0,3:0|0:0|0:0|0:0,0:0:0:0:
226,308,47436,5,2,0:0:0:0:
152,175,47595,2,0,L|43:205,1,101.999996887207,2|0,0:0|0:0,0:0:0:0:
85,112,48074,2,0,L|78:79,3,25.4999992218018,0|0|2|0,0:0|0:0|0:0|0:0,0:0:0:0:
162,77,48393,2,0,L|169:45,3,25.4999992218018,2|0|0|0,3:0|0:0|0:0|0:0,0:0:0:0:
227,123,48712,6,0,P|250:120|277:112,1,50.9999984436036,2|0,0:0|0:0,0:0:0:0:
336,57,49031,1,2,3:0:0:0:
397,110,49191,2,0,P|397:160|387:224,1,101.999996887207,0|2,0:0|0:0,0:0:0:0:
336,273,49670,1,2,3:0:0:0:
269,226,49829,1,0,0:0:0:0:
269,226,49909,1,0,0:0:0:0:
269,226,49989,6,0,P|242:230|208:240,1,59.4999981842042,2|0,0:0|0:0,0:0:0:0:
143,306,50308,2,0,P|170:310|201:319,1,59.4999981842042,2|2,3:0|0:0,0:0:0:0:
133,222,50627,2,0,L|124:182,3,34,0|0|2|0,0:0|0:0|0:0|0:0,0:0:0:0:
199,165,50946,2,0,L|206:124,3,38.2499988327027,2|2|2|2,0:0|0:0|0:0|0:0,0:0:0:0:
269,85,51265,6,0,P|317:81|337:193,1,170,4|0,0:0|1:0,0:0:0:0:
268,240,51744,1,0,0:0:0:0:
268,240,51824,1,0,0:0:0:0:
268,240,51904,2,0,L|288:333,1,85,0|2,0:0|0:0,0:0:0:0:
199,165,52223,2,0,L|179:258,1,85,0|0,1:0|0:0,0:0:0:0:
280,110,52542,5,2,0:0:0:0:
117,182,52702,1,0,0:0:0:0:
193,70,52861,1,0,1:0:0:0:
293,208,53021,1,0,0:0:0:0:
293,208,53100,1,0,0:0:0:0:
293,208,53180,2,0,P|335:201|377:189,1,85,0|2,0:0|0:0,0:0:0:0:
265,246,53499,2,0,P|307:239|349:227,1,85,0|0,1:0|0:0,0:0:0:0:
208,179,53819,6,0,P|177:241|224:324,1,170,2|0,0:0|1:0,0:0:0:0:
347,267,54297,1,0,0:0:0:0:
347,267,54377,1,0,0:0:0:0:
347,267,54457,2,0,B|437:283,1,85,0|2,0:0|0:0,0:0:0:0:
462,261,54696,1,0,0:0:0:0:
461,260,54776,2,0,P|460:220|452:176,1,85,0|0,1:0|0:0,0:0:0:0:
381,102,55095,5,2,0:0:0:0:
512,123,55255,1,0,0:0:0:0:
342,198,55414,2,0,L|359:114,1,85,0|0,1:0|0:0,0:0:0:0:
270,34,55733,1,2,0:0:0:0:
405,8,55893,1,2,0:0:0:0:
405,8,55973,1,0,0:0:0:0:
405,8,56053,1,0,1:0:0:0:
267,123,56212,1,0,0:0:0:0:
448,116,56372,6,0,L|432:24,1,85,6|0,0:0|0:0,0:0:0:0:
370,181,56691,1,0,1:0:0:0:
267,123,56850,1,0,0:0:0:0:
267,123,56930,1,0,0:0:0:0:
267,123,57010,2,0,P|264:78|353:115,1,170,0|0,0:0|1:0,0:0:0:0:
284,212,57489,1,0,0:0:0:0:
398,297,57648,6,0,P|439:290|479:275,1,85,2|0,0:0|0:0,0:0:0:0:
248,330,57967,2,0,P|288:342|330:345,1,85,0|0,1:0|0:0,0:0:0:0:
398,297,58207,1,0,0:0:0:0:
398,297,58287,2,0,P|401:225|314:232,1,170,2|0,0:0|1:0,0:0:0:0:
221,246,58765,1,0,0:0:0:0:
282,152,58925,6,0,L|274:101,3,42.5,0|0|0|0,1:0|0:0|0:0|0:0,0:0:0:0:
190,110,59244,2,0,L|196:60,3,42.5,0|0|0|0,1:0|0:0|0:0|0:0,0:0:0:0:
122,159,59563,1,0,1:0:0:0:
122,167,59643,1,0,1:0:0:0:
122,175,59723,1,0,1:0:0:0:
123,183,59803,1,0,1:0:0:0:
123,191,59882,1,0,1:0:0:0:
124,199,59962,1,0,1:0:0:0:
125,207,60042,1,0,1:0:0:0:
126,215,60122,1,0,1:0:0:0:
128,224,60202,2,0,B|202:252|233:330|233:330|249:281|291:236,1,255,4|2,0:0|0:0,0:0:0:0:
284,243,61478,6,0,B|368:221|368:221|453:239,1,170,6|0,0:0|1:0,0:0:0:0:
478,220,61877,1,0,0:0:0:0:
478,220,61957,2,0,L|462:111,1,85,0|0,0:0|0:0,0:0:0:0:
368,14,62276,1,2,0:0:0:0:
281,107,62436,2,0,L|184:84,1,85,0|0,1:0|0:0,0:0:0:0:
128,162,62755,6,0,L|297:204,1,170,2|0,0:0|1:0,0:0:0:0:
348,287,63233,1,0,0:0:0:0:
348,287,63313,1,0,0:0:0:0:
348,287,63393,1,0,0:0:0:0:
207,315,63553,1,2,0:0:0:0:
379,206,63712,2,0,L|364:117,1,85,0|0,1:0|0:0,0:0:0:0:
241,55,64031,6,0,P|205:103|300:121,1,170,2|0,0:0|1:0,0:0:0:0:
409,36,64510,1,0,0:0:0:0:
409,36,64590,1,0,0:0:0:0:
409,36,64670,1,0,0:0:0:0:
379,206,64829,1,2,0:0:0:0:
327,61,64989,1,0,1:0:0:0:
452,169,65148,1,0,0:0:0:0:
258,132,65308,5,2,0:0:0:0:
409,36,65467,1,0,0:0:0:0:
409,36,65547,1,0,0:0:0:0:
409,36,65627,1,0,1:0:0:0:
340,192,65787,1,0,0:0:0:0:
485,100,65946,5,2,0:0:0:0:
485,100,66106,1,2,0:0:0:0:
258,132,66265,1,0,1:0:0:0:
258,132,66425,1,0,0:0:0:0:
408,35,66584,6,0,P|428:119|350:121,1,170,2|0,0:0|1:0,0:0:0:0:
348,102,66983,1,0,0:0:0:0:
348,102,67063,2,0,B|377:273,1,170,0|2,0:0|0:0,0:0:0:0:
276,248,67542,2,0,L|263:163,1,85,0|0,1:0|0:0,0:0:0:0:
276,79,67861,6,0,L|263:163,1,85,2|0,0:0|0:0,0:0:0:0:
209,19,68180,1,0,1:0:0:0:
122,109,68340,1,0,0:0:0:0:
122,109,68420,1,0,0:0:0:0:
122,109,68499,2,0,L|64:85,2,42.5,0|2|2,0:0|0:0|0:0,0:0:0:0:
215,200,68819,2,0,P|212:158|198:112,1,85,0|0,1:0|0:0,0:0:0:0:
46,225,69138,6,0,B|235:196,1,170,2|0,0:0|1:0,0:0:0:0:
109,296,69616,2,0,B|298:267,1,170,0|2,0:0|0:0,0:0:0:0:
402,313,70095,1,0,1:0:0:0:
385,324,70175,1,0,0:0:0:0:
368,337,70255,1,2,0:0:0:0:
432,235,70414,6,0,L|417:144,1,85,2|0,0:0|0:0,0:0:0:0:
318,65,70733,2,0,L|304:148,1,85,0|2,1:0|0:0,0:0:0:0:
450,248,71053,2,0,L|435:157,1,85,2|2,0:0|0:0,0:0:0:0:
301,47,71372,2,0,L|287:130,1,85,0|0,1:0|0:0,0:0:0:0:
174,248,71691,5,6,0:0:0:0:
174,248,72010,1,0,1:0:0:0:
318,214,72170,2,0,P|360:168|285:131,1,170,0|2,0:0|0:0,0:0:0:0:
264,135,72569,1,0,0:0:0:0:
264,135,72648,2,0,P|220:128|166:114,1,85,0|0,1:0|0:0,0:0:0:0:
315,48,72967,5,2,0:0:0:0:
159,92,73127,1,0,0:0:0:0:
244,13,73287,1,0,1:0:0:0:
289,176,73446,1,0,0:0:0:0:
289,176,73526,1,0,0:0:0:0:
289,176,73606,2,0,P|245:169|191:155,1,85,0|2,0:0|0:0,0:0:0:0:
289,176,73925,2,0,P|333:169|387:155,1,85,0|0,1:0|0:0,0:0:0:0:
460,212,74244,6,0,B|473:271|473:271|462:322,2,113.333333333333,2|0|0,0:0|0:0|0:0,0:0:0:0:
372,159,74882,2,0,B|360:104|360:104|380:16,2,113.333333333333,2|0|0,0:0|0:0|0:0,0:0:0:0:
291,222,75521,6,0,L|274:132,1,85,2|0,0:0|0:0,0:0:0:0:
111,225,75840,1,0,1:0:0:0:
193,117,75999,1,0,0:0:0:0:
193,117,76079,1,0,0:0:0:0:
193,117,76159,1,2,0:0:0:0:
111,225,76319,1,2,0:0:0:0:
291,222,76478,2,0,L|274:132,1,85,0|0,1:0|0:0,0:0:0:0:
285,113,76717,1,0,0:0:0:0:
285,113,76797,6,0,P|329:115|384:128,1,85,6|0,0:0|0:0,0:0:0:0:
291,222,77116,1,0,1:0:0:0:
193,117,77276,1,0,0:0:0:0:
193,117,77356,1,0,0:0:0:0:
193,117,77436,2,0,P|197:75|204:28,1,85,0|2,0:0|0:0,0:0:0:0:
291,222,77755,1,0,1:0:0:0:
122,174,77914,1,0,0:0:0:0:
285,113,78074,5,2,0:0:0:0:
148,284,78233,1,0,0:0:0:0:
148,284,78393,2,0,L|240:304,1,85,0|0,1:0|0:0,0:0:0:0:
256,324,78632,1,0,0:0:0:0:
256,324,78712,2,0,L|339:305,1,85,0|2,0:0|0:0,0:0:0:0:
422,324,79031,2,0,L|338:305,1,85,0|0,1:0|0:0,0:0:0:0:
444,152,79350,6,0,P|484:200|396:216,1,170,2|0,0:0|1:0,0:0:0:0:
328,168,79829,2,0,L|132:196,1,170,2|2,0:0|0:0,0:0:0:0:
136,184,80228,1,0,0:0:0:0:
136,184,80308,2,0,P|140:141|148:100,1,85,0|2,1:0|0:0,0:0:0:0:
232,264,80627,5,0,0:0:0:0:
328,168,80787,1,2,0:0:0:0:
328,168,80866,1,0,0:0:0:0:
328,168,80946,2,0,P|370:169|414:189,1,85,0|0,1:0|0:0,0:0:0:0:
345,249,81186,1,0,0:0:0:0:
345,249,81265,2,0,P|257:209|353:89,1,297.5,2|2,0:0|0:0,0:0:0:0:
381,103,81904,6,0,P|422:96|472:85,1,85,6|0,0:0|0:0,0:0:0:0:
328,168,82223,2,0,P|287:161|237:150,1,85,0|0,1:0|0:0,0:0:0:0:
398,239,82542,2,0,P|439:232|489:221,1,85,0|2,0:0|0:0,0:0:0:0:
308,331,82861,2,0,P|267:324|217:313,1,85,0|0,1:0|0:0,0:0:0:0:
139,223,83180,5,2,0:0:0:0:
168,369,83340,1,0,0:0:0:0:
39,308,83499,1,0,1:0:0:0:
225,242,83659,1,0,0:0:0:0:
225,242,83739,1,0,0:0:0:0:
225,242,83819,1,0,0:0:0:0:
39,308,83978,1,2,0:0:0:0:
225,242,84138,2,0,P|267:246|310:262,1,85,0|0,1:0|0:0,0:0:0:0:
358,350,84457,6,0,P|292:343|325:255,1,170,2|0,0:0|0:0,0:0:0:0:
404,229,84936,1,0,1:0:0:0:
404,229,85015,1,0,0:0:0:0:
404,229,85095,1,0,0:0:0:0:
305,132,85255,1,2,0:0:0:0:
404,229,85414,2,0,L|494:204,1,85,0|0,1:0|0:0,0:0:0:0:
305,132,85733,6,0,L|223:154,1,85,2|0,0:0|0:0,0:0:0:0:
272,41,86053,1,0,1:0:0:0:
135,128,86212,1,0,0:0:0:0:
135,128,86292,1,0,0:0:0:0:
135,128,86372,1,2,0:0:0:0:
272,41,86531,1,2,0:0:0:0:
135,128,86691,2,0,P|90:119|48:109,1,85,0|0,1:0|0:0,0:0:0:0:
77,198,87010,6,0,P|150:201|137:129,1,170,2|0,0:0|1:0,0:0:0:0:
39,90,87489,1,0,0:0:0:0:
39,90,87569,1,0,0:0:0:0:
39,90,87648,1,0,0:0:0:0:
166,21,87808,1,2,0:0:0:0:
39,90,87967,2,0,L|59:173,1,85,0|0,1:0|0:0,0:0:0:0:
132,228,88287,6,0,P|148:201|55:183,1,170,2|0,0:0|1:0,0:0:0:0:
116,318,88765,1,0,0:0:0:0:
116,318,88845,1,2,0:0:0:0:
116,318,88925,2,0,L|211:300,1,85,2|2,0:0|0:0,0:0:0:0:
283,318,89244,2,0,L|188:300,1,85,0|0,1:0|0:0,0:0:0:0:
324,245,89563,6,0,P|378:210|309:162,1,170,2|0,0:0|1:0,0:0:0:0:
227,208,90042,1,0,0:0:0:0:
316,158,90202,2,0,P|327:117|331:64,1,85,2|0,0:0|0:0,0:0:0:0:
227,208,90521,1,0,1:0:0:0:
155,102,90680,1,2,0:0:0:0:
316,158,90840,6,0,P|362:154|421:130,1,85,2|2,0:0|0:0,0:0:0:0:
465,185,91079,1,0,0:0:0:0:
465,185,91159,2,0,L|456:239,3,42.5,2|2|2|2,0:0|0:0|0:0|0:0,0:0:0:0:
388,268,91478,2,0,L|395:310,3,42.5,2|2|2|2,0:0|0:0|0:0|0:0,0:0:0:0:
322,350,91797,1,2,0:0:0:0:
289,338,91877,1,2,0:0:0:0:
256,326,91957,1,2,0:0:0:0:
223,314,92037,1,2,0:0:0:0:
190,302,92116,5,4,0:0:0:0:
372,199,97223,6,0,L|366:152,3,25.4999992218018,2|0|0|0,0:0|0:0|0:0|0:0,0:0:0:0:
325,111,97542,2,0,P|296:103|254:96,1,50.9999984436036,2|0,3:0|0:0,0:0:0:0:
248,114,97781,1,0,0:0:0:0:
248,114,97861,2,0,L|252:146,3,25.4999992218018,0|0|2|0,0:0|0:0|0:0|0:0,0:0:0:0:
217,207,98180,2,0,L|213:239,3,25.4999992218018,2|0|0|0,3:0|0:0|0:0|0:0,0:0:0:0:
253,298,98499,5,2,0:0:0:0:
253,298,98659,1,2,0:0:0:0:
132,242,98819,2,0,L|65:259,1,50.9999984436036,2|0,3:0|0:0,0:0:0:0:
50,129,99138,2,0,L|85:135,3,25.4999992218018,0|0|2|0,0:0|0:0|0:0|0:0,0:0:0:0:
148,117,99457,2,0,L|195:108,3,25.4999992218018,2|0|0|0,3:0|0:0|0:0|0:0,0:0:0:0:
239,147,99776,5,2,0:0:0:0:
132,242,99936,1,2,0:0:0:0:
320,197,100095,2,0,L|327:159,3,25.4999992218018,2|0|0|0,3:0|0:0|0:0|0:0,0:0:0:0:
394,261,100414,2,0,L|387:223,3,25.4999992218018,0|0|0|0,1:0|1:0|1:0|1:0,0:0:0:0:
376,364,100733,1,0,1:0:0:0:
376,364,100813,1,0,1:0:0:0:
376,364,100893,1,0,1:0:0:0:
376,364,100973,1,0,1:0:0:0:
376,364,101053,5,2,0:0:0:0:
263,256,101212,1,2,0:0:0:0:
453,319,101372,1,2,0:0:0:0:
251,260,101531,1,2,0:0:0:0:
455,228,101691,1,2,0:0:0:0:
241,265,101850,1,2,0:0:0:0:
408,148,102010,2,0,L|399:78,1,50.9999984436036,2|2,0:0|0:0,0:0:0:0:
213,53,102329,6,0,P|252:70|295:79,1,85,6|0,0:0|0:0,0:0:0:0:
131,120,102648,1,0,1:0:0:0:
320,188,102808,1,0,0:0:0:0:
320,188,102888,1,0,0:0:0:0:
320,188,102967,2,0,L|304:271,1,85,2|0,0:0|0:0,0:0:0:0:
216,142,103287,2,0,L|231:225,1,85,0|0,1:0|0:0,0:0:0:0:
405,171,103606,6,0,L|389:254,1,85,2|0,0:0|0:0,0:0:0:0:
333,89,103925,1,0,1:0:0:0:
490,144,104084,1,0,0:0:0:0:
490,144,104164,1,0,0:0:0:0:
490,144,104244,1,2,0:0:0:0:
310,185,104404,1,0,0:0:0:0:
490,144,104563,2,0,L|474:227,1,85,0|0,1:0|0:0,0:0:0:0:
310,185,104882,6,0,L|325:101,1,85,2|0,0:0|0:0,0:0:0:0:
389,254,105202,1,0,1:0:0:0:
267,319,105361,1,0,0:0:0:0:
267,319,105441,1,0,0:0:0:0:
267,319,105521,2,0,L|132:285,1,127.5,2|0,0:0|0:0,0:0:0:0:
99,230,105840,2,0,L|201:257,1,85,0|0,1:0|0:0,0:0:0:0:
331,188,106159,6,0,L|229:215,1,85,2|0,0:0|0:0,0:0:0:0:
389,254,106478,1,0,1:0:0:0:
248,209,106638,1,0,0:0:0:0:
248,209,106717,1,0,0:0:0:0:
248,209,106797,2,0,P|230:136|303:86,1,170,2|0,0:0|1:0,0:0:0:0:
415,147,107276,1,2,0:0:0:0:
248,209,107436,6,0,L|159:190,1,85,2|0,0:0|0:0,0:0:0:0:
65,278,107755,1,0,1:0:0:0:
183,334,107914,1,0,0:0:0:0:
183,334,107994,1,0,0:0:0:0:
183,334,108074,2,0,L|371:301,1,170,2|0,0:0|1:0,0:0:0:0:
405,184,108553,1,0,0:0:0:0:
284,234,108712,6,0,L|168:254,1,85,2|0,0:0|0:0,0:0:0:0:
93,171,109031,1,0,1:0:0:0:
206,75,109191,1,0,0:0:0:0:
206,75,109271,1,0,0:0:0:0:
206,75,109350,2,0,P|201:123|190:160,1,85,2|0,0:0|0:0,0:0:0:0:
108,254,109670,2,0,P|96:213|93:171,1,85,0|0,1:0|0:0,0:0:0:0:
206,254,109989,2,0,P|257:272|276:170,1,170,2|0,0:0|1:0,0:0:0:0:
394,79,110467,1,0,0:0:0:0:
394,79,110547,1,0,0:0:0:0:
394,79,110627,6,0,B|374:167,1,85,2|0,0:0|0:0,0:0:0:0:
478,267,110946,2,0,B|459:184,1,85,0|0,1:0|0:0,0:0:0:0:
352,295,111265,2,0,P|297:293|316:191,1,170,2|0,0:0|1:0,0:0:0:0:
459,184,111744,1,0,0:0:0:0:
359,53,111904,2,0,L|371:145,1,85,2|2,0:0|0:0,0:0:0:0:
469,268,112223,2,0,L|459:184,1,85,0|2,1:0|0:0,0:0:0:0:
352,295,112542,5,6,0:0:0:0:
352,295,112702,1,2,0:0:0:0:
369,137,112861,1,0,1:0:0:0:
369,137,113021,1,2,0:0:0:0:
245,294,113180,1,2,0:0:0:0:
245,294,113340,1,2,0:0:0:0:
459,184,113499,1,0,1:0:0:0:
459,184,113659,1,2,0:0:0:0:
284,193,113819,6,0,L|270:109,1,85,4|0,0:0|0:0,0:0:0:0:
360,301,114138,2,0,L|373:217,1,85,0|0,1:0|0:0,0:0:0:0:
252,335,114457,2,0,L|243:282,3,42.5,2|2|2|2,0:0|0:0|0:0|0:0,0:0:0:0:
169,274,114776,2,0,L|178:221,3,42.5,4|2|2|2,0:0|0:0|0:0|0:0,0:0:0:0:
244,196,115095,6,0,P|261:133|179:137,1,170,0|0,1:0|1:0,0:0:0:0:
180,133,115574,2,0,L|348:109,1,170,0|0,1:0|1:0,0:0:0:0:
348,109,116053,6,0,B|348:153|340:186|340:186|370:273|370:273|373:310|339:359|251:345|242:230|329:224|329:224|391:220|455:247,1,510.000019454957,2|4,0:0|3:0,0:0:0:0:
