osu file format v14

[General]
AudioFilename: audio.mp3
AudioLeadIn: 0
PreviewTime: -1
Countdown: 1
SampleSet: None
StackLeniency: 0.7
Mode: 0
LetterboxInBreaks: 0
WidescreenStoryboard: 0

[Editor]
Bookmarks: 32700,34079,45113,56148
DistanceSpacing: 0.9
BeatDivisor: 4
GridSize: 8
TimelineZoom: 1

[Metadata]
Title:sick airshot
TitleUnicode:sick airshot
Artist:BangingDonk
ArtistUnicode:BangingDonk
Creator:Doomsdaddy
Version:Pizza Hut & Taco Bell
Source:
Tags:meme mashup
BeatmapID:1607199
BeatmapSetID:764288

[Difficulty]
HPDrainRate:4
CircleSize:4
OverallDifficulty:8
ApproachRate:9.5
SliderMultiplier:2
SliderTickRate:1

[Events]
//Background and Video events
0,0,"maxresdefault (6).jpg",0,0
//Break Periods
//Storyboard Layer 0 (Background)
//Storyboard Layer 1 (Fail)
//Storyboard Layer 2 (Pass)
//Storyboard Layer 3 (Foreground)
//Storyboard Sound Samples

[TimingPoints]
976,344.827586206897,4,2,0,69,1,0
10976,-25,4,2,0,69,0,0
11665,-100,4,2,0,69,0,0
12010,-50,4,2,0,69,0,0
36838,343.839541547278,4,2,0,69,1,0
36838,-100,4,2,0,69,0,0
45066,-50,4,2,0,69,0,0

[HitObjects]
80,312,976,6,0,L|199:296,1,100,8|0,0:0|0:0,0:0:0:0:
259,162,1320,1,0,0:0:0:0:
123,235,1493,2,0,L|252:218,1,100,8|0,0:0|0:0,0:0:0:0:
312,97,1838,1,0,0:0:0:0:
167,49,2010,2,0,P|181:106|244:147,1,100,8|0,0:0|0:0,0:0:0:0:
308,193,2355,6,0,P|304:238|231:291,1,100,8|0,0:0|0:0,0:0:0:0:
151,231,2700,1,0,0:0:0:0:
250,143,2872,2,0,P|303:116|371:147,1,100,8|0,0:0|0:0,0:0:0:0:
310,250,3217,1,0,0:0:0:0:
204,200,3389,2,0,P|176:153|199:90,1,100,8|0,0:0|0:0,0:0:0:0:
289,64,3734,6,0,L|425:85,1,100,8|0,0:0|0:0,0:0:0:0:
317,160,4079,1,0,0:0:0:0:
389,243,4251,2,0,L|253:264,1,100,8|0,0:0|0:0,0:0:0:0:
321,351,4596,1,0,0:0:0:0:
228,334,4769,2,0,L|183:230,1,100,8|0,0:0|0:0,0:0:0:0:
52,227,5113,6,0,B|81:178|81:178|146:157,1,100,8|0,0:0|0:0,0:0:0:0:
264,154,5458,1,0,0:0:0:0:
135,109,5631,2,0,B|169:154|169:154|158:220,1,100,8|0,0:0|0:0,0:0:0:0:
97,313,5976,1,0,0:0:0:0:
224,273,6148,2,0,B|280:252|280:252|364:258,1,100,8|0,0:0|0:0,0:0:0:0:
433,337,6493,6,0,P|375:313|397:279,1,100,8|0,0:0|0:0,0:0:0:0:
462,149,6838,1,0,0:0:0:0:
448,240,7010,2,0,P|391:209|320:238,1,100,8|0,0:0|0:0,0:0:0:0:
213,270,7355,1,0,0:0:0:0:
343,256,7527,2,0,P|366:216|311:201,1,100,8|0,0:0|0:0,0:0:0:0:
311,80,7872,6,0,L|191:121,1,100,8|0,0:0|0:0,0:0:0:0:
61,168,8217,1,0,0:0:0:0:
156,72,8389,2,0,L|188:190,1,100,8|0,0:0|0:0,0:0:0:0:
230,327,8734,1,0,0:0:0:0:
146,226,8907,2,0,L|273:196,1,100,8|0,0:0|0:0,0:0:0:0:
418,142,9251,5,8,0:0:0:0:
215,90,9424,1,0,0:0:0:0:
373,245,9596,1,8,0:0:0:0:
420,39,9769,1,0,0:0:0:0:
255,239,9941,1,8,0:0:0:0:
432,350,10113,1,0,0:0:0:0:
319,167,10286,1,8,0:0:0:0:
141,278,10458,1,0,0:0:0:0:
344,277,10631,5,8,0:0:0:0:
387,252,10717,1,0,0:0:0:0:
416,213,10803,1,8,0:0:0:0:
427,164,10889,1,0,0:0:0:0:
373,108,10976,6,0,B|365:104|365:104|358:100|358:100|365:104|365:104|358:100|358:100|365:104|365:104|358:100|358:100|365:104|365:104|358:100|358:100|365:104|365:104|358:100|358:100|365:104|365:104|358:100|358:100|365:104|365:104|358:100|358:100|365:104|365:104|358:100|358:100|365:104|365:104|358:100|358:100|365:104|365:104|358:100|358:100|365:104|365:104|358:100|358:100|365:104|365:104|358:100|358:100|311:51|400:-3|461:17|477:149,1,400,12|0,0:0|0:0,0:0:0:0:
344,277,11320,1,8,0:0:0:0:
208,84,11493,1,4,0:0:0:0:
264,350,11665,2,0,B|294:322|294:322|351:377|416:303,1,150,12|0,0:0|0:0,0:0:0:0:
415,258,12010,6,0,P|473:293|384:309,1,200,12|0,0:0|0:0,0:0:0:0:
208,165,12355,1,0,0:0:0:0:
464,166,12527,1,0,0:0:0:0:
269,297,12700,6,0,P|214:238|197:180,1,100,8|0,0:0|0:0,0:0:0:0:
138,125,12872,2,0,P|83:184|66:242,1,100
121,293,13044,1,8,0:0:0:0:
168,175,13217,1,0,0:0:0:0:
371,333,13389,6,0,B|324:304|324:304|424:240|301:125,1,200,8|0,0:0|0:0,0:0:0:0:
166,61,13734,1,0,0:0:0:0:
286,205,13907,2,0,P|287:149|346:114,1,100,8|0,0:0|0:0,0:0:0:0:
356,249,14079,2,0,P|315:287|249:270,1,100,8|0,0:0|0:0,0:0:0:0:
197,235,14251,1,0,0:0:0:0:
459,154,14424,1,8,0:0:0:0:
459,154,14596,2,0,P|430:105|322:92,1,100
368,173,14769,6,0,P|275:207|138:160,1,200,8|0,0:0|0:0,0:0:0:0:
351,47,15113,1,0,0:0:0:0:
264,306,15286,1,8,0:0:0:0:
152,47,15458,1,8,0:0:0:0:
368,173,15631,2,0,P|316:199|234:189,1,100
297,117,15803,1,8,0:0:0:0:
426,292,15976,1,0,0:0:0:0:
213,293,16148,6,0,P|164:189|289:110,1,200,8|0,0:0|0:0,0:0:0:0:
329,346,16493,1,0,0:0:0:0:
56,191,16665,1,8,0:0:0:0:
299,91,16838,2,0,P|348:195|223:274,1,200,8|0,0:0|0:0,0:0:0:0:
204,59,17182,2,0,P|290:86|345:123,1,100,8|0,0:0|0:0,0:0:0:0:
213,158,17355,2,0,P|196:188|232:289,1,100
260,338,17527,6,0,L|475:276,1,200,8|0,0:0|0:0,0:0:0:0:
439,123,17872,2,0,L|287:169,1,100
223,287,18044,2,0,L|375:241,1,100,8|0,0:0|0:0,0:0:0:0:
231,169,18217,2,0,L|196:36,1,100,8|0,0:0|0:0,0:0:0:0:
109,208,18389,2,0,L|144:341,1,100
222,287,18562,1,8,0:0:0:0:
431,269,18734,6,0,P|413:312|378:287,1,100
380,198,18907,1,8,0:0:0:0:
102,256,19079,1,0,0:0:0:0:
423,349,19251,1,0,0:0:0:0:
64,206,19424,6,0,P|40:249|120:315,1,100,8|0,0:0|0:0,0:0:0:0:
161,201,19596,2,0,P|185:158|105:92,1,100,8|0,0:0|0:0,0:0:0:0:
70,82,19769,1,0,0:0:0:0:
147,329,19941,2,0,L|387:286,1,200,8|0,0:0|0:0,0:0:0:0:
339,129,20286,6,0,P|411:90|316:68,1,200,8|0,0:0|0:0,0:0:0:0:
156,138,20631,2,0,P|84:177|179:199,1,200,8|0,0:0|0:0,0:0:0:0:
336,234,20976,6,0,P|408:273|313:295,1,200,8|0,0:0|0:0,0:0:0:0:
153,225,21320,2,0,P|81:186|176:164,1,200,8|0,0:0|0:0,0:0:0:0:
249,273,21665,6,8,P|164:309|40:278,1,200
249,273,22010,2,8,P|314:290|218:326,1,200
60,290,22355,1,8,0:0:0:0:
344,193,22527,1,8,0:0:0:0:
63,103,22700,2,0,B|112:85|129:102|129:102|179:157|257:143|257:143|416:80,1,300,8|0,0:0|0:0,0:0:0:0:
416,202,23044,6,0,L|213:291,1,200,8|0,0:0|0:0,0:0:0:0:
139,133,23389,1,0,0:0:0:0:
349,278,23562,1,8,0:0:0:0:
115,334,23734,6,0,P|90:269|127:223,1,100,8|0,0:0|0:0,0:0:0:0:
188,187,23907,2,0,P|213:122|176:76,1,100
115,47,24079,1,8,0:0:0:0:
259,241,24251,1,0,0:0:0:0:
259,241,24338,1,0,0:0:0:0:
259,241,24424,6,0,P|281:188|356:274,1,200,8|0,0:0|0:0,0:0:0:0:
167,210,24769,1,0,0:0:0:0:
447,103,24941,2,0,L|321:62,1,100,8|0,0:0|0:0,0:0:0:0:
254,180,25113,2,0,L|128:221,1,100,8|0,0:0|0:0,0:0:0:0:
75,163,25286,1,0,0:0:0:0:
293,77,25458,1,8,0:0:0:0:
81,278,25631,1,0,0:0:0:0:
202,39,25803,6,0,P|211:130|343:153,1,200,8|0,0:0|0:0,0:0:0:0:
474,73,26148,1,0,0:0:0:0:
293,77,26320,1,8,0:0:0:0:
378,230,26493,2,0,P|365:285|277:322,1,100,8|0,0:0|0:0,0:0:0:0:
203,239,26665,2,0,P|251:252|298:236,1,100
247,161,26838,1,8,0:0:0:0:
71,319,27010,1,0,0:0:0:0:
337,314,27182,6,0,P|385:199|338:117,2,200,8|0|0,0:0|0:0|0:0,0:0:0:0:
57,251,27700,1,8,0:0:0:0:
275,185,27872,2,0,P|390:137|472:184,1,200,8|0,0:0|0:0,0:0:0:0:
253,257,28217,2,0,B|139:236|117:144|117:144|122:129|183:95|273:168,1,300,8|0,0:0|0:0,0:0:0:0:
245,64,28562,6,0,P|171:49|38:109,1,200,8|0,0:0|0:0,0:0:0:0:
296,194,28907,1,0,0:0:0:0:
43,254,29079,1,8,0:0:0:0:
314,119,29251,2,0,P|366:156|366:225,1,100,8|0,0:0|0:0,0:0:0:0:
287,267,29424,2,0,P|269:312|226:336,1,100
145,291,29596,2,0,B|180:209|85:170|85:170|108:120|182:83|280:175,1,300,8|0,0:0|0:0,0:0:0:0:
275,184,29941,6,0,B|328:214|376:166|376:166|365:278,1,200,8|0,0:0|0:0,0:0:0:0:
158,194,30286,1,0,0:0:0:0:
413,85,30458,2,0,L|252:154,1,100,8|0,0:0|0:0,0:0:0:0:
226,110,30631,2,0,P|238:170|265:201,1,100,8|0,0:0|0:0,0:0:0:0:
353,217,30803,1,0,0:0:0:0:
180,46,30976,2,0,B|132:87|155:146|155:146|54:103,1,200,8|0,0:0|0:0,0:0:0:0:
95,221,31320,6,0,L|315:315,1,200,8|0,0:0|0:0,0:0:0:0:
388,124,31665,1,8,0:0:0:0:
190,261,31838,1,0,0:0:0:0:
388,124,32010,6,0,L|168:218,1,200,8|0,0:0|0:0,0:0:0:0:
95,27,32355,1,8,0:0:0:0:
293,164,32527,1,0,0:0:0:0:
67,120,32700,6,0,P|125:115|188:67,1,100,8|0,0:0|0:0,0:0:0:0:
225,37,32872,1,0,0:0:0:0:
45,197,33044,1,8,0:0:0:0:
95,27,33217,1,0,0:0:0:0:
234,321,33389,1,8,0:0:0:0:
329,223,33562,1,0,0:0:0:0:
104,60,33734,1,8,0:0:0:0:
199,158,33907,1,0,0:0:0:0:
45,197,34079,5,8,0:0:0:0:
463,193,34424,1,8,0:0:0:0:
45,197,34769,5,8,0:0:0:0:
463,193,35113,1,8,0:0:0:0:
75,301,35458,5,8,0:0:0:0:
435,89,35803,1,8,0:0:0:0:
75,301,36148,5,8,0:0:0:0:
188,86,36320,1,0,0:0:0:0:
435,89,36493,1,8,0:0:0:0:
179,189,36665,1,8,0:0:0:0:
357,32,36838,6,0,L|385:166,1,100,12|0,0:0|0:0,0:0:0:0:
296,303,37181,1,8,0:0:0:0:
289,266,37267,1,0,0:0:0:0:
283,229,37353,1,0,0:0:0:0:
277,192,37439,1,0,0:0:0:0:
271,155,37525,6,0,P|224:125|165:155,1,100,8|0,0:0|0:0,0:0:0:0:
70,241,37869,1,8,0:0:0:0:
106,248,37955,1,0,0:0:0:0:
143,255,38041,1,0,0:0:0:0:
180,263,38127,1,0,0:0:0:0:
217,270,38213,6,0,P|269:229|338:236,1,100,8|0,0:0|0:0,0:0:0:0:
383,303,38557,1,8,0:0:0:0:
397,268,38643,1,0,0:0:0:0:
401,231,38729,1,0,0:0:0:0:
395,194,38815,1,0,0:0:0:0:
380,160,38901,6,0,L|341:101,1,50,8|0,0:0|0:0,0:0:0:0:
269,85,39072,2,0,L|201:118,1,50
177,181,39244,5,8,0:0:0:0:
114,317,39416,1,0,0:0:0:0:
264,315,39588,1,8,0:0:0:0:
177,181,39760,2,0,L|220:257,1,50
292,245,39932,5,8,0:0:0:0:
373,97,40104,2,0,L|331:174,1,50
257,137,40276,6,0,P|214:98|150:97,1,100,8|0,0:0|0:0,0:0:0:0:
54,141,40620,1,8,0:0:0:0:
64,177,40706,1,0,0:0:0:0:
74,213,40792,1,0,0:0:0:0:
84,249,40878,1,0,0:0:0:0:
94,285,40964,6,0,L|168:289,1,50,8|0,0:0|0:0,0:0:0:0:
210,220,41135,2,0,L|270:196,1,50
302,118,41307,1,8,0:0:0:0:
332,139,41393,1,0,0:0:0:0:
350,172,41479,1,0,0:0:0:0:
354,209,41565,1,0,0:0:0:0:
343,244,41651,5,8,0:0:0:0:
166,209,41823,1,8,0:0:0:0:
70,302,41995,5,8,0:0:0:0:
247,266,42167,1,8,0:0:0:0:
84,164,42339,6,0,L|200:109,1,100,12|0,0:0|0:0,0:0:0:0:
298,209,42683,2,0,P|262:172|297:144,1,100,8|0,0:0|0:0,0:0:0:0:
388,233,43027,2,0,P|424:270|389:298,1,100,8|0,0:0|0:0,0:0:0:0:
262,257,43370,1,8,0:0:0:0:
364,167,43542,2,0,P|421:118|334:74,1,200,8|8,0:0|0:0,0:0:0:0:
248,146,44058,2,0,P|200:158|122:130,1,100,8|8,0:0|0:0,0:0:0:0:
67,61,44402,5,8,0:0:0:0:
327,140,44574,1,8,0:0:0:0:
59,225,44746,1,8,0:0:0:0:
341,286,44918,1,8,0:0:0:0:
176,345,45090,6,0,L|200:216,1,100,12|0,0:0|0:0,0:0:0:0:
77,126,45262,2,0,L|53:255,1,100
176,345,45433,2,0,P|225:342|268:318,1,100,8|0,0:0|0:0,0:0:0:0:
308,211,45605,2,0,P|351:186|400:184,1,100
469,260,45777,5,8,0:0:0:0:
195,227,45949,1,0,0:0:0:0:
183,192,46035,1,0,0:0:0:0:
197,159,46121,1,8,0:0:0:0:
225,341,46379,1,0,0:0:0:0:
225,341,46465,6,0,B|179:319|179:319|155:215|155:215|227:238,1,200,8|0,0:0|0:0,0:0:0:0:
380,341,46809,2,8,L|351:220,1,100,0|8,0:0|0:0,0:0:0:0:
408,133,46981,2,0,P|335:111|306:130,1,100
266,203,47153,1,8,0:0:0:0:
482,160,47325,1,0,0:0:0:0:
224,74,47497,1,8,0:0:0:0:
416,254,47668,1,0,0:0:0:0:
187,302,47840,6,0,P|145:246|154:152,1,100,8|0,0:0|0:0,0:0:0:0:
284,140,48012,2,0,P|269:187|236:224,1,100
196,298,48184,6,0,P|154:242|163:148,1,100,8|0,0:0|0:0,0:0:0:0:
293,136,48356,2,0,P|278:183|245:220,1,100
192,135,48528,1,8,0:0:0:0:
409,223,48700,1,0,0:0:0:0:
384,212,48786,1,0,0:0:0:0:
358,202,48872,1,8,0:0:0:0:
139,315,49130,1,0,0:0:0:0:
139,315,49216,6,0,P|239:254|106:256,1,300,8|0,0:0|0:0,0:0:0:0:
31,191,49560,2,0,P|101:218|161:182,1,100,8|0,0:0|0:0,0:0:0:0:
201,140,49731,2,0,P|271:113|331:149,1,100
266,206,49903,1,8,0:0:0:0:
104,92,50075,1,0,0:0:0:0:
101,294,50247,1,8,0:0:0:0:
201,140,50419,1,0,0:0:0:0:
53,263,50591,6,0,L|165:333,1,100,8|0,0:0|0:0,0:0:0:0:
187,245,50763,2,0,L|102:192,1,100
148,122,50935,2,0,L|260:192,1,100,8|0,0:0|0:0,0:0:0:0:
285,105,51107,2,0,L|200:52,1,100
83,69,51279,5,8,0:0:0:0:
319,205,51451,1,0,0:0:0:0:
351,198,51537,1,0,0:0:0:0:
385,192,51623,6,0,P|402:247|293:181,1,300,8|0,0:0|0:0,0:0:0:0:
285,105,51966,2,0,L|46:142,1,200,8|0,0:0|0:0,0:0:0:0:
272,198,52310,2,0,L|409:172,1,100,8|0,0:0|0:0,0:0:0:0:
178,35,52482,2,0,L|77:51,1,100
149,134,52654,5,8,0:0:0:0:
392,80,52826,1,0,0:0:0:0:
180,256,52998,1,8,0:0:0:0:
303,52,53170,1,0,0:0:0:0:
279,180,53342,6,0,P|315:221|316:267,1,100,8|0,0:0|0:0,0:0:0:0:
177,186,53514,2,0,P|195:118|255:89,1,100
233,243,53686,2,0,P|185:262|99:224,1,100,8|0,0:0|0:0,0:0:0:0:
35,166,53858,2,0,P|83:159|129:177,1,100
62,249,54029,1,8,0:0:0:0:
89,54,54201,1,0,0:0:0:0:
120,58,54287,1,0,0:0:0:0:
152,64,54373,2,0,B|240:75|240:75|270:100|270:100|395:113,1,200,8|0,0:0|0:0,0:0:0:0:
472,247,54717,5,8,0:0:0:0:
178,196,54889,1,0,0:0:0:0:
371,172,55061,1,8,0:0:0:0:
289,282,55233,5,0,0:0:0:0:
102,58,55405,1,8,0:0:0:0:
272,166,55577,1,0,0:0:0:0:
55,136,55749,2,0,P|125:146|179:108,1,100,12|0,0:0|0:0,0:0:0:0:
219,60,55921,2,0,P|289:50|343:88,1,100,8|0,0:0|0:0,0:0:0:0:
396,132,56093,1,12,0:0:0:0:
