osu file format v14

[General]
AudioFilename: audio.mp3
AudioLeadIn: 0
PreviewTime: 40977
Countdown: 1
SampleSet: Normal
StackLeniency: 0.7
Mode: 1
LetterboxInBreaks: 0
WidescreenStoryboard: 0

[Editor]
Bookmarks: 1102,9093,25102,41102,56343,60968
DistanceSpacing: 2
BeatDivisor: 4
GridSize: 8
TimelineZoom: 3.699998

[Metadata]
Title:373
TitleUnicode:373
Artist:Banana Shone
ArtistUnicode:Banana Shone
Creator:-Kriston-
Version:TaikoPLS
Source:
Tags:touhou anime speedcore 東方地霊殿 Subterranean Animism komeiji satori ShONe
BeatmapID:2064646
BeatmapSetID:986988

[Difficulty]
HPDrainRate:5
CircleSize:5
OverallDifficulty:7
ApproachRate:5
SliderMultiplier:1.4
SliderTickRate:2

[Events]
//Background and Video events
0,0,"touhhou.jpg",0,0
//Break Periods
//Storyboard Layer 0 (Background)
//Storyboard Layer 1 (Fail)
//Storyboard Layer 2 (Pass)
//Storyboard Layer 3 (Foreground)
//Storyboard Sound Samples

[TimingPoints]
1093,250,4,1,0,65,1,0
24468,-98.0392156862745,4,1,0,65,0,0
24530,-96.1538461538461,4,1,0,65,0,0
24593,-94.3396226415094,4,1,0,65,0,0
24655,-92.5925925925926,4,1,0,65,0,0
24718,-90.9090909090909,4,1,0,65,0,0
24780,-89.2857142857143,4,1,0,65,0,0
24843,-87.719298245614,4,1,0,65,0,0
24905,-86.2068965517241,4,1,0,65,0,0
24968,-83.3333333333333,4,1,0,65,0,0
25030,-81.9672131147541,4,1,0,65,0,0
25093,-80.6451612903226,4,1,0,65,0,0
25593,-125,4,1,0,50,0,0
37093,-119.047619047619,4,1,0,55,0,0
38093,-113.636363636364,4,1,0,58,0,0
39093,-108.695652173913,4,1,0,60,0,0
40093,-102.040816326531,4,1,0,65,0,0
40468,-98.0392156862745,4,1,0,65,0,0
40843,-95.2380952380952,4,1,0,65,0,0
41093,-90.9090909090909,4,1,0,65,0,0
56968,-89.2857142857143,4,1,0,65,0,0
57093,-87.719298245614,4,1,0,65,0,1
59093,-86.2068965517241,4,1,0,65,0,1
61093,-84.7457627118644,4,1,0,65,0,1
63093,-83.3333333333333,4,1,0,65,0,1
65093,-81.9672131147541,4,1,0,65,0,1
67093,-80.6451612903226,4,1,0,65,0,1
69093,-79.3650793650794,4,1,0,65,0,1
71093,-78.125,4,1,0,65,0,1
73093,-76.9230769230769,4,1,0,65,0,0

[HitObjects]
285,194,1093,5,0,0:0:0:0:
285,194,1343,1,0,0:0:0:0:
285,194,1468,1,0,0:0:0:0:
285,194,1530,1,0,0:0:0:0:
285,194,1593,1,8,0:0:0:0:
337,193,1718,1,8,0:0:0:0:
337,193,1843,1,0,0:0:0:0:
337,193,1968,1,8,0:0:0:0:
337,193,2093,1,0,0:0:0:0:
337,193,2218,1,0,0:0:0:0:
337,193,2343,1,8,0:0:0:0:
337,193,2468,1,8,0:0:0:0:
337,193,2593,1,0,0:0:0:0:
337,193,2843,1,8,0:0:0:0:
337,193,2968,1,8,0:0:0:0:
337,193,3093,1,0,0:0:0:0:
337,193,3218,1,8,0:0:0:0:
337,193,3343,1,0,0:0:0:0:
337,193,3468,1,8,0:0:0:0:
337,193,3593,1,8,0:0:0:0:
337,193,3655,1,8,0:0:0:0:
337,193,3718,1,0,0:0:0:0:
337,193,3780,1,8,0:0:0:0:
337,193,3843,1,0,0:0:0:0:
337,193,3968,1,8,0:0:0:0:
337,193,4093,1,0,0:0:0:0:
337,193,4343,1,0,0:0:0:0:
337,193,4468,1,0,0:0:0:0:
337,193,4530,1,0,0:0:0:0:
337,193,4593,1,8,0:0:0:0:
337,193,4718,1,0,0:0:0:0:
337,193,4780,1,8,0:0:0:0:
337,193,4843,1,0,0:0:0:0:
337,193,4968,1,8,0:0:0:0:
337,193,5093,1,4,0:0:0:0:
337,193,5343,1,0,0:0:0:0:
337,193,5468,1,0,0:0:0:0:
337,193,5530,1,0,0:0:0:0:
337,193,5593,1,8,0:0:0:0:
337,193,5718,1,8,0:0:0:0:
337,193,5843,1,0,0:0:0:0:
337,193,5968,1,8,0:0:0:0:
245,115,6093,1,4,0:0:0:0:
301,149,6218,1,0,0:0:0:0:
245,115,6343,1,8,0:0:0:0:
245,115,6468,1,0,0:0:0:0:
245,115,6593,1,8,0:0:0:0:
368,206,6718,1,8,0:0:0:0:
245,115,6843,1,8,0:0:0:0:
245,115,6968,1,8,0:0:0:0:
245,115,7093,1,4,0:0:0:0:
283,170,7218,1,0,0:0:0:0:
316,170,7343,1,8,0:0:0:0:
283,170,7468,1,8,0:0:0:0:
166,158,7593,1,4,0:0:0:0:
166,158,7718,1,8,0:0:0:0:
166,158,7843,1,8,0:0:0:0:
166,158,7905,1,8,0:0:0:0:
166,158,7968,1,8,0:0:0:0:
166,158,8030,1,0,0:0:0:0:
166,158,8093,1,12,0:0:0:0:
436,241,8343,1,12,0:0:0:0:
266,162,8593,1,12,0:0:0:0:
275,162,8718,1,8,0:0:0:0:
275,162,8843,1,8,0:0:0:0:
275,162,8905,1,8,0:0:0:0:
275,162,8968,1,8,0:0:0:0:
275,162,9030,1,8,0:0:0:0:
275,162,9093,1,4,0:0:0:0:
275,162,9218,1,8,0:0:0:0:
327,162,9280,1,8,0:0:0:0:
275,162,9343,1,0,0:0:0:0:
256,157,9468,1,8,0:0:0:0:
256,157,9530,1,8,0:0:0:0:
256,157,9593,1,0,0:0:0:0:
256,157,9718,1,8,0:0:0:0:
352,164,9780,1,8,0:0:0:0:
256,157,9843,1,0,0:0:0:0:
286,166,9905,1,0,0:0:0:0:
256,157,9968,1,8,0:0:0:0:
286,166,10030,1,8,0:0:0:0:
256,157,10093,1,0,0:0:0:0:
256,157,10218,1,8,0:0:0:0:
375,192,10280,1,8,0:0:0:0:
256,157,10343,1,0,0:0:0:0:
256,157,10468,1,8,0:0:0:0:
375,192,10530,1,8,0:0:0:0:
256,157,10593,1,0,0:0:0:0:
339,151,10718,1,8,0:0:0:0:
237,158,10780,1,8,0:0:0:0:
256,157,10843,1,0,0:0:0:0:
350,150,10905,1,8,0:0:0:0:
256,157,10968,1,0,0:0:0:0:
325,124,11030,1,8,0:0:0:0:
256,157,11093,1,0,0:0:0:0:
256,157,11218,1,8,0:0:0:0:
298,189,11280,1,8,0:0:0:0:
256,157,11343,1,0,0:0:0:0:
256,157,11468,1,8,0:0:0:0:
298,189,11530,1,8,0:0:0:0:
194,107,11593,1,0,0:0:0:0:
284,160,11655,1,0,0:0:0:0:
284,160,11718,1,8,0:0:0:0:
284,160,11780,1,0,0:0:0:0:
284,160,11843,1,8,0:0:0:0:
284,160,11968,1,8,0:0:0:0:
345,159,12030,1,8,0:0:0:0:
284,160,12093,1,0,0:0:0:0:
393,196,12218,1,8,0:0:0:0:
380,178,12280,1,8,0:0:0:0:
284,160,12343,1,0,0:0:0:0:
284,160,12468,1,8,0:0:0:0:
368,206,12530,1,8,0:0:0:0:
284,160,12593,1,0,0:0:0:0:
284,160,12718,1,0,0:0:0:0:
284,160,12780,1,8,0:0:0:0:
284,160,12843,1,0,0:0:0:0:
284,160,12968,1,0,0:0:0:0:
284,160,13093,1,4,0:0:0:0:
284,160,13343,1,4,0:0:0:0:
284,160,13468,1,8,0:0:0:0:
284,160,13530,1,8,0:0:0:0:
284,160,13593,1,0,0:0:0:0:
284,160,13718,1,8,0:0:0:0:
324,151,13780,1,8,0:0:0:0:
346,218,13843,1,0,0:0:0:0:
346,218,13968,1,8,0:0:0:0:
314,172,14030,1,8,0:0:0:0:
346,218,14093,1,0,0:0:0:0:
333,166,14155,1,0,0:0:0:0:
346,218,14218,1,8,0:0:0:0:
333,166,14280,1,0,0:0:0:0:
346,218,14343,1,8,0:0:0:0:
346,218,14468,1,0,0:0:0:0:
305,163,14530,1,8,0:0:0:0:
346,218,14593,1,0,0:0:0:0:
292,160,14655,1,0,0:0:0:0:
331,169,14718,1,8,0:0:0:0:
346,218,14843,1,0,0:0:0:0:
319,193,14905,1,0,0:0:0:0:
346,218,14968,1,8,0:0:0:0:
346,218,15093,1,4,0:0:0:0:
346,218,15218,1,12,0:0:0:0:
346,218,15343,1,4,0:0:0:0:
346,218,15468,1,12,0:0:0:0:
346,218,15593,1,4,0:0:0:0:
346,218,15718,1,12,0:0:0:0:
346,218,15843,1,8,0:0:0:0:
346,218,15905,1,8,0:0:0:0:
346,218,15968,1,8,0:0:0:0:
346,218,16030,1,0,0:0:0:0:
346,218,16093,1,12,0:0:0:0:
346,218,16343,1,12,0:0:0:0:
346,218,16593,1,12,0:0:0:0:
346,218,16718,1,8,0:0:0:0:
346,218,16843,1,8,0:0:0:0:
346,218,16905,1,8,0:0:0:0:
346,218,16968,1,8,0:0:0:0:
346,218,17030,1,8,0:0:0:0:
346,218,17093,1,4,0:0:0:0:
366,189,17218,1,8,0:0:0:0:
323,217,17280,1,8,0:0:0:0:
339,191,17343,1,0,0:0:0:0:
346,218,17468,1,8,0:0:0:0:
346,218,17530,1,8,0:0:0:0:
346,218,17593,1,0,0:0:0:0:
346,218,17718,1,8,0:0:0:0:
347,197,17780,1,8,0:0:0:0:
346,218,17843,1,0,0:0:0:0:
347,197,17905,1,0,0:0:0:0:
346,218,17968,1,8,0:0:0:0:
348,197,18030,1,8,0:0:0:0:
346,218,18093,1,0,0:0:0:0:
346,218,18218,1,8,0:0:0:0:
306,148,18280,1,8,0:0:0:0:
346,218,18343,1,0,0:0:0:0:
346,218,18468,1,8,0:0:0:0:
329,184,18530,1,8,0:0:0:0:
306,148,18593,1,0,0:0:0:0:
316,199,18718,1,8,0:0:0:0:
316,175,18780,1,8,0:0:0:0:
346,218,18843,1,0,0:0:0:0:
328,192,18905,1,8,0:0:0:0:
346,218,18968,1,0,0:0:0:0:
328,192,19030,1,8,0:0:0:0:
346,218,19093,1,0,0:0:0:0:
346,218,19218,1,8,0:0:0:0:
292,168,19280,1,8,0:0:0:0:
346,218,19343,1,0,0:0:0:0:
346,218,19468,1,8,0:0:0:0:
351,215,19530,1,8,0:0:0:0:
346,218,19593,1,0,0:0:0:0:
346,218,19655,1,8,0:0:0:0:
346,218,19718,1,0,0:0:0:0:
346,218,19780,1,0,0:0:0:0:
346,218,19843,1,8,0:0:0:0:
346,218,19968,1,8,0:0:0:0:
303,177,20030,1,8,0:0:0:0:
346,218,20093,1,0,0:0:0:0:
303,177,20218,1,8,0:0:0:0:
238,163,20280,1,8,0:0:0:0:
346,218,20343,1,0,0:0:0:0:
346,218,20468,1,8,0:0:0:0:
346,218,20530,1,8,0:0:0:0:
346,218,20593,1,0,0:0:0:0:
346,218,20718,1,0,0:0:0:0:
346,218,20780,1,8,0:0:0:0:
346,218,20843,1,0,0:0:0:0:
346,218,20968,1,0,0:0:0:0:
346,218,21093,1,4,0:0:0:0:
346,218,21343,1,4,0:0:0:0:
346,218,21468,1,8,0:0:0:0:
346,218,21530,1,8,0:0:0:0:
346,218,21593,1,0,0:0:0:0:
346,218,21718,1,8,0:0:0:0:
336,183,21780,1,8,0:0:0:0:
346,218,21843,1,0,0:0:0:0:
346,218,21968,1,8,0:0:0:0:
319,186,22030,1,8,0:0:0:0:
346,218,22093,1,0,0:0:0:0:
332,160,22155,1,0,0:0:0:0:
346,218,22218,1,8,0:0:0:0:
337,161,22280,1,0,0:0:0:0:
346,218,22343,1,8,0:0:0:0:
337,161,22405,1,8,0:0:0:0:
346,218,22468,1,0,0:0:0:0:
337,161,22530,1,0,0:0:0:0:
346,218,22593,1,8,0:0:0:0:
335,213,22718,1,0,0:0:0:0:
354,184,22780,1,0,0:0:0:0:
346,218,22843,1,8,0:0:0:0:
346,218,22968,1,8,0:0:0:0:
346,218,23093,1,4,0:0:0:0:
346,218,23218,1,12,0:0:0:0:
346,218,23343,1,4,0:0:0:0:
346,218,23468,1,12,0:0:0:0:
346,218,23593,1,4,0:0:0:0:
346,218,23718,1,12,0:0:0:0:
346,218,23843,1,8,0:0:0:0:
346,218,23905,1,8,0:0:0:0:
346,218,23968,1,8,0:0:0:0:
346,218,24030,1,0,0:0:0:0:
346,218,24093,1,8,0:0:0:0:
295,168,24218,1,8,0:0:0:0:
241,151,24280,1,0,0:0:0:0:
346,218,24343,1,8,0:0:0:0:
346,218,24468,1,8,0:0:0:0:
346,218,24530,1,8,0:0:0:0:
346,218,24593,1,8,0:0:0:0:
346,218,24655,1,0,0:0:0:0:
346,218,24718,1,8,0:0:0:0:
346,218,24780,1,0,0:0:0:0:
346,218,24843,1,8,0:0:0:0:
346,218,24905,1,0,0:0:0:0:
346,218,24968,1,8,0:0:0:0:
346,218,25030,1,0,0:0:0:0:
346,218,25093,1,8,0:0:0:0:
346,218,25593,1,8,0:0:0:0:
346,218,26093,1,8,0:0:0:0:
346,218,26843,1,0,0:0:0:0:
242,183,26968,1,8,0:0:0:0:
242,183,27093,1,0,0:0:0:0:
242,183,27343,1,0,0:0:0:0:
242,183,27468,1,8,0:0:0:0:
242,183,27593,1,0,0:0:0:0:
242,183,27843,1,0,0:0:0:0:
242,183,28093,1,8,0:0:0:0:
242,183,28343,1,0,0:0:0:0:
242,183,28593,1,0,0:0:0:0:
242,183,28843,1,8,0:0:0:0:
242,183,29093,1,0,0:0:0:0:
242,183,29343,1,8,0:0:0:0:
242,183,29468,1,8,0:0:0:0:
242,183,29843,1,0,0:0:0:0:
241,169,30093,1,0,0:0:0:0:
241,169,30343,1,8,0:0:0:0:
241,169,30468,1,8,0:0:0:0:
241,169,30843,1,0,0:0:0:0:
241,169,31093,1,0,0:0:0:0:
241,169,31343,1,8,0:0:0:0:
241,169,31593,1,0,0:0:0:0:
241,169,31843,1,8,0:0:0:0:
241,169,32093,1,0,0:0:0:0:
241,169,32468,1,8,0:0:0:0:
241,169,32843,1,8,0:0:0:0:
241,169,33093,1,0,0:0:0:0:
241,169,33593,1,8,0:0:0:0:
241,169,34093,1,8,0:0:0:0:
260,173,34843,1,0,0:0:0:0:
260,173,34968,1,8,0:0:0:0:
260,173,35093,1,0,0:0:0:0:
260,173,35343,1,0,0:0:0:0:
260,173,35468,1,8,0:0:0:0:
260,173,35593,1,0,0:0:0:0:
260,173,35843,1,0,0:0:0:0:
260,173,36093,1,8,0:0:0:0:
260,173,36343,1,0,0:0:0:0:
260,173,36593,1,0,0:0:0:0:
260,173,36843,1,8,0:0:0:0:
260,173,37093,1,0,0:0:0:0:
260,173,37343,1,8,0:0:0:0:
260,173,37468,1,8,0:0:0:0:
260,173,37843,1,0,0:0:0:0:
260,173,38093,1,0,0:0:0:0:
260,173,38343,1,8,0:0:0:0:
260,173,38468,1,8,0:0:0:0:
260,173,38843,1,0,0:0:0:0:
260,173,39093,1,8,0:0:0:0:
260,173,39343,1,0,0:0:0:0:
260,173,39593,1,8,0:0:0:0:
260,173,39843,1,8,0:0:0:0:
260,173,40093,1,4,0:0:0:0:
260,173,40468,1,12,0:0:0:0:
260,173,40843,1,12,0:0:0:0:
323,143,41093,1,4,0:0:0:0:
323,143,41218,1,0,0:0:0:0:
310,175,41280,1,0,0:0:0:0:
348,175,41343,1,8,0:0:0:0:
250,108,41468,1,0,0:0:0:0:
323,143,41593,1,0,0:0:0:0:
327,203,41655,1,8,0:0:0:0:
323,143,41718,1,0,0:0:0:0:
312,175,41780,1,0,0:0:0:0:
323,143,41843,1,8,0:0:0:0:
323,143,41968,1,0,0:0:0:0:
323,143,42093,1,0,0:0:0:0:
381,195,42155,1,8,0:0:0:0:
323,143,42218,1,0,0:0:0:0:
296,140,42280,1,0,0:0:0:0:
323,143,42343,1,8,0:0:0:0:
323,143,42468,1,0,0:0:0:0:
323,143,42593,1,8,0:0:0:0:
318,162,42655,1,8,0:0:0:0:
323,143,42718,1,8,0:0:0:0:
323,143,42780,1,8,0:0:0:0:
323,143,42843,1,0,0:0:0:0:
271,179,42968,1,8,0:0:0:0:
305,203,43093,1,0,0:0:0:0:
305,203,43155,1,0,0:0:0:0:
305,203,43218,1,8,0:0:0:0:
305,203,43280,1,0,0:0:0:0:
305,203,43343,1,0,0:0:0:0:
305,203,43468,1,0,0:0:0:0:
305,203,43530,1,8,0:0:0:0:
305,203,43593,1,0,0:0:0:0:
305,203,43655,1,0,0:0:0:0:
305,203,43718,1,8,0:0:0:0:
305,203,43780,1,8,0:0:0:0:
305,203,43843,1,0,0:0:0:0:
305,203,43968,1,8,0:0:0:0:
308,144,44030,1,8,0:0:0:0:
305,203,44093,1,0,0:0:0:0:
305,203,44155,1,0,0:0:0:0:
310,157,44218,1,8,0:0:0:0:
310,157,44280,1,8,0:0:0:0:
310,157,44343,1,0,0:0:0:0:
310,157,44468,1,0,0:0:0:0:
310,157,44530,1,8,0:0:0:0:
310,157,44593,1,0,0:0:0:0:
310,157,44655,1,0,0:0:0:0:
310,157,44718,1,8,0:0:0:0:
310,157,44780,1,8,0:0:0:0:
310,157,44843,1,0,0:0:0:0:
310,157,44968,1,8,0:0:0:0:
310,157,45093,1,0,0:0:0:0:
310,157,45155,1,0,0:0:0:0:
283,201,45218,1,8,0:0:0:0:
283,201,45280,1,8,0:0:0:0:
283,201,45343,1,0,0:0:0:0:
306,202,45468,1,8,0:0:0:0:
306,202,45593,1,4,0:0:0:0:
306,202,45718,1,4,0:0:0:0:
306,202,45843,1,4,0:0:0:0:
306,202,45968,1,4,0:0:0:0:
306,202,46093,1,8,0:0:0:0:
306,202,46218,1,0,0:0:0:0:
306,202,46280,1,8,0:0:0:0:
306,202,46343,1,0,0:0:0:0:
306,202,46468,1,8,0:0:0:0:
306,202,46593,1,4,0:0:0:0:
306,202,46718,1,4,0:0:0:0:
306,202,46843,1,4,0:0:0:0:
306,202,46968,1,4,0:0:0:0:
306,202,47093,1,8,0:0:0:0:
306,202,47218,1,0,0:0:0:0:
307,146,47280,1,0,0:0:0:0:
306,202,47343,1,8,0:0:0:0:
307,146,47405,1,8,0:0:0:0:
306,202,47468,1,0,0:0:0:0:
307,146,47530,1,0,0:0:0:0:
306,202,47593,1,8,0:0:0:0:
306,202,47718,1,8,0:0:0:0:
306,185,47780,1,0,0:0:0:0:
306,202,47843,1,8,0:0:0:0:
310,185,47905,1,8,0:0:0:0:
306,202,47968,1,0,0:0:0:0:
310,149,48030,1,0,0:0:0:0:
306,202,48093,1,8,0:0:0:0:
306,202,48343,1,0,0:0:0:0:
306,202,48468,1,0,0:0:0:0:
306,202,48593,1,8,0:0:0:0:
306,202,48655,1,8,0:0:0:0:
306,202,48718,1,8,0:0:0:0:
306,202,48780,1,8,0:0:0:0:
306,202,48843,1,8,0:0:0:0:
306,202,48968,1,8,0:0:0:0:
306,202,49093,1,4,0:0:0:0:
323,143,49218,1,0,0:0:0:0:
310,175,49280,1,0,0:0:0:0:
348,175,49343,1,8,0:0:0:0:
250,108,49468,1,0,0:0:0:0:
323,143,49593,1,0,0:0:0:0:
327,203,49655,1,8,0:0:0:0:
323,143,49718,1,0,0:0:0:0:
312,175,49780,1,0,0:0:0:0:
323,143,49843,1,8,0:0:0:0:
323,143,49968,1,0,0:0:0:0:
323,143,50093,1,0,0:0:0:0:
381,195,50155,1,8,0:0:0:0:
323,143,50218,1,0,0:0:0:0:
296,140,50280,1,0,0:0:0:0:
323,143,50343,1,8,0:0:0:0:
323,143,50468,1,0,0:0:0:0:
323,143,50593,1,8,0:0:0:0:
318,162,50655,1,8,0:0:0:0:
323,143,50718,1,8,0:0:0:0:
323,143,50780,1,8,0:0:0:0:
323,143,50843,1,0,0:0:0:0:
271,179,50968,1,8,0:0:0:0:
305,203,51093,1,0,0:0:0:0:
305,203,51155,1,0,0:0:0:0:
305,203,51218,1,8,0:0:0:0:
305,203,51280,1,0,0:0:0:0:
336,176,51343,1,0,0:0:0:0:
305,203,51468,1,0,0:0:0:0:
305,203,51530,1,8,0:0:0:0:
305,203,51593,1,0,0:0:0:0:
305,203,51655,1,0,0:0:0:0:
305,203,51718,1,8,0:0:0:0:
305,203,51780,1,0,0:0:0:0:
305,203,51843,1,8,0:0:0:0:
305,203,51968,1,0,0:0:0:0:
308,144,52030,1,8,0:0:0:0:
305,203,52093,1,0,0:0:0:0:
305,203,52155,1,0,0:0:0:0:
310,157,52218,1,8,0:0:0:0:
310,157,52280,1,8,0:0:0:0:
310,157,52343,1,0,0:0:0:0:
310,157,52468,1,0,0:0:0:0:
310,157,52530,1,8,0:0:0:0:
310,157,52593,1,0,0:0:0:0:
310,157,52655,1,0,0:0:0:0:
310,157,52718,1,8,0:0:0:0:
363,190,52780,1,0,0:0:0:0:
270,134,52843,1,8,0:0:0:0:
310,157,52968,1,0,0:0:0:0:
396,199,53093,1,8,0:0:0:0:
260,159,53218,1,0,0:0:0:0:
260,159,53280,1,8,0:0:0:0:
260,159,53343,1,0,0:0:0:0:
260,159,53468,1,8,0:0:0:0:
260,159,53593,1,4,0:0:0:0:
260,159,53718,1,4,0:0:0:0:
288,189,53843,1,4,0:0:0:0:
288,189,53968,1,4,0:0:0:0:
288,189,54093,1,8,0:0:0:0:
288,189,54218,1,0,0:0:0:0:
288,189,54280,1,8,0:0:0:0:
288,189,54343,1,0,0:0:0:0:
288,189,54468,1,8,0:0:0:0:
288,189,54593,1,4,0:0:0:0:
288,189,54718,1,4,0:0:0:0:
288,189,54843,1,4,0:0:0:0:
288,189,54968,1,4,0:0:0:0:
288,189,55093,1,8,0:0:0:0:
345,185,55155,1,8,0:0:0:0:
345,185,55218,1,0,0:0:0:0:
345,185,55280,1,8,0:0:0:0:
345,185,55343,1,0,0:0:0:0:
345,185,55405,1,0,0:0:0:0:
345,185,55468,1,8,0:0:0:0:
345,185,55593,1,8,0:0:0:0:
287,197,55655,1,8,0:0:0:0:
287,197,55718,1,0,0:0:0:0:
287,197,55780,1,8,0:0:0:0:
287,197,55843,1,0,0:0:0:0:
292,198,55905,1,0,0:0:0:0:
292,198,55968,1,8,0:0:0:0:
292,198,56030,1,8,0:0:0:0:
292,198,56093,1,0,0:0:0:0:
304,191,56343,1,0,0:0:0:0:
304,191,56468,1,0,0:0:0:0:
263,172,56593,1,8,0:0:0:0:
263,172,56655,1,8,0:0:0:0:
263,172,56718,1,0,0:0:0:0:
263,172,56780,1,0,0:0:0:0:
263,172,56843,1,8,0:0:0:0:
263,172,56968,1,8,0:0:0:0:
263,172,57093,1,4,0:0:0:0:
269,195,57218,1,0,0:0:0:0:
297,206,57280,1,8,0:0:0:0:
269,195,57343,1,0,0:0:0:0:
269,195,57468,1,8,0:0:0:0:
269,195,57593,1,0,0:0:0:0:
320,196,57655,1,0,0:0:0:0:
269,195,57718,1,8,0:0:0:0:
320,196,57780,1,0,0:0:0:0:
269,195,57843,1,0,0:0:0:0:
269,195,57968,1,8,0:0:0:0:
269,195,58093,1,0,0:0:0:0:
269,195,58218,1,0,0:0:0:0:
281,185,58280,1,8,0:0:0:0:
269,195,58343,1,0,0:0:0:0:
269,195,58468,1,8,0:0:0:0:
269,195,58593,1,0,0:0:0:0:
269,195,58655,1,8,0:0:0:0:
269,195,58718,1,0,0:0:0:0:
269,195,58780,1,8,0:0:0:0:
269,195,58843,1,0,0:0:0:0:
269,195,58968,1,8,0:0:0:0:
269,195,59093,1,4,0:0:0:0:
264,224,59218,1,0,0:0:0:0:
296,193,59280,1,8,0:0:0:0:
269,223,59343,1,0,0:0:0:0:
269,223,59468,1,8,0:0:0:0:
269,223,59593,1,0,0:0:0:0:
276,204,59655,1,0,0:0:0:0:
269,223,59718,1,8,0:0:0:0:
276,204,59780,1,0,0:0:0:0:
269,223,59843,1,0,0:0:0:0:
269,223,59968,1,8,0:0:0:0:
269,223,60093,1,0,0:0:0:0:
269,223,60218,1,8,0:0:0:0:
269,223,60280,1,8,0:0:0:0:
269,223,60343,1,0,0:0:0:0:
339,153,60405,1,8,0:0:0:0:
269,223,60468,1,0,0:0:0:0:
331,175,60530,1,0,0:0:0:0:
269,223,60593,1,8,0:0:0:0:
292,169,60718,1,0,0:0:0:0:
269,223,60780,1,0,0:0:0:0:
401,180,60843,1,8,0:0:0:0:
297,124,60968,1,8,0:0:0:0:
269,223,61093,1,4,0:0:0:0:
269,223,61218,1,0,0:0:0:0:
342,149,61280,1,8,0:0:0:0:
269,223,61343,1,0,0:0:0:0:
269,223,61468,1,8,0:0:0:0:
269,223,61593,1,0,0:0:0:0:
310,164,61655,1,0,0:0:0:0:
269,223,61718,1,8,0:0:0:0:
300,181,61780,1,0,0:0:0:0:
269,223,61843,1,0,0:0:0:0:
269,223,61968,1,8,0:0:0:0:
269,223,62093,1,0,0:0:0:0:
269,223,62218,1,0,0:0:0:0:
330,196,62280,1,8,0:0:0:0:
269,223,62343,1,0,0:0:0:0:
269,223,62468,1,8,0:0:0:0:
286,218,62593,1,0,0:0:0:0:
286,218,62655,1,8,0:0:0:0:
286,218,62718,1,0,0:0:0:0:
319,199,62780,1,8,0:0:0:0:
286,218,62843,1,0,0:0:0:0:
286,218,62968,1,8,0:0:0:0:
286,218,63093,1,4,0:0:0:0:
286,218,63218,1,0,0:0:0:0:
303,171,63280,1,8,0:0:0:0:
286,218,63343,1,0,0:0:0:0:
286,218,63468,1,8,0:0:0:0:
286,218,63593,1,0,0:0:0:0:
282,157,63655,1,0,0:0:0:0:
286,218,63718,1,8,0:0:0:0:
304,210,63780,1,0,0:0:0:0:
286,218,63843,1,0,0:0:0:0:
286,218,63968,1,8,0:0:0:0:
286,218,64093,1,0,0:0:0:0:
286,218,64218,1,8,0:0:0:0:
286,218,64280,1,8,0:0:0:0:
286,218,64343,1,0,0:0:0:0:
286,218,64405,1,8,0:0:0:0:
286,218,64468,1,0,0:0:0:0:
286,218,64530,1,0,0:0:0:0:
286,218,64593,1,8,0:0:0:0:
305,199,64718,1,0,0:0:0:0:
371,218,64780,1,0,0:0:0:0:
311,197,64843,1,8,0:0:0:0:
372,181,64905,1,8,0:0:0:0:
313,197,64968,1,0,0:0:0:0:
311,197,65093,1,4,0:0:0:0:
313,197,65218,1,0,0:0:0:0:
330,183,65280,1,8,0:0:0:0:
311,197,65343,1,0,0:0:0:0:
313,197,65468,1,8,0:0:0:0:
313,197,65593,1,0,0:0:0:0:
319,180,65655,1,0,0:0:0:0:
313,197,65718,1,8,0:0:0:0:
319,180,65780,1,0,0:0:0:0:
313,197,65843,1,0,0:0:0:0:
313,197,65968,1,8,0:0:0:0:
313,197,66093,1,0,0:0:0:0:
313,197,66218,1,0,0:0:0:0:
319,180,66280,1,8,0:0:0:0:
313,197,66343,1,0,0:0:0:0:
313,197,66468,1,8,0:0:0:0:
313,197,66593,1,0,0:0:0:0:
313,197,66655,1,0,0:0:0:0:
313,197,66718,1,8,0:0:0:0:
313,197,66780,1,8,0:0:0:0:
313,197,66843,1,0,0:0:0:0:
365,201,66905,1,0,0:0:0:0:
313,197,66968,1,8,0:0:0:0:
313,197,67093,1,4,0:0:0:0:
317,197,67218,1,0,0:0:0:0:
326,196,67280,1,8,0:0:0:0:
317,197,67343,1,0,0:0:0:0:
317,197,67468,1,8,0:0:0:0:
317,197,67593,1,0,0:0:0:0:
299,211,67655,1,0,0:0:0:0:
317,197,67718,1,8,0:0:0:0:
289,210,67780,1,0,0:0:0:0:
317,197,67843,1,0,0:0:0:0:
317,197,67968,1,8,0:0:0:0:
317,197,68093,1,0,0:0:0:0:
323,129,68218,1,8,0:0:0:0:
317,197,68280,1,8,0:0:0:0:
317,197,68343,1,0,0:0:0:0:
295,137,68405,1,8,0:0:0:0:
317,197,68468,1,0,0:0:0:0:
317,197,68530,1,0,0:0:0:0:
317,197,68593,1,8,0:0:0:0:
317,197,68718,1,0,0:0:0:0:
305,167,68780,1,0,0:0:0:0:
317,197,68843,1,8,0:0:0:0:
317,197,68968,1,8,0:0:0:0:
317,197,69093,1,4,0:0:0:0:
317,197,69218,1,0,0:0:0:0:
355,218,69280,1,8,0:0:0:0:
317,197,69343,1,0,0:0:0:0:
317,197,69468,1,8,0:0:0:0:
317,197,69593,1,0,0:0:0:0:
317,197,69655,1,0,0:0:0:0:
317,197,69718,1,8,0:0:0:0:
317,187,69780,1,0,0:0:0:0:
317,197,69843,1,0,0:0:0:0:
355,218,69968,1,8,0:0:0:0:
317,197,70093,1,0,0:0:0:0:
317,197,70218,1,0,0:0:0:0:
291,203,70280,1,8,0:0:0:0:
317,197,70343,1,0,0:0:0:0:
317,197,70468,1,8,0:0:0:0:
317,197,70593,1,0,0:0:0:0:
389,179,70655,1,0,0:0:0:0:
317,197,70718,1,8,0:0:0:0:
317,197,70780,1,8,0:0:0:0:
317,197,70843,1,0,0:0:0:0:
287,157,70905,1,0,0:0:0:0:
317,197,70968,1,8,0:0:0:0:
317,197,71093,1,4,0:0:0:0:
317,197,71218,1,0,0:0:0:0:
296,196,71280,1,8,0:0:0:0:
317,197,71343,1,0,0:0:0:0:
317,197,71468,1,8,0:0:0:0:
317,197,71593,1,0,0:0:0:0:
344,186,71655,1,0,0:0:0:0:
317,197,71718,1,8,0:0:0:0:
294,200,71780,1,0,0:0:0:0:
317,197,71843,1,0,0:0:0:0:
317,197,71968,1,8,0:0:0:0:
317,197,72093,1,0,0:0:0:0:
317,197,72218,1,8,0:0:0:0:
317,197,72280,1,8,0:0:0:0:
317,197,72343,1,0,0:0:0:0:
317,197,72405,1,8,0:0:0:0:
317,197,72468,1,0,0:0:0:0:
317,197,72530,1,0,0:0:0:0:
317,197,72593,1,8,0:0:0:0:
317,197,72718,1,0,0:0:0:0:
295,160,72780,1,0,0:0:0:0:
317,197,72843,1,8,0:0:0:0:
340,191,72905,1,8,0:0:0:0:
317,197,72968,1,0,0:0:0:0:
317,197,73093,1,4,0:0:0:0:
