osu file format v14

[General]
AudioFilename: audio.mp3
AudioLeadIn: 0
PreviewTime: 40977
Countdown: 1
SampleSet: Normal
StackLeniency: 0.7
Mode: 1
LetterboxInBreaks: 0
WidescreenStoryboard: 1

[Editor]
Bookmarks: 1102,9093,25102,41102,56343,60968
DistanceSpacing: 2
BeatDivisor: 4
GridSize: 8
TimelineZoom: 3.699998

[Metadata]
Title:373
TitleUnicode:373
Artist:Banana Shone
ArtistUnicode:Banana Shone
Creator:-Kriston-
Version:Inner Oni
Source:
Tags:touhou anime speedcore 東方地霊殿 Subterranean Animism komeiji satori ShONe
BeatmapID:2064643
BeatmapSetID:986988

[Difficulty]
HPDrainRate:5.5
CircleSize:5
OverallDifficulty:6.5
ApproachRate:5
SliderMultiplier:1.4
SliderTickRate:2

[Events]
//Background and Video events
0,0,"touhhou.jpg",0,0
//Break Periods
//Storyboard Layer 0 (Background)
//Storyboard Layer 1 (Fail)
//Storyboard Layer 2 (Pass)
//Storyboard Layer 3 (Foreground)
//Storyboard Sound Samples

[TimingPoints]
1093,250,4,1,0,65,1,0
24468,-98.0392156862745,4,1,0,65,0,0
24530,-96.1538461538461,4,1,0,65,0,0
24593,-94.3396226415094,4,1,0,65,0,0
24655,-92.5925925925926,4,1,0,65,0,0
24718,-90.9090909090909,4,1,0,65,0,0
24780,-89.2857142857143,4,1,0,65,0,0
24843,-87.719298245614,4,1,0,65,0,0
24905,-86.2068965517241,4,1,0,65,0,0
24968,-83.3333333333333,4,1,0,65,0,0
25030,-81.9672131147541,4,1,0,65,0,0
25093,-80.6451612903226,4,1,0,65,0,0
25593,-125,4,1,0,50,0,0
37093,-121.951219512195,4,1,0,55,0,0
38093,-119.047619047619,4,1,0,58,0,0
39093,-116.279069767442,4,1,0,60,0,0
40093,-111.111111111111,4,1,0,65,0,0
40468,-107.52688172043,4,1,0,65,0,0
40843,-104.166666666667,4,1,0,65,0,0
41093,-100,4,1,0,65,0,0
56968,-97.0873786407767,4,1,0,65,0,0
57093,-95.2380952380952,4,1,0,65,0,1
59093,-93.4579439252336,4,1,0,65,0,1
61093,-92.5925925925926,4,1,0,65,0,1
63093,-90.9090909090909,4,1,0,65,0,1
65093,-89.2857142857143,4,1,0,65,0,1
67093,-87.719298245614,4,1,0,65,0,1
69093,-86.2068965517241,4,1,0,65,0,1
71093,-84.7457627118644,4,1,0,65,0,1
73093,-83.3333333333333,4,1,0,65,0,0

[HitObjects]
230,155,1093,5,0,0:0:0:0:
230,155,1343,1,0,0:0:0:0:
230,155,1468,1,0,0:0:0:0:
230,155,1530,1,0,0:0:0:0:
230,155,1593,1,8,0:0:0:0:
230,155,1718,1,8,0:0:0:0:
230,155,1843,1,0,0:0:0:0:
230,155,1968,1,8,0:0:0:0:
230,155,2093,1,0,0:0:0:0:
230,155,2218,1,0,0:0:0:0:
230,155,2343,1,8,0:0:0:0:
230,155,2468,1,8,0:0:0:0:
230,155,2593,1,0,0:0:0:0:
230,155,2843,1,8,0:0:0:0:
230,155,2968,1,8,0:0:0:0:
230,155,3093,1,0,0:0:0:0:
230,155,3218,1,8,0:0:0:0:
230,155,3343,1,0,0:0:0:0:
230,155,3468,1,8,0:0:0:0:
230,155,3593,1,8,0:0:0:0:
230,155,3655,1,8,0:0:0:0:
230,155,3718,1,8,0:0:0:0:
230,155,3780,1,8,0:0:0:0:
230,155,3843,1,0,0:0:0:0:
230,155,3968,1,0,0:0:0:0:
230,155,4093,1,0,0:0:0:0:
325,159,4343,1,0,0:0:0:0:
325,159,4468,1,0,0:0:0:0:
325,159,4530,1,0,0:0:0:0:
325,159,4593,1,8,0:0:0:0:
294,191,4718,1,0,0:0:0:0:
294,191,4780,1,8,0:0:0:0:
294,191,4843,1,0,0:0:0:0:
294,191,4968,1,0,0:0:0:0:
294,191,5093,1,4,0:0:0:0:
296,189,5343,1,0,0:0:0:0:
296,189,5468,1,0,0:0:0:0:
296,189,5530,1,0,0:0:0:0:
296,189,5593,1,8,0:0:0:0:
296,189,5718,1,8,0:0:0:0:
296,189,5843,1,0,0:0:0:0:
296,189,5968,1,8,0:0:0:0:
296,189,6093,1,4,0:0:0:0:
296,189,6218,1,0,0:0:0:0:
296,189,6343,1,8,0:0:0:0:
296,189,6468,1,8,0:0:0:0:
296,189,6593,1,0,0:0:0:0:
235,188,6718,1,8,0:0:0:0:
296,189,6843,1,0,0:0:0:0:
296,189,6968,1,8,0:0:0:0:
296,189,7093,1,4,0:0:0:0:
298,202,7218,1,0,0:0:0:0:
296,189,7343,1,8,0:0:0:0:
310,189,7468,1,8,0:0:0:0:
310,189,7593,1,4,0:0:0:0:
300,202,7718,1,0,0:0:0:0:
310,189,7843,1,8,0:0:0:0:
310,189,7905,1,8,0:0:0:0:
310,189,7968,1,8,0:0:0:0:
310,189,8030,1,8,0:0:0:0:
310,189,8093,1,4,0:0:0:0:
310,189,8343,1,4,0:0:0:0:
310,189,8593,1,4,0:0:0:0:
306,203,8718,1,8,0:0:0:0:
306,203,8843,1,8,0:0:0:0:
306,203,8905,1,8,0:0:0:0:
306,203,8968,1,8,0:0:0:0:
306,203,9030,1,8,0:0:0:0:
306,203,9093,1,4,0:0:0:0:
291,181,9218,1,0,0:0:0:0:
336,186,9343,1,0,0:0:0:0:
336,186,9468,1,0,0:0:0:0:
317,180,9530,1,0,0:0:0:0:
336,186,9593,1,8,0:0:0:0:
336,186,9718,1,0,0:0:0:0:
325,178,9780,1,0,0:0:0:0:
336,186,9843,1,8,0:0:0:0:
336,186,9968,1,0,0:0:0:0:
336,186,10093,1,0,0:0:0:0:
336,186,10218,1,0,0:0:0:0:
321,149,10280,1,0,0:0:0:0:
336,186,10343,1,8,0:0:0:0:
336,186,10468,1,0,0:0:0:0:
336,186,10593,1,0,0:0:0:0:
342,218,10655,1,0,0:0:0:0:
317,180,10718,1,0,0:0:0:0:
342,218,10780,1,0,0:0:0:0:
317,180,10843,1,8,0:0:0:0:
317,180,10968,1,8,0:0:0:0:
360,183,11030,1,8,0:0:0:0:
317,180,11093,1,0,0:0:0:0:
329,198,11218,1,0,0:0:0:0:
386,229,11343,1,8,0:0:0:0:
348,213,11405,1,8,0:0:0:0:
386,229,11468,1,8,0:0:0:0:
347,201,11593,1,0,0:0:0:0:
347,201,11655,1,0,0:0:0:0:
347,201,11718,1,0,0:0:0:0:
347,201,11780,1,0,0:0:0:0:
347,201,11843,1,8,0:0:0:0:
353,172,11968,1,8,0:0:0:0:
347,201,12093,1,0,0:0:0:0:
346,180,12343,1,0,0:0:0:0:
346,180,12468,1,0,0:0:0:0:
346,180,12530,1,0,0:0:0:0:
346,180,12593,1,8,0:0:0:0:
346,180,12718,1,0,0:0:0:0:
346,180,12780,1,8,0:0:0:0:
346,180,12843,1,0,0:0:0:0:
346,180,12968,1,0,0:0:0:0:
306,191,13093,1,4,0:0:0:0:
341,197,13343,1,0,0:0:0:0:
341,197,13468,1,0,0:0:0:0:
341,197,13530,1,0,0:0:0:0:
341,197,13593,1,8,0:0:0:0:
341,197,13718,1,0,0:0:0:0:
341,197,13780,1,0,0:0:0:0:
341,197,13843,1,8,0:0:0:0:
341,197,13968,1,0,0:0:0:0:
341,197,14093,1,0,0:0:0:0:
341,197,14218,1,0,0:0:0:0:
341,197,14280,1,0,0:0:0:0:
341,197,14343,1,8,0:0:0:0:
341,197,14405,1,8,0:0:0:0:
325,172,14468,1,0,0:0:0:0:
325,172,14593,1,8,0:0:0:0:
310,148,14718,1,8,0:0:0:0:
310,148,14843,1,8,0:0:0:0:
310,148,14968,1,8,0:0:0:0:
334,184,15093,1,0,0:0:0:0:
345,208,15218,1,8,0:0:0:0:
345,208,15343,1,0,0:0:0:0:
345,208,15468,1,8,0:0:0:0:
345,208,15593,1,0,0:0:0:0:
345,208,15718,1,8,0:0:0:0:
345,208,15843,1,0,0:0:0:0:
345,208,15905,1,8,0:0:0:0:
345,208,15968,1,0,0:0:0:0:
345,208,16030,1,8,0:0:0:0:
345,208,16093,1,0,0:0:0:0:
274,190,16218,1,8,0:0:0:0:
345,208,16343,1,0,0:0:0:0:
388,200,16468,1,8,0:0:0:0:
365,232,16593,1,0,0:0:0:0:
365,232,16718,1,8,0:0:0:0:
365,232,16843,1,8,0:0:0:0:
365,232,16905,1,8,0:0:0:0:
365,232,16968,1,8,0:0:0:0:
365,232,17030,1,8,0:0:0:0:
365,232,17093,1,4,0:0:0:0:
246,144,17218,1,0,0:0:0:0:
336,186,17343,1,0,0:0:0:0:
336,186,17468,1,0,0:0:0:0:
317,180,17530,1,0,0:0:0:0:
336,186,17593,1,8,0:0:0:0:
336,186,17718,1,0,0:0:0:0:
325,178,17780,1,0,0:0:0:0:
336,186,17843,1,8,0:0:0:0:
336,186,17968,1,0,0:0:0:0:
336,186,18093,1,0,0:0:0:0:
336,186,18218,1,0,0:0:0:0:
321,149,18280,1,0,0:0:0:0:
336,186,18343,1,8,0:0:0:0:
336,186,18468,1,0,0:0:0:0:
336,186,18593,1,0,0:0:0:0:
342,218,18655,1,0,0:0:0:0:
317,180,18718,1,0,0:0:0:0:
342,218,18780,1,0,0:0:0:0:
317,180,18843,1,8,0:0:0:0:
317,180,18968,1,8,0:0:0:0:
360,183,19030,1,8,0:0:0:0:
317,180,19093,1,0,0:0:0:0:
329,198,19218,1,0,0:0:0:0:
386,229,19343,1,8,0:0:0:0:
289,197,19405,1,8,0:0:0:0:
386,229,19468,1,8,0:0:0:0:
347,201,19593,1,0,0:0:0:0:
347,201,19655,1,0,0:0:0:0:
347,201,19718,1,0,0:0:0:0:
347,201,19780,1,0,0:0:0:0:
347,201,19843,1,8,0:0:0:0:
347,201,19968,1,8,0:0:0:0:
347,201,20093,1,0,0:0:0:0:
346,180,20343,1,0,0:0:0:0:
346,180,20468,1,0,0:0:0:0:
346,180,20530,1,0,0:0:0:0:
346,180,20593,1,8,0:0:0:0:
346,180,20718,1,0,0:0:0:0:
346,180,20780,1,8,0:0:0:0:
346,180,20843,1,0,0:0:0:0:
346,180,20968,1,0,0:0:0:0:
306,191,21093,1,4,0:0:0:0:
341,197,21343,1,0,0:0:0:0:
341,197,21468,1,0,0:0:0:0:
341,197,21530,1,0,0:0:0:0:
341,197,21593,1,8,0:0:0:0:
341,197,21718,1,0,0:0:0:0:
341,197,21780,1,0,0:0:0:0:
341,197,21843,1,8,0:0:0:0:
341,197,21968,1,8,0:0:0:0:
320,142,22093,1,0,0:0:0:0:
414,188,22155,1,0,0:0:0:0:
341,197,22218,1,0,0:0:0:0:
341,197,22280,1,0,0:0:0:0:
341,197,22343,1,8,0:0:0:0:
325,172,22468,1,8,0:0:0:0:
325,172,22593,1,0,0:0:0:0:
307,210,22655,1,0,0:0:0:0:
310,148,22718,1,0,0:0:0:0:
332,208,22780,1,0,0:0:0:0:
310,148,22843,1,8,0:0:0:0:
310,148,22968,1,8,0:0:0:0:
334,184,23093,1,0,0:0:0:0:
345,208,23218,1,8,0:0:0:0:
345,208,23343,1,0,0:0:0:0:
345,208,23468,1,8,0:0:0:0:
345,208,23593,1,0,0:0:0:0:
345,208,23718,1,8,0:0:0:0:
345,208,23843,1,0,0:0:0:0:
345,208,23905,1,8,0:0:0:0:
345,208,23968,1,0,0:0:0:0:
345,208,24030,1,8,0:0:0:0:
345,208,24093,1,0,0:0:0:0:
274,190,24218,1,8,0:0:0:0:
345,208,24343,1,0,0:0:0:0:
388,200,24468,1,8,0:0:0:0:
358,237,24530,1,8,0:0:0:0:
365,232,24593,1,0,0:0:0:0:
358,237,24655,1,0,0:0:0:0:
365,232,24718,1,8,0:0:0:0:
358,237,24780,1,0,0:0:0:0:
365,232,24843,1,8,0:0:0:0:
365,232,24905,1,0,0:0:0:0:
365,232,24968,1,8,0:0:0:0:
365,232,25030,1,8,0:0:0:0:
365,232,25093,1,0,0:0:0:0:
364,205,25593,1,8,0:0:0:0:
364,205,26093,1,8,0:0:0:0:
364,205,26843,1,0,0:0:0:0:
364,205,26968,1,0,0:0:0:0:
364,205,27093,1,8,0:0:0:0:
364,205,27343,1,8,0:0:0:0:
364,205,27468,1,8,0:0:0:0:
364,205,27593,1,0,0:0:0:0:
305,178,27843,1,0,0:0:0:0:
305,178,28093,1,8,0:0:0:0:
305,178,28343,1,0,0:0:0:0:
305,178,28593,1,8,0:0:0:0:
305,178,28843,1,8,0:0:0:0:
305,178,29093,1,0,0:0:0:0:
305,178,29343,1,0,0:0:0:0:
305,178,29468,1,8,0:0:0:0:
305,178,29843,1,8,0:0:0:0:
305,178,30093,1,0,0:0:0:0:
305,178,30343,1,0,0:0:0:0:
305,178,30468,1,8,0:0:0:0:
305,178,30843,1,8,0:0:0:0:
305,178,31093,1,0,0:0:0:0:
305,178,31343,1,0,0:0:0:0:
305,178,31593,1,8,0:0:0:0:
305,178,31843,1,8,0:0:0:0:
305,178,32093,1,0,0:0:0:0:
305,178,32468,1,8,0:0:0:0:
305,178,32843,1,8,0:0:0:0:
305,178,33093,1,0,0:0:0:0:
305,178,33593,1,8,0:0:0:0:
305,178,34093,1,8,0:0:0:0:
305,178,34843,1,0,0:0:0:0:
305,178,34968,1,0,0:0:0:0:
305,178,35093,1,8,0:0:0:0:
305,178,35343,1,8,0:0:0:0:
305,178,35468,1,8,0:0:0:0:
305,178,35593,1,0,0:0:0:0:
305,178,35843,1,0,0:0:0:0:
305,178,36093,1,8,0:0:0:0:
305,178,36343,1,0,0:0:0:0:
305,178,36593,1,8,0:0:0:0:
296,175,36843,1,8,0:0:0:0:
289,177,37093,1,0,0:0:0:0:
299,175,37343,1,0,0:0:0:0:
299,175,37468,1,8,0:0:0:0:
307,189,37843,1,8,0:0:0:0:
307,189,38093,1,0,0:0:0:0:
307,189,38343,1,0,0:0:0:0:
307,189,38468,1,8,0:0:0:0:
311,187,38843,1,8,0:0:0:0:
311,187,39093,1,0,0:0:0:0:
311,187,39343,1,8,0:0:0:0:
311,187,39593,1,8,0:0:0:0:
311,187,39843,1,8,0:0:0:0:
311,187,40093,1,4,0:0:0:0:
311,187,40468,1,12,0:0:0:0:
311,187,40843,1,12,0:0:0:0:
311,187,41093,1,4,0:0:0:0:
311,187,41218,1,0,0:0:0:0:
346,161,41280,1,0,0:0:0:0:
311,187,41343,1,8,0:0:0:0:
311,187,41468,1,0,0:0:0:0:
341,174,41530,1,0,0:0:0:0:
311,187,41593,1,0,0:0:0:0:
311,187,41718,1,0,0:0:0:0:
348,158,41780,1,0,0:0:0:0:
311,187,41843,1,8,0:0:0:0:
311,187,41968,1,0,0:0:0:0:
341,172,42030,1,0,0:0:0:0:
311,187,42093,1,0,0:0:0:0:
346,156,42218,1,0,0:0:0:0:
344,151,42280,1,0,0:0:0:0:
311,187,42343,1,8,0:0:0:0:
311,187,42468,1,0,0:0:0:0:
346,156,42530,1,0,0:0:0:0:
311,187,42593,1,8,0:0:0:0:
311,187,42655,1,8,0:0:0:0:
311,187,42718,1,0,0:0:0:0:
350,188,42780,1,0,0:0:0:0:
302,188,42843,1,8,0:0:0:0:
334,153,42968,1,8,0:0:0:0:
364,203,43093,1,0,0:0:0:0:
343,217,43155,1,0,0:0:0:0:
334,215,43218,1,8,0:0:0:0:
343,217,43280,1,8,0:0:0:0:
343,217,43343,1,0,0:0:0:0:
334,215,43468,1,8,0:0:0:0:
334,215,43593,1,0,0:0:0:0:
334,215,43655,1,8,0:0:0:0:
334,215,43718,1,0,0:0:0:0:
334,215,43780,1,8,0:0:0:0:
334,215,43843,1,0,0:0:0:0:
339,206,43968,1,8,0:0:0:0:
339,206,44093,1,0,0:0:0:0:
319,204,44155,1,0,0:0:0:0:
319,204,44218,1,8,0:0:0:0:
383,164,44280,1,8,0:0:0:0:
319,204,44343,1,0,0:0:0:0:
319,204,44405,1,0,0:0:0:0:
319,204,44468,1,8,0:0:0:0:
383,164,44530,1,8,0:0:0:0:
319,204,44593,1,0,0:0:0:0:
319,204,44718,1,8,0:0:0:0:
319,204,44843,1,8,0:0:0:0:
319,204,44905,1,8,0:0:0:0:
348,192,44968,1,8,0:0:0:0:
296,160,45030,1,8,0:0:0:0:
319,204,45093,1,0,0:0:0:0:
384,213,45218,1,8,0:0:0:0:
384,213,45280,1,8,0:0:0:0:
384,213,45343,1,0,0:0:0:0:
429,238,45468,1,8,0:0:0:0:
419,229,45593,1,4,0:0:0:0:
419,229,45718,1,4,0:0:0:0:
419,229,45843,1,4,0:0:0:0:
419,229,45968,1,4,0:0:0:0:
419,229,46093,1,8,0:0:0:0:
410,227,46218,1,8,0:0:0:0:
410,227,46280,1,8,0:0:0:0:
410,227,46343,1,0,0:0:0:0:
410,227,46468,1,8,0:0:0:0:
328,199,46593,1,4,0:0:0:0:
328,199,46718,1,4,0:0:0:0:
328,199,46843,1,4,0:0:0:0:
328,199,46968,1,4,0:0:0:0:
368,171,47093,1,8,0:0:0:0:
368,171,47155,1,8,0:0:0:0:
368,171,47218,1,8,0:0:0:0:
296,170,47280,1,0,0:0:0:0:
368,171,47343,1,8,0:0:0:0:
368,171,47468,1,0,0:0:0:0:
368,171,47593,1,8,0:0:0:0:
368,171,47718,1,0,0:0:0:0:
368,171,47843,1,8,0:0:0:0:
368,171,47905,1,8,0:0:0:0:
368,171,47968,1,8,0:0:0:0:
343,151,48030,1,8,0:0:0:0:
338,148,48093,1,0,0:0:0:0:
326,172,48343,1,0,0:0:0:0:
326,172,48468,1,0,0:0:0:0:
326,172,48593,1,8,0:0:0:0:
326,172,48655,1,8,0:0:0:0:
326,172,48718,1,8,0:0:0:0:
326,172,48780,1,8,0:0:0:0:
333,180,48843,1,8,0:0:0:0:
241,178,48968,1,8,0:0:0:0:
311,187,49093,1,4,0:0:0:0:
311,187,49218,1,0,0:0:0:0:
346,161,49280,1,0,0:0:0:0:
311,187,49343,1,8,0:0:0:0:
311,187,49468,1,0,0:0:0:0:
341,174,49530,1,0,0:0:0:0:
311,187,49593,1,0,0:0:0:0:
311,187,49718,1,0,0:0:0:0:
348,158,49780,1,0,0:0:0:0:
311,187,49843,1,8,0:0:0:0:
311,187,49968,1,0,0:0:0:0:
341,172,50030,1,0,0:0:0:0:
311,187,50093,1,0,0:0:0:0:
346,156,50218,1,0,0:0:0:0:
344,151,50280,1,0,0:0:0:0:
311,187,50343,1,8,0:0:0:0:
311,187,50468,1,0,0:0:0:0:
346,156,50530,1,0,0:0:0:0:
311,187,50593,1,8,0:0:0:0:
311,187,50655,1,8,0:0:0:0:
311,187,50718,1,0,0:0:0:0:
302,188,50843,1,8,0:0:0:0:
334,153,50968,1,8,0:0:0:0:
364,203,51093,1,0,0:0:0:0:
343,217,51155,1,0,0:0:0:0:
334,215,51218,1,0,0:0:0:0:
343,217,51280,1,0,0:0:0:0:
343,217,51343,1,8,0:0:0:0:
334,215,51468,1,8,0:0:0:0:
334,215,51593,1,0,0:0:0:0:
334,215,51655,1,0,0:0:0:0:
334,215,51718,1,0,0:0:0:0:
334,215,51780,1,8,0:0:0:0:
334,215,51843,1,0,0:0:0:0:
339,206,51968,1,8,0:0:0:0:
339,206,52093,1,0,0:0:0:0:
319,204,52155,1,8,0:0:0:0:
319,204,52218,1,0,0:0:0:0:
383,164,52280,1,8,0:0:0:0:
319,204,52343,1,0,0:0:0:0:
319,204,52468,1,8,0:0:0:0:
319,204,52593,1,0,0:0:0:0:
323,180,52655,1,0,0:0:0:0:
319,204,52718,1,8,0:0:0:0:
337,196,52780,1,8,0:0:0:0:
319,204,52843,1,0,0:0:0:0:
323,191,52905,1,0,0:0:0:0:
348,192,52968,1,8,0:0:0:0:
352,173,53030,1,8,0:0:0:0:
319,204,53093,1,0,0:0:0:0:
350,205,53218,1,8,0:0:0:0:
350,205,53280,1,8,0:0:0:0:
350,205,53343,1,0,0:0:0:0:
275,171,53468,1,8,0:0:0:0:
247,131,53593,1,4,0:0:0:0:
247,131,53718,1,4,0:0:0:0:
247,131,53843,1,4,0:0:0:0:
247,131,53968,1,4,0:0:0:0:
290,208,54093,1,8,0:0:0:0:
324,178,54218,1,8,0:0:0:0:
324,178,54280,1,8,0:0:0:0:
324,178,54343,1,0,0:0:0:0:
324,178,54468,1,8,0:0:0:0:
247,131,54593,1,4,0:0:0:0:
247,131,54718,1,4,0:0:0:0:
247,131,54843,1,4,0:0:0:0:
247,131,54968,1,4,0:0:0:0:
271,196,55093,1,8,0:0:0:0:
271,196,55218,1,0,0:0:0:0:
271,196,55280,1,0,0:0:0:0:
271,196,55343,1,8,0:0:0:0:
271,196,55405,1,8,0:0:0:0:
271,196,55468,1,0,0:0:0:0:
345,167,55530,1,8,0:0:0:0:
271,196,55593,1,0,0:0:0:0:
271,196,55655,1,0,0:0:0:0:
271,196,55718,1,8,0:0:0:0:
271,196,55780,1,0,0:0:0:0:
271,196,55843,1,8,0:0:0:0:
341,175,55905,1,8,0:0:0:0:
271,196,55968,1,8,0:0:0:0:
317,167,56030,1,8,0:0:0:0:
271,196,56093,1,0,0:0:0:0:
271,196,56343,1,0,0:0:0:0:
281,202,56468,1,0,0:0:0:0:
281,202,56593,1,8,0:0:0:0:
281,202,56655,1,8,0:0:0:0:
281,202,56718,1,8,0:0:0:0:
281,202,56780,1,8,0:0:0:0:
281,202,56843,1,8,0:0:0:0:
281,202,56968,1,8,0:0:0:0:
281,202,57093,1,4,0:0:0:0:
290,207,57218,1,8,0:0:0:0:
290,207,57343,1,0,0:0:0:0:
290,207,57468,1,8,0:0:0:0:
290,207,57593,1,0,0:0:0:0:
290,207,57718,1,8,0:0:0:0:
290,207,57843,1,0,0:0:0:0:
291,215,57968,1,8,0:0:0:0:
291,215,58093,1,0,0:0:0:0:
285,211,58218,1,8,0:0:0:0:
285,211,58343,1,0,0:0:0:0:
302,171,58468,1,8,0:0:0:0:
302,171,58593,1,0,0:0:0:0:
359,203,58655,1,0,0:0:0:0:
302,171,58718,1,0,0:0:0:0:
302,171,58780,1,8,0:0:0:0:
302,171,58843,1,0,0:0:0:0:
302,171,58968,1,8,0:0:0:0:
302,171,59093,1,4,0:0:0:0:
218,155,59218,1,8,0:0:0:0:
336,172,59343,1,0,0:0:0:0:
277,171,59468,1,8,0:0:0:0:
277,171,59593,1,0,0:0:0:0:
277,171,59718,1,8,0:0:0:0:
277,171,59843,1,0,0:0:0:0:
277,171,59968,1,8,0:0:0:0:
277,171,60093,1,0,0:0:0:0:
321,173,60155,1,0,0:0:0:0:
277,171,60218,1,0,0:0:0:0:
277,171,60280,1,8,0:0:0:0:
277,171,60343,1,0,0:0:0:0:
275,197,60405,1,0,0:0:0:0:
277,171,60468,1,8,0:0:0:0:
277,171,60530,1,0,0:0:0:0:
277,171,60593,1,8,0:0:0:0:
277,171,60655,1,8,0:0:0:0:
277,171,60718,1,8,0:0:0:0:
307,158,60780,1,8,0:0:0:0:
277,171,60843,1,0,0:0:0:0:
277,171,60968,1,8,0:0:0:0:
277,171,61093,1,4,0:0:0:0:
290,195,61218,1,8,0:0:0:0:
293,189,61343,1,0,0:0:0:0:
305,168,61468,1,8,0:0:0:0:
305,168,61593,1,0,0:0:0:0:
305,168,61718,1,8,0:0:0:0:
305,168,61843,1,0,0:0:0:0:
305,168,61968,1,8,0:0:0:0:
305,168,62093,1,0,0:0:0:0:
323,198,62218,1,8,0:0:0:0:
352,188,62343,1,0,0:0:0:0:
323,160,62468,1,8,0:0:0:0:
355,195,62593,1,0,0:0:0:0:
355,195,62655,1,0,0:0:0:0:
355,195,62718,1,0,0:0:0:0:
355,195,62780,1,8,0:0:0:0:
355,195,62843,1,0,0:0:0:0:
355,195,62968,1,8,0:0:0:0:
303,172,63093,1,4,0:0:0:0:
291,167,63218,1,8,0:0:0:0:
291,167,63343,1,0,0:0:0:0:
291,167,63468,1,8,0:0:0:0:
291,167,63593,1,0,0:0:0:0:
291,167,63718,1,8,0:0:0:0:
291,167,63843,1,0,0:0:0:0:
291,167,63968,1,8,0:0:0:0:
291,167,64093,1,0,0:0:0:0:
291,167,64218,1,8,0:0:0:0:
291,167,64343,1,0,0:0:0:0:
291,167,64405,1,0,0:0:0:0:
291,167,64468,1,8,0:0:0:0:
291,167,64530,1,8,0:0:0:0:
291,167,64593,1,0,0:0:0:0:
291,167,64718,1,8,0:0:0:0:
297,186,64780,1,8,0:0:0:0:
292,129,64843,1,0,0:0:0:0:
297,183,64905,1,0,0:0:0:0:
292,129,64968,1,8,0:0:0:0:
281,202,65093,1,4,0:0:0:0:
290,207,65218,1,8,0:0:0:0:
290,207,65343,1,0,0:0:0:0:
290,207,65468,1,8,0:0:0:0:
290,207,65593,1,0,0:0:0:0:
290,207,65718,1,8,0:0:0:0:
290,207,65843,1,0,0:0:0:0:
291,215,65968,1,8,0:0:0:0:
291,215,66093,1,0,0:0:0:0:
285,211,66218,1,8,0:0:0:0:
285,211,66343,1,0,0:0:0:0:
302,171,66468,1,8,0:0:0:0:
302,171,66593,1,0,0:0:0:0:
359,203,66655,1,0,0:0:0:0:
302,171,66718,1,0,0:0:0:0:
302,171,66780,1,8,0:0:0:0:
302,171,66843,1,0,0:0:0:0:
302,171,66968,1,8,0:0:0:0:
302,171,67093,1,4,0:0:0:0:
218,155,67218,1,8,0:0:0:0:
336,172,67343,1,0,0:0:0:0:
277,171,67468,1,8,0:0:0:0:
277,171,67593,1,0,0:0:0:0:
277,171,67718,1,8,0:0:0:0:
277,171,67843,1,0,0:0:0:0:
277,171,67968,1,8,0:0:0:0:
277,171,68093,1,0,0:0:0:0:
306,145,68155,1,0,0:0:0:0:
277,171,68218,1,0,0:0:0:0:
299,171,68280,1,8,0:0:0:0:
277,171,68343,1,0,0:0:0:0:
312,184,68405,1,0,0:0:0:0:
277,171,68468,1,8,0:0:0:0:
277,171,68530,1,0,0:0:0:0:
277,171,68593,1,8,0:0:0:0:
277,171,68655,1,8,0:0:0:0:
277,171,68718,1,8,0:0:0:0:
277,171,68780,1,8,0:0:0:0:
277,171,68843,1,0,0:0:0:0:
277,171,68968,1,8,0:0:0:0:
277,171,69093,1,4,0:0:0:0:
290,195,69218,1,8,0:0:0:0:
293,189,69343,1,0,0:0:0:0:
305,168,69468,1,8,0:0:0:0:
305,168,69593,1,0,0:0:0:0:
305,168,69718,1,8,0:0:0:0:
305,168,69843,1,0,0:0:0:0:
305,168,69968,1,8,0:0:0:0:
305,168,70093,1,0,0:0:0:0:
323,198,70218,1,8,0:0:0:0:
352,188,70343,1,0,0:0:0:0:
323,160,70468,1,8,0:0:0:0:
355,195,70593,1,0,0:0:0:0:
355,195,70655,1,0,0:0:0:0:
355,195,70718,1,0,0:0:0:0:
355,195,70780,1,8,0:0:0:0:
355,195,70843,1,0,0:0:0:0:
355,195,70968,1,8,0:0:0:0:
303,172,71093,1,4,0:0:0:0:
291,167,71218,1,8,0:0:0:0:
291,167,71343,1,0,0:0:0:0:
291,167,71468,1,8,0:0:0:0:
291,167,71593,1,0,0:0:0:0:
291,167,71718,1,8,0:0:0:0:
291,167,71843,1,0,0:0:0:0:
291,167,71968,1,8,0:0:0:0:
291,167,72093,1,0,0:0:0:0:
291,167,72218,1,8,0:0:0:0:
291,167,72343,1,0,0:0:0:0:
291,167,72405,1,0,0:0:0:0:
291,167,72468,1,0,0:0:0:0:
291,167,72530,1,0,0:0:0:0:
291,167,72593,1,8,0:0:0:0:
291,167,72718,1,8,0:0:0:0:
292,129,72843,1,8,0:0:0:0:
292,129,72968,1,8,0:0:0:0:
284,205,73093,1,4,0:0:0:0:
