osu file format v14

[General]
AudioFilename: audio.mp3
AudioLeadIn: 0
PreviewTime: 40977
Countdown: 1
SampleSet: Normal
StackLeniency: 0.7
Mode: 1
LetterboxInBreaks: 0
WidescreenStoryboard: 1

[Editor]
Bookmarks: 1102,3718,9093,25102,41102,56343,60968
DistanceSpacing: 2
BeatDivisor: 2
GridSize: 8
TimelineZoom: 2.699999

[Metadata]
Title:373
TitleUnicode:373
Artist:Banana Shone
ArtistUnicode:Banana Shone
Creator:-Kriston-
Version:Futsuu
Source:
Tags:touhou anime speedcore 東方地霊殿 Subterranean Animism komeiji satori ShONe
BeatmapID:2064642
BeatmapSetID:986988

[Difficulty]
HPDrainRate:7
CircleSize:5
OverallDifficulty:4
ApproachRate:5
SliderMultiplier:1.4
SliderTickRate:2

[Events]
//Background and Video events
0,0,"touhhou.jpg",0,0
//Break Periods
//Storyboard Layer 0 (Background)
//Storyboard Layer 1 (Fail)
//Storyboard Layer 2 (Pass)
//Storyboard Layer 3 (Foreground)
//Storyboard Sound Samples

[TimingPoints]
1093,250,4,1,0,65,1,0
24593,-98.0392156862745,4,1,0,65,0,0
24718,-96.1538461538461,4,1,0,65,0,0
24843,-94.3396226415094,4,1,0,65,0,0
24968,-92.5925925925926,4,1,0,65,0,0
25093,-90.9090909090909,4,1,0,65,0,0
25593,-125,4,1,0,50,0,0
37093,-123.456790123457,4,1,0,55,0,0
38093,-121.951219512195,4,1,0,58,0,0
39093,-120.481927710843,4,1,0,60,0,0
40093,-114.942528735632,4,1,0,65,0,0
40468,-111.111111111111,4,1,0,65,0,0
40843,-107.52688172043,4,1,0,65,0,0
41093,-100,4,1,0,65,0,0
57093,-100,4,1,0,65,0,1
73093,-90.9090909090909,4,1,0,65,0,0

[HitObjects]
243,167,1093,5,0,0:0:0:0:
326,182,1468,1,0,0:0:0:0:
243,167,1593,1,8,0:0:0:0:
243,167,1843,1,8,0:0:0:0:
243,167,2093,1,0,0:0:0:0:
243,167,2593,1,0,0:0:0:0:
254,155,2843,1,8,0:0:0:0:
243,167,3093,1,0,0:0:0:0:
243,167,3593,1,0,0:0:0:0:
243,167,3843,1,0,0:0:0:0:
243,167,4093,1,0,0:0:0:0:
332,186,4343,1,8,0:0:0:0:
321,188,4593,1,0,0:0:0:0:
322,188,4843,1,8,0:0:0:0:
332,184,4968,1,8,0:0:0:0:
323,188,5093,1,0,0:0:0:0:
265,152,5593,1,0,0:0:0:0:
265,152,5843,1,0,0:0:0:0:
265,152,6093,1,8,0:0:0:0:
265,152,6343,1,8,0:0:0:0:
264,151,6593,1,0,0:0:0:0:
336,161,7093,1,4,0:0:0:0:
333,182,7593,1,4,0:0:0:0:
333,182,8093,1,12,0:0:0:0:
333,182,8343,1,12,0:0:0:0:
333,182,8593,1,12,0:0:0:0:
333,182,8843,1,12,0:0:0:0:
321,157,9093,1,4,0:0:0:0:
292,145,9593,1,0,0:0:0:0:
292,145,9843,1,8,0:0:0:0:
292,145,10093,1,0,0:0:0:0:
292,145,10343,1,8,0:0:0:0:
292,145,10593,1,0,0:0:0:0:
374,154,10843,1,0,0:0:0:0:
292,145,10968,1,8,0:0:0:0:
374,154,11093,1,0,0:0:0:0:
292,198,11593,1,0,0:0:0:0:
306,192,11843,1,0,0:0:0:0:
306,192,12093,1,0,0:0:0:0:
306,192,12343,1,8,0:0:0:0:
341,220,12593,1,0,0:0:0:0:
341,220,12843,1,8,0:0:0:0:
323,121,12968,1,8,0:0:0:0:
341,220,13093,1,0,0:0:0:0:
294,183,13593,1,0,0:0:0:0:
294,183,13843,1,8,0:0:0:0:
294,183,14093,1,0,0:0:0:0:
294,183,14343,1,8,0:0:0:0:
294,183,14593,1,8,0:0:0:0:
294,183,14843,1,8,0:0:0:0:
294,183,14968,1,8,0:0:0:0:
294,183,15093,1,0,0:0:0:0:
294,183,15593,1,0,0:0:0:0:
294,183,16093,1,4,0:0:0:0:
294,183,16343,1,8,0:0:0:0:
294,183,16593,1,8,0:0:0:0:
294,183,16843,1,8,0:0:0:0:
321,157,17093,1,4,0:0:0:0:
292,145,17593,1,0,0:0:0:0:
292,145,17843,1,8,0:0:0:0:
292,145,18093,1,0,0:0:0:0:
292,145,18343,1,8,0:0:0:0:
292,145,18593,1,0,0:0:0:0:
374,154,18843,1,0,0:0:0:0:
292,145,18968,1,8,0:0:0:0:
374,154,19093,1,0,0:0:0:0:
292,198,19593,1,0,0:0:0:0:
306,192,19843,1,0,0:0:0:0:
306,192,20093,1,0,0:0:0:0:
306,192,20343,1,8,0:0:0:0:
341,220,20593,1,0,0:0:0:0:
341,220,20843,1,8,0:0:0:0:
323,121,20968,1,8,0:0:0:0:
341,220,21093,1,0,0:0:0:0:
294,183,21593,1,0,0:0:0:0:
294,183,21843,1,8,0:0:0:0:
294,183,22093,1,0,0:0:0:0:
294,183,22343,1,8,0:0:0:0:
294,183,22593,1,8,0:0:0:0:
294,183,22843,1,8,0:0:0:0:
294,183,22968,1,8,0:0:0:0:
294,183,23093,1,0,0:0:0:0:
294,183,23593,1,0,0:0:0:0:
294,183,24093,1,0,0:0:0:0:
294,183,24593,1,4,0:0:0:0:
294,183,24843,1,12,0:0:0:0:
332,196,25093,1,4,0:0:0:0:
330,156,25593,1,8,0:0:0:0:
330,156,26093,1,8,0:0:0:0:
363,231,26843,1,0,0:0:0:0:
275,151,27093,1,0,0:0:0:0:
275,151,27593,1,8,0:0:0:0:
273,106,28093,1,8,0:0:0:0:
273,106,28343,1,8,0:0:0:0:
273,106,28593,1,8,0:0:0:0:
371,196,28843,1,8,0:0:0:0:
273,106,29093,1,0,0:0:0:0:
273,106,29843,1,0,0:0:0:0:
273,106,30093,1,8,0:0:0:0:
273,106,30843,1,8,0:0:0:0:
273,106,31093,1,0,0:0:0:0:
273,106,31593,1,0,0:0:0:0:
273,106,32093,1,8,0:0:0:0:
385,158,32468,1,8,0:0:0:0:
241,137,32843,1,0,0:0:0:0:
273,106,33093,1,0,0:0:0:0:
273,106,33593,1,8,0:0:0:0:
273,106,34093,1,8,0:0:0:0:
292,189,34843,1,0,0:0:0:0:
273,106,35093,1,0,0:0:0:0:
342,159,35593,1,8,0:0:0:0:
342,158,36093,1,8,0:0:0:0:
342,158,36343,1,8,0:0:0:0:
342,158,36593,1,8,0:0:0:0:
329,165,36843,1,8,0:0:0:0:
318,173,37093,1,0,0:0:0:0:
319,173,37843,1,0,0:0:0:0:
319,173,38093,1,8,0:0:0:0:
319,169,38843,1,8,0:0:0:0:
319,169,39093,1,0,0:0:0:0:
320,169,39593,1,0,0:0:0:0:
256,192,40093,12,0,40843,0:0:0:0:
359,153,41093,5,0,0:0:0:0:
294,188,41343,5,0,0:0:0:0:
294,188,41593,1,8,0:0:0:0:
292,160,41843,1,8,0:0:0:0:
295,188,42093,1,0,0:0:0:0:
326,170,42343,1,0,0:0:0:0:
295,188,42593,1,8,0:0:0:0:
328,117,42843,1,8,0:0:0:0:
328,117,42968,1,8,0:0:0:0:
295,188,43093,1,0,0:0:0:0:
246,166,43593,1,0,0:0:0:0:
303,158,43843,1,0,0:0:0:0:
303,158,44093,1,8,0:0:0:0:
306,98,44343,1,0,0:0:0:0:
323,179,44593,1,8,0:0:0:0:
323,179,44843,1,8,0:0:0:0:
330,154,45093,1,0,0:0:0:0:
334,168,45593,1,12,0:0:0:0:
314,156,45843,1,12,0:0:0:0:
316,174,46093,1,8,0:0:0:0:
310,175,46593,1,12,0:0:0:0:
314,156,46843,1,12,0:0:0:0:
314,156,47093,1,8,0:0:0:0:
314,156,47593,1,8,0:0:0:0:
314,156,48093,1,4,0:0:0:0:
334,158,49093,1,4,0:0:0:0:
317,175,49343,1,0,0:0:0:0:
317,175,49593,1,8,0:0:0:0:
372,197,49843,1,8,0:0:0:0:
317,175,50093,1,0,0:0:0:0:
317,175,50343,1,0,0:0:0:0:
317,175,50593,1,8,0:0:0:0:
252,135,50843,1,8,0:0:0:0:
321,160,50968,1,8,0:0:0:0:
317,175,51093,1,0,0:0:0:0:
321,160,51593,1,0,0:0:0:0:
342,168,51843,1,0,0:0:0:0:
342,168,52093,1,8,0:0:0:0:
342,168,52343,1,0,0:0:0:0:
342,168,52593,1,8,0:0:0:0:
342,168,52843,1,8,0:0:0:0:
342,168,53093,1,0,0:0:0:0:
285,190,53593,1,12,0:0:0:0:
285,190,53843,1,12,0:0:0:0:
285,190,54093,1,8,0:0:0:0:
285,190,54593,1,12,0:0:0:0:
285,190,54843,1,12,0:0:0:0:
285,190,55093,1,8,0:0:0:0:
285,190,55593,1,8,0:0:0:0:
285,190,56093,1,4,0:0:0:0:
286,190,57093,1,4,0:0:0:0:
312,177,57343,1,0,0:0:0:0:
312,177,57593,1,0,0:0:0:0:
312,177,57843,1,0,0:0:0:0:
312,177,58093,1,0,0:0:0:0:
309,156,58343,1,0,0:0:0:0:
312,177,58593,1,8,0:0:0:0:
326,118,58843,1,8,0:0:0:0:
304,149,58968,1,8,0:0:0:0:
312,177,59093,1,0,0:0:0:0:
312,177,59593,1,0,0:0:0:0:
312,177,59843,1,0,0:0:0:0:
312,177,60093,1,8,0:0:0:0:
339,184,60343,1,0,0:0:0:0:
312,177,60593,1,8,0:0:0:0:
312,177,60843,1,8,0:0:0:0:
312,177,61093,1,4,0:0:0:0:
315,135,61593,1,0,0:0:0:0:
315,135,61843,1,0,0:0:0:0:
315,135,62093,1,0,0:0:0:0:
315,135,62343,1,0,0:0:0:0:
315,135,62593,1,8,0:0:0:0:
315,135,62843,1,8,0:0:0:0:
315,135,62968,1,8,0:0:0:0:
315,135,63093,1,0,0:0:0:0:
315,135,63593,1,0,0:0:0:0:
315,135,63843,1,0,0:0:0:0:
315,135,64093,1,0,0:0:0:0:
315,135,64343,1,0,0:0:0:0:
315,135,64593,1,8,0:0:0:0:
310,180,64718,1,8,0:0:0:0:
335,188,64843,1,8,0:0:0:0:
315,135,65093,1,4,0:0:0:0:
315,135,65593,1,0,0:0:0:0:
315,135,65843,1,0,0:0:0:0:
315,135,66093,1,0,0:0:0:0:
315,135,66343,1,0,0:0:0:0:
315,135,66593,1,8,0:0:0:0:
315,135,66843,1,8,0:0:0:0:
315,135,66968,1,8,0:0:0:0:
315,135,67093,1,0,0:0:0:0:
315,135,67593,1,0,0:0:0:0:
268,175,67843,1,0,0:0:0:0:
315,135,68093,1,8,0:0:0:0:
315,135,68343,1,0,0:0:0:0:
315,135,68593,1,8,0:0:0:0:
315,135,68843,1,8,0:0:0:0:
315,135,69093,1,4,0:0:0:0:
248,131,69593,1,0,0:0:0:0:
248,131,69843,1,0,0:0:0:0:
248,131,70093,1,0,0:0:0:0:
248,131,70343,1,0,0:0:0:0:
248,131,70593,1,8,0:0:0:0:
248,131,70843,1,8,0:0:0:0:
248,131,70968,1,8,0:0:0:0:
248,131,71093,1,0,0:0:0:0:
248,131,71593,1,0,0:0:0:0:
248,131,71843,1,0,0:0:0:0:
248,131,72093,1,0,0:0:0:0:
248,131,72343,1,0,0:0:0:0:
248,131,72593,1,8,0:0:0:0:
285,169,72718,1,8,0:0:0:0:
248,131,72843,1,8,0:0:0:0:
248,131,73093,1,4,0:0:0:0:
