osu file format v14

[General]
AudioFilename: audio.mp3
AudioLeadIn: 0
PreviewTime: -1
Countdown: 1
SampleSet: Normal
StackLeniency: 0.7
Mode: 3
LetterboxInBreaks: 0
SpecialStyle: 0
WidescreenStoryboard: 1

[Editor]
DistanceSpacing: 1
BeatDivisor: 16
GridSize: 4
TimelineZoom: 1

[Metadata]
Title:Csikos Post
TitleUnicode:Csikos Post
Artist:BanYa
ArtistUnicode:BanYa
Creator:Gigi D Agostino
Version:Hard
Source:
Tags:
BeatmapID:1336523
BeatmapSetID:631505

[Difficulty]
HPDrainRate:5
CircleSize:4
OverallDifficulty:5
ApproachRate:5
SliderMultiplier:1.4
SliderTickRate:1

[Events]
//Background and Video events
0,0,"csikos-post-banya.jpg",0,0
Video,0,"Pump It Up Portable Exceed Csikos' Post ~ BanYa ~ YouTube.avi"
//Break Periods
//Storyboard Layer 0 (Background)
//Storyboard Layer 1 (Fail)
//Storyboard Layer 2 (Pass)
//Storyboard Layer 3 (Foreground)
//Storyboard Sound Samples

[TimingPoints]
40,260.869565217391,4,1,0,100,1,0

[HitObjects]
256,192,7,12,0,1311,0:0:0:0:
256,192,1366,12,0,2616,0:0:0:0:
256,192,2713,12,0,3626,0:0:0:0:
448,192,3985,128,0,5159:0:0:0:0:
192,192,3985,128,0,5159:0:0:0:0:
320,192,5322,1,0,0:0:0:0:
272,192,5449,1,0,0:0:0:0:
296,192,5616,5,0,0:0:0:0:
384,192,5949,1,0,0:0:0:0:
416,192,6116,1,0,0:0:0:0:
400,224,6282,1,0,0:0:0:0:
364,293,6616,1,0,0:0:0:0:
280,304,6949,1,0,0:0:0:0:
64,192,6953,1,0,0:0:0:0:
232,280,7116,1,0,0:0:0:0:
184,304,7282,1,0,0:0:0:0:
109,273,7616,1,8,0:0:0:0:
192,273,7621,1,8,0:0:0:0:
320,273,7621,1,8,0:0:0:0:
448,273,7621,1,8,0:0:0:0:
48,224,7949,5,0,0:0:0:0:
112,192,8282,1,0,0:0:0:0:
144,160,8449,1,0,0:0:0:0:
176,192,8616,1,0,0:0:0:0:
248,192,8949,1,0,0:0:0:0:
312,192,9282,1,0,0:0:0:0:
376,208,9616,1,0,0:0:0:0:
440,208,9949,1,0,0:0:0:0:
464,336,10616,5,0,0:0:0:0:
400,320,10949,1,0,0:0:0:0:
336,304,11283,1,8,0:0:0:0:
192,304,11469,1,8,0:0:0:0:
448,304,11632,1,8,0:0:0:0:
224,304,11949,1,0,0:0:0:0:
160,304,12284,1,0,0:0:0:0:
96,304,12616,1,8,0:0:0:0:
192,280,12789,1,8,0:0:0:0:
448,248,12936,1,8,0:0:0:0:
48,184,13283,5,0,0:0:0:0:
88,144,13616,1,0,0:0:0:0:
448,144,13784,1,0,0:0:0:0:
152,144,13949,1,0,0:0:0:0:
192,192,14283,1,0,0:0:0:0:
256,192,14616,1,0,0:0:0:0:
192,240,14958,1,0,0:0:0:0:
448,192,15284,1,0,0:0:0:0:
192,304,15626,1,8,0:0:0:0:
64,304,15626,1,8,0:0:0:0:
448,304,15626,1,8,0:0:0:0:
336,304,15626,1,8,0:0:0:0:
456,248,15949,5,0,0:0:0:0:
320,280,16116,1,0,0:0:0:0:
192,312,16295,1,0,0:0:0:0:
64,320,16442,1,0,0:0:0:0:
392,320,16616,1,0,0:0:0:0:
360,320,16817,1,0,0:0:0:0:
328,320,16949,1,0,0:0:0:0:
192,304,17110,1,0,0:0:0:0:
192,280,17322,1,0,0:0:0:0:
448,192,17616,1,0,0:0:0:0:
288,168,17795,1,0,0:0:0:0:
320,192,17991,1,0,0:0:0:0:
320,192,18300,1,0,0:0:0:0:
192,192,18300,1,0,0:0:0:0:
448,192,18594,1,0,0:0:0:0:
416,160,18949,1,6,0:0:0:0:
416,96,19283,1,6,0:0:0:0:
408,64,19449,1,0,0:0:0:0:
376,64,19616,1,0,0:0:0:0:
192,64,19784,1,0,0:0:0:0:
312,64,19947,1,6,0:0:0:0:
216,64,20282,1,6,0:0:0:0:
152,64,20616,1,6,0:0:0:0:
120,64,20782,1,0,0:0:0:0:
192,64,20958,1,0,0:0:0:0:
320,80,21088,1,0,0:0:0:0:
448,104,21251,5,0,0:0:0:0:
32,176,21616,1,0,0:0:0:0:
32,208,21782,1,0,0:0:0:0:
320,240,21953,1,0,0:0:0:0:
320,272,22116,1,0,0:0:0:0:
32,304,22282,1,0,0:0:0:0:
80,352,22616,1,0,0:0:0:0:
144,336,22949,1,0,0:0:0:0:
176,336,23116,1,0,0:0:0:0:
448,336,23273,1,0,0:0:0:0:
448,336,23436,1,0,0:0:0:0:
272,336,23632,1,0,0:0:0:0:
320,192,23974,1,0,0:0:0:0:
336,240,24284,1,6,0:0:0:0:
336,176,24626,1,6,0:0:0:0:
192,144,24806,1,0,0:0:0:0:
320,112,24953,1,0,0:0:0:0:
448,88,25116,1,0,0:0:0:0:
320,192,25328,1,0,0:0:0:0:
256,192,25637,1,6,0:0:0:0:
288,248,25949,1,6,0:0:0:0:
448,280,26126,1,0,0:0:0:0:
264,304,26282,1,0,0:0:0:0:
232,304,26449,1,6,0:0:0:0:
448,192,26599,128,0,26811:0:0:0:0:
64,192,26616,128,0,26811:0:0:0:0:
192,192,26746,128,0,27023:0:0:0:0:
320,192,26746,128,0,27023:0:0:0:0:
64,192,26925,128,0,27105:0:0:0:0:
448,192,26925,128,0,27088:0:0:0:0:
64,192,27251,1,0,0:0:0:0:
192,192,27414,1,0,0:0:0:0:
320,192,27594,1,0,0:0:0:0:
448,192,27757,1,0,0:0:0:0:
320,192,27936,1,0,0:0:0:0:
64,192,28099,1,0,0:0:0:0:
192,192,28295,1,0,0:0:0:0:
320,192,28474,1,0,0:0:0:0:
448,192,28670,128,0,29192:0:0:0:0:
112,184,28949,5,0,0:0:0:0:
176,160,29282,5,6,0:0:0:0:
320,136,29453,1,0,0:0:0:0:
224,160,29616,1,6,0:0:0:0:
288,160,29949,1,6,0:0:0:0:
192,136,30121,1,0,0:0:0:0:
336,160,30282,1,6,0:0:0:0:
352,224,30616,5,0,0:0:0:0:
304,272,30949,5,0,0:0:0:0:
256,272,31116,1,0,0:0:0:0:
208,272,31282,1,0,0:0:0:0:
176,336,31616,1,0,0:0:0:0:
120,304,31949,5,0,0:0:0:0:
120,240,32282,1,0,0:0:0:0:
192,208,32453,1,0,0:0:0:0:
120,176,32616,1,0,0:0:0:0:
120,112,32949,1,0,0:0:0:0:
192,80,33121,1,0,0:0:0:0:
320,56,33284,1,0,0:0:0:0:
192,80,33447,1,0,0:0:0:0:
40,80,33616,1,0,0:0:0:0:
32,144,33949,1,8,0:0:0:0:
448,144,33953,1,8,0:0:0:0:
320,144,33953,1,8,0:0:0:0:
192,144,33953,1,8,0:0:0:0:
32,144,34246,1,8,0:0:0:0:
24,272,34616,5,0,0:0:0:0:
192,312,34784,1,0,0:0:0:0:
24,352,34949,1,0,0:0:0:0:
320,352,35110,1,0,0:0:0:0:
448,312,35306,1,0,0:0:0:0:
192,272,35469,1,0,0:0:0:0:
320,272,35632,1,0,0:0:0:0:
104,312,35782,1,0,0:0:0:0:
448,352,35958,1,0,0:0:0:0:
144,352,36116,1,0,0:0:0:0:
144,312,36282,1,0,0:0:0:0:
320,192,36610,128,0,37164:0:0:0:0:
192,192,36806,128,0,37164:0:0:0:0:
64,192,36953,128,0,37164:0:0:0:0:
312,328,37282,5,0,0:0:0:0:
368,288,37616,1,0,0:0:0:0:
448,256,37784,1,0,0:0:0:0:
360,224,37949,1,0,0:0:0:0:
304,192,38282,1,0,0:0:0:0:
272,192,38449,1,0,0:0:0:0:
240,192,38616,1,0,0:0:0:0:
320,192,38795,1,0,0:0:0:0:
176,176,38949,1,0,0:0:0:0:
64,144,39121,1,0,0:0:0:0:
200,120,39284,1,0,0:0:0:0:
64,144,39610,1,8,0:0:0:0:
448,144,39610,1,8,0:0:0:0:
320,144,39610,1,8,0:0:0:0:
192,144,39610,1,8,0:0:0:0:
272,88,39949,5,0,0:0:0:0:
192,88,40116,1,0,0:0:0:0:
344,88,40282,1,0,0:0:0:0:
64,88,40442,1,0,0:0:0:0:
408,88,40616,1,0,0:0:0:0:
408,120,40784,1,0,0:0:0:0:
376,120,40963,1,0,0:0:0:0:
192,120,41143,1,0,0:0:0:0:
320,192,41322,1,0,0:0:0:0:
320,192,41599,1,0,0:0:0:0:
216,192,41782,1,0,0:0:0:0:
192,192,42023,1,0,0:0:0:0:
320,192,42300,1,0,0:0:0:0:
192,192,42300,1,0,0:0:0:0:
320,192,42610,1,0,0:0:0:0:
256,176,42949,1,6,0:0:0:0:
200,208,43283,1,6,0:0:0:0:
192,240,43449,1,0,0:0:0:0:
320,272,43621,1,0,0:0:0:0:
320,288,43784,1,0,0:0:0:0:
192,296,43996,1,6,0:0:0:0:
344,296,44289,1,6,0:0:0:0:
392,344,44616,1,6,0:0:0:0:
320,328,44811,1,0,0:0:0:0:
440,304,44949,1,0,0:0:0:0:
192,272,45121,1,0,0:0:0:0:
448,240,45284,5,0,0:0:0:0:
448,176,45616,1,0,0:0:0:0:
320,144,45789,1,0,0:0:0:0:
440,112,45949,1,0,0:0:0:0:
192,88,46132,1,0,0:0:0:0:
384,88,46283,1,0,0:0:0:0:
320,104,46616,1,2,0:0:0:0:
264,136,46949,1,0,0:0:0:0:
192,168,47110,1,0,0:0:0:0:
272,192,47283,1,0,0:0:0:0:
192,224,47453,1,0,0:0:0:0:
448,256,47583,1,0,0:0:0:0:
200,272,47949,5,0,0:0:0:0:
176,288,48116,1,0,0:0:0:0:
320,320,48300,1,0,0:0:0:0:
232,336,48616,1,6,0:0:0:0:
264,320,48782,1,0,0:0:0:0:
192,288,48969,1,0,0:0:0:0:
296,264,49116,1,0,0:0:0:0:
64,248,49279,5,0,0:0:0:0:
344,232,49449,1,0,0:0:0:0:
192,200,49621,1,0,0:0:0:0:
336,136,49949,1,6,0:0:0:0:
448,112,50126,1,0,0:0:0:0:
280,112,50282,1,0,0:0:0:0:
264,144,50449,1,0,0:0:0:0:
256,192,50616,12,6,51282,0:0:0:0:
256,192,51366,12,6,51949,0:0:0:0:
256,192,52032,12,0,52616,0:0:0:0:
256,176,52949,5,6,0:0:0:0:
256,240,53283,5,0,0:0:0:0:
64,192,53289,128,0,54692:0:0:0:0:
256,272,53449,1,0,0:0:0:0:
224,288,53616,1,6,0:0:0:0:
320,296,53795,1,0,0:0:0:0:
160,296,53949,5,0,0:0:0:0:
320,296,54121,1,0,0:0:0:0:
128,264,54284,1,6,0:0:0:0:
448,264,54463,1,0,0:0:0:0:
192,264,54616,5,4,0:0:0:0:
64,192,54757,128,0,56045:0:0:0:0:
448,264,54789,1,0,0:0:0:0:
256,256,54949,1,6,0:0:0:0:
192,264,55116,1,0,0:0:0:0:
320,264,55283,5,0,0:0:0:0:
192,264,55458,1,0,0:0:0:0:
384,264,55616,1,6,0:0:0:0:
320,296,55784,1,0,0:0:0:0:
352,296,55949,5,4,0:0:0:0:
192,296,56110,1,0,0:0:0:0:
448,192,56110,128,0,57480:0:0:0:0:
192,296,56306,1,6,0:0:0:0:
256,296,56449,1,0,0:0:0:0:
192,192,56632,1,0,0:0:0:0:
256,232,56783,1,0,0:0:0:0:
192,200,56958,1,6,0:0:0:0:
256,168,57116,1,0,0:0:0:0:
264,136,57284,5,4,0:0:0:0:
192,192,57463,1,0,0:0:0:0:
448,192,57578,128,0,58605:0:0:0:0:
296,168,57616,1,6,0:0:0:0:
192,168,57806,1,0,0:0:0:0:
328,136,57949,5,0,0:0:0:0:
64,104,58116,1,0,0:0:0:0:
296,104,58283,1,6,0:0:0:0:
264,104,58449,1,0,0:0:0:0:
232,104,58616,5,4,0:0:0:0:
64,192,58670,128,0,59909:0:0:0:0:
320,104,58784,1,0,0:0:0:0:
168,112,58949,1,6,0:0:0:0:
320,128,59110,1,0,0:0:0:0:
192,192,59273,1,0,0:0:0:0:
192,184,59453,1,0,0:0:0:0:
192,192,59632,1,0,0:0:0:0:
144,224,59783,1,0,0:0:0:0:
320,240,59942,5,4,0:0:0:0:
64,192,59974,128,0,61279:0:0:0:0:
448,248,60121,1,0,0:0:0:0:
232,256,60284,1,6,0:0:0:0:
256,232,60449,1,0,0:0:0:0:
224,216,60616,5,0,0:0:0:0:
232,184,60783,1,0,0:0:0:0:
264,184,60949,1,6,0:0:0:0:
448,184,61132,1,0,0:0:0:0:
312,208,61283,5,4,0:0:0:0:
64,192,61344,128,0,62762:0:0:0:0:
192,240,61458,1,0,0:0:0:0:
328,272,61616,1,6,0:0:0:0:
448,288,61784,1,0,0:0:0:0:
368,264,61949,5,0,0:0:0:0:
192,232,62126,1,0,0:0:0:0:
368,200,62283,1,6,0:0:0:0:
400,192,62449,1,0,0:0:0:0:
400,160,62616,5,4,0:0:0:0:
368,152,62783,1,0,0:0:0:0:
192,192,62795,128,0,63349:0:0:0:0:
336,152,62949,1,6,0:0:0:0:
328,184,63116,1,6,0:0:0:0:
304,208,63284,5,8,0:0:0:0:
448,208,63366,1,8,0:0:0:0:
304,208,63449,1,8,0:0:0:0:
192,208,63529,1,8,0:0:0:0:
304,208,63616,1,8,0:0:0:0:
280,272,63949,5,0,0:0:0:0:
448,296,64116,1,0,0:0:0:0:
320,280,64283,1,0,0:0:0:0:
448,304,64458,1,0,0:0:0:0:
368,296,64616,1,0,0:0:0:0:
392,320,64784,1,0,0:0:0:0:
320,320,64963,1,0,0:0:0:0:
192,288,65126,1,4,0:0:0:0:
192,264,65289,1,0,0:0:0:0:
320,240,65469,1,4,0:0:0:0:
416,216,65616,1,0,0:0:0:0:
320,192,65811,1,4,0:0:0:0:
192,192,65991,1,0,0:0:0:0:
320,192,66154,1,0,0:0:0:0:
448,192,66219,1,0,0:0:0:0:
320,192,66284,1,0,0:0:0:0:
192,192,66349,1,0,0:0:0:0:
64,192,66414,1,0,0:0:0:0:
192,192,66480,1,0,0:0:0:0:
448,192,66643,1,0,0:0:0:0:
320,104,66822,5,0,0:0:0:0:
400,80,66963,1,0,0:0:0:0:
376,64,67129,1,0,0:0:0:0:
192,56,67295,1,0,0:0:0:0:
312,40,67474,1,0,0:0:0:0:
64,48,67621,1,0,0:0:0:0:
248,72,67796,1,0,0:0:0:0:
320,48,67963,1,0,0:0:0:0:
448,24,68143,1,0,0:0:0:0:
320,40,68289,1,0,0:0:0:0:
160,64,68463,1,0,0:0:0:0:
192,192,68632,1,0,0:0:0:0:
64,192,68632,1,0,0:0:0:0:
320,192,68681,1,0,0:0:0:0:
448,192,68681,1,0,0:0:0:0:
448,192,68746,1,0,0:0:0:0:
320,192,68746,1,0,0:0:0:0:
320,192,68828,1,0,0:0:0:0:
192,192,68828,1,0,0:0:0:0:
192,192,68909,1,0,0:0:0:0:
320,192,68909,1,0,0:0:0:0:
320,192,69007,1,0,0:0:0:0:
448,192,69007,1,0,0:0:0:0:
448,192,69088,1,0,0:0:0:0:
320,192,69088,1,0,0:0:0:0:
192,192,69300,1,0,0:0:0:0:
120,120,69463,5,2,0:0:0:0:
192,152,69626,1,2,0:0:0:0:
72,176,69796,1,0,0:0:0:0:
320,216,69985,1,0,0:0:0:0:
128,224,70129,1,0,0:0:0:0:
320,224,70295,1,2,0:0:0:0:
200,256,70463,1,0,0:0:0:0:
448,288,70588,1,0,0:0:0:0:
144,288,70796,1,2,0:0:0:0:
112,288,70963,1,2,0:0:0:0:
192,288,71126,1,0,0:0:0:0:
320,304,71289,1,2,0:0:0:0:
448,192,71453,1,0,0:0:0:0:
320,192,71534,1,0,0:0:0:0:
192,192,71616,1,0,0:0:0:0:
448,192,71616,1,0,0:0:0:0:
64,192,71697,1,0,0:0:0:0:
320,192,71697,1,0,0:0:0:0:
192,192,71795,1,0,0:0:0:0:
64,192,71876,1,0,0:0:0:0:
96,344,72129,5,2,0:0:0:0:
128,344,72296,1,2,0:0:0:0:
320,344,72480,1,0,0:0:0:0:
192,192,72692,1,0,0:0:0:0:
448,192,72773,1,0,0:0:0:0:
320,192,72855,1,0,0:0:0:0:
192,192,72936,1,0,0:0:0:0:
64,192,73018,1,0,0:0:0:0:
192,192,73279,1,0,0:0:0:0:
320,192,73458,1,0,0:0:0:0:
200,280,73463,5,6,0:0:0:0:
168,272,73629,1,6,0:0:0:0:
64,192,73637,1,0,0:0:0:0:
176,232,73796,1,0,0:0:0:0:
64,192,73963,1,0,0:0:0:0:
192,192,74045,1,0,0:0:0:0:
320,192,74110,1,0,0:0:0:0:
448,192,74159,1,0,0:0:0:0:
320,192,74257,1,0,0:0:0:0:
192,192,74355,1,0,0:0:0:0:
64,192,74453,1,0,0:0:0:0:
64,192,74664,1,0,0:0:0:0:
184,144,74795,5,2,0:0:0:0:
64,120,74974,1,2,0:0:0:0:
320,112,75105,1,0,0:0:0:0:
272,112,75296,1,2,0:0:0:0:
448,144,75447,1,0,0:0:0:0:
304,160,75629,1,2,0:0:0:0:
192,176,75789,1,0,0:0:0:0:
368,184,75963,1,2,0:0:0:0:
400,184,76129,1,0,0:0:0:0:
320,160,76295,1,2,0:0:0:0:
424,128,76463,1,0,0:0:0:0:
384,136,76629,1,10,0:0:0:0:
320,192,76703,1,0,0:0:0:0:
192,192,76784,1,0,0:0:0:0:
64,192,76866,1,0,0:0:0:0:
192,192,76947,1,0,0:0:0:0:
320,192,76947,1,0,0:0:0:0:
448,192,76947,1,0,0:0:0:0:
64,192,77061,1,0,0:0:0:0:
192,192,77126,1,0,0:0:0:0:
320,192,77322,1,0,0:0:0:0:
192,192,77469,5,2,0:0:0:0:
320,208,77616,1,2,0:0:0:0:
448,200,77795,1,0,0:0:0:0:
264,176,77963,1,2,0:0:0:0:
224,168,78129,1,0,0:0:0:0:
200,200,78296,1,2,0:0:0:0:
320,240,78447,1,0,0:0:0:0:
320,256,78626,1,2,0:0:0:0:
256,272,78796,1,0,0:0:0:0:
192,256,78969,1,2,0:0:0:0:
328,272,79129,1,0,0:0:0:0:
64,240,79262,1,8,0:0:0:0:
192,192,79344,1,0,0:0:0:0:
320,192,79425,1,0,0:0:0:0:
448,192,79507,1,0,0:0:0:0:
320,192,79507,1,0,0:0:0:0:
192,192,79507,1,0,0:0:0:0:
64,192,79507,1,0,0:0:0:0:
320,192,79605,1,0,0:0:0:0:
192,192,79686,1,0,0:0:0:0:
64,192,79768,1,0,0:0:0:0:
192,192,79931,1,0,0:0:0:0:
312,272,80129,5,2,0:0:0:0:
448,280,80306,1,2,0:0:0:0:
368,304,80463,1,0,0:0:0:0:
448,336,80632,1,2,0:0:0:0:
336,344,80795,1,0,0:0:0:0:
192,344,80974,1,2,0:0:0:0:
272,344,81121,1,0,0:0:0:0:
240,336,81284,1,2,0:0:0:0:
320,328,81480,1,2,0:0:0:0:
176,320,81626,1,2,0:0:0:0:
64,296,81789,1,2,0:0:0:0:
248,288,81936,1,8,0:0:0:0:
192,192,82050,1,0,0:0:0:0:
320,192,82132,1,0,0:0:0:0:
448,192,82197,1,0,0:0:0:0:
320,192,82295,1,0,0:0:0:0:
192,192,82376,1,0,0:0:0:0:
256,224,82629,5,8,0:0:0:0:
216,208,82796,5,2,0:0:0:0:
184,176,82963,1,6,0:0:0:0:
176,136,83129,1,2,0:0:0:0:
200,104,83296,5,8,0:0:0:0:
320,192,83371,1,0,0:0:0:0:
448,192,83453,1,0,0:0:0:0:
320,192,83518,1,0,0:0:0:0:
192,192,83599,1,0,0:0:0:0:
64,192,83664,1,0,0:0:0:0:
192,192,83746,1,0,0:0:0:0:
320,192,83811,1,0,0:0:0:0:
448,192,83991,1,0,0:0:0:0:
296,104,84129,5,10,0:0:0:0:
192,136,84317,1,6,0:0:0:0:
328,184,84463,1,2,0:0:0:0:
448,224,84643,1,8,0:0:0:0:
320,192,84724,1,0,0:0:0:0:
320,192,84789,1,0,0:0:0:0:
192,192,84855,1,0,0:0:0:0:
192,192,84920,1,0,0:0:0:0:
64,192,84985,1,0,0:0:0:0:
64,192,85050,1,0,0:0:0:0:
192,192,85344,1,0,0:0:0:0:
448,192,85637,1,0,0:0:0:0:
240,232,85963,1,6,0:0:0:0:
264,240,86129,1,0,0:0:0:0:
192,248,86306,1,0,0:0:0:0:
320,240,86462,1,0,0:0:0:0:
64,192,86648,1,0,0:0:0:0:
320,192,86974,1,0,0:0:0:0:
416,248,87295,1,6,0:0:0:0:
320,224,87463,1,0,0:0:0:0:
480,256,87629,1,0,0:0:0:0:
192,296,87822,1,0,0:0:0:0:
464,336,87962,5,0,0:0:0:0:
400,336,88295,1,0,0:0:0:0:
368,336,88462,1,6,0:0:0:0:
448,336,88637,1,0,0:0:0:0:
304,336,88795,1,0,0:0:0:0:
448,336,88963,1,0,0:0:0:0:
216,320,89295,1,0,0:0:0:0:
160,336,89629,1,0,0:0:0:0:
128,336,89795,1,6,0:0:0:0:
96,336,89962,1,0,0:0:0:0:
192,336,90137,1,0,0:0:0:0:
32,336,90295,1,0,0:0:0:0:
64,192,90626,1,0,0:0:0:0:
176,256,90962,1,8,0:0:0:0:
232,304,91295,1,6,0:0:0:0:
264,312,91462,1,0,0:0:0:0:
448,320,91621,1,0,0:0:0:0:
336,328,91796,1,0,0:0:0:0:
192,192,92012,1,0,0:0:0:0:
368,224,92295,1,8,0:0:0:0:
368,144,92629,1,6,0:0:0:0:
448,192,92811,1,0,0:0:0:0:
312,104,92962,1,0,0:0:0:0:
192,192,93137,1,0,0:0:0:0:
320,88,93300,5,0,0:0:0:0:
208,64,93463,1,0,0:0:0:0:
64,32,93643,1,0,0:0:0:0:
248,32,93795,1,0,0:0:0:0:
288,32,93962,1,0,0:0:0:0:
448,32,94148,1,0,0:0:0:0:
328,72,94295,1,0,0:0:0:0:
192,112,94474,1,0,0:0:0:0:
288,112,94629,1,0,0:0:0:0:
448,72,94800,1,0,0:0:0:0:
248,72,94963,1,0,0:0:0:0:
248,112,95129,1,0,0:0:0:0:
320,112,95289,1,0,0:0:0:0:
320,72,95485,1,0,0:0:0:0:
448,192,95632,1,0,0:0:0:0:
192,192,95632,1,0,0:0:0:0:
64,192,95632,1,0,0:0:0:0:
320,192,95632,1,0,0:0:0:0:
192,192,95991,1,0,0:0:0:0:
216,200,96129,5,0,0:0:0:0:
248,200,96295,1,0,0:0:0:0:
280,200,96463,1,0,0:0:0:0:
448,200,96643,1,0,0:0:0:0:
344,200,96795,1,0,0:0:0:0:
448,200,96969,1,0,0:0:0:0:
376,248,97129,1,0,0:0:0:0:
448,248,97311,1,0,0:0:0:0:
312,248,97462,1,0,0:0:0:0:
280,248,97629,1,0,0:0:0:0:
248,248,97795,1,0,0:0:0:0:
64,248,97963,1,0,0:0:0:0:
64,192,98289,1,0,0:0:0:0:
448,192,98289,1,0,0:0:0:0:
192,192,98289,1,0,0:0:0:0:
320,192,98289,1,0,0:0:0:0:
320,192,98648,1,0,0:0:0:0:
184,168,98795,5,0,0:0:0:0:
320,168,98974,1,0,0:0:0:0:
240,144,99129,1,0,0:0:0:0:
264,128,99295,1,0,0:0:0:0:
448,96,99480,1,0,0:0:0:0:
296,88,99629,1,0,0:0:0:0:
448,88,99822,1,0,0:0:0:0:
368,88,99962,1,0,0:0:0:0:
64,192,100116,1,0,0:0:0:0:
192,192,100295,1,0,0:0:0:0:
320,192,100474,1,0,0:0:0:0:
192,192,100654,1,0,0:0:0:0:
64,192,100996,128,0,103980:0:0:0:0:
