osu file format v14

[General]
AudioFilename: Influenza.mp3
AudioLeadIn: 0
PreviewTime: 77763
Countdown: 0
SampleSet: Soft
StackLeniency: 0.7
Mode: 3
LetterboxInBreaks: 0
SpecialStyle: 0
WidescreenStoryboard: 0

[Editor]
DistanceSpacing: 0.8
BeatDivisor: 4
GridSize: 16
TimelineZoom: 0.7999998

[Metadata]
Title:Beethoven Influenza
TitleUnicode:Beethoven Influenza
Artist:BanYa & Warak
ArtistUnicode:BanYa & Warak
Creator:ExPew
Version:Normal
Source:PUMP IT UP - 2015 PRIME -
Tags:PIU Remix Ludwig van Beethoven Virus
BeatmapID:1081673
BeatmapSetID:295397

[Difficulty]
HPDrainRate:7.2
CircleSize:7
OverallDifficulty:7
ApproachRate:0
SliderMultiplier:1.4
SliderTickRate:1

[Events]
//Background and Video events
0,0,"beethoven_influenza.jpg",0,0
//Break Periods
//Storyboard Layer 0 (Background)
//Storyboard Layer 1 (Fail)
//Storyboard Layer 2 (Pass)
//Storyboard Layer 3 (Foreground)
//Storyboard Sound Samples

[TimingPoints]
1528,352.941176470588,4,2,0,50,1,0

[HitObjects]
402,192,1528,5,0,0:0:0:70:crash.wav
36,192,1528,1,0,0:0:0:50:kick_L.wav
256,192,1704,1,0,0:0:0:0:
36,192,2057,1,0,0:0:0:0:
182,192,2233,1,0,0:0:0:0:
109,192,2586,1,0,0:0:0:0:
256,192,2763,1,0,0:0:0:0:
182,192,3116,1,0,0:0:0:0:
329,192,3292,1,0,0:0:0:0:
256,192,3645,1,0,0:0:0:0:
402,192,3822,1,0,0:0:0:0:
475,192,4175,1,0,0:0:0:0:
329,192,4351,1,0,0:0:0:0:
182,192,4527,1,0,0:0:0:0:
402,192,4880,1,0,0:0:0:0:
256,192,5057,1,0,0:0:0:0:
329,192,5410,1,0,0:0:0:0:
182,192,5586,1,0,0:0:0:0:
256,192,5939,1,0,0:0:0:0:
109,192,6116,5,0,0:0:0:0:
182,192,6469,1,0,0:0:0:0:
329,192,6469,1,0,0:0:0:0:
402,192,6822,1,0,0:0:0:0:
109,192,6822,1,0,0:0:0:0:
475,192,7175,5,0,0:0:0:70:crash.wav
36,192,7175,1,0,0:0:0:50:kick_L.wav
475,192,7527,1,0,0:0:0:45:snare_D.wav
329,192,7527,1,0,0:0:0:0:
109,192,8057,1,0,0:0:0:50:kick_L.wav
475,192,8233,1,0,0:0:0:45:snare_D.wav
329,192,8233,1,0,0:0:0:0:
109,192,8586,1,0,0:0:0:50:kick_L.wav
475,192,8939,1,0,0:0:0:45:snare_D.wav
329,192,8939,1,0,0:0:0:0:
109,192,9469,1,0,0:0:0:50:kick_L.wav
475,192,9645,1,0,0:0:0:45:snare_D.wav
329,192,9645,1,0,0:0:0:0:
109,192,9998,1,0,0:0:0:50:kick_L.wav
475,192,10351,1,0,0:0:0:45:snare_D.wav
329,192,10351,1,0,0:0:0:0:
109,192,10704,1,0,0:0:0:50:kick_L.wav
109,192,10880,1,0,0:0:0:50:kick_L.wav
475,192,11057,1,0,0:0:0:45:snare_D.wav
329,192,11057,1,0,0:0:0:0:
36,192,11410,1,0,0:0:0:50:kick_L.wav
256,192,11410,128,0,12822:0:0:0:0:
475,192,12822,1,0,0:0:0:70:crash.wav
36,192,12822,1,0,0:0:0:50:kick_L.wav
109,192,13351,1,0,0:0:0:0:
256,192,13527,1,0,0:0:0:0:
109,192,13704,1,0,0:0:0:0:
256,192,13880,1,0,0:0:0:0:
329,192,14057,1,0,0:0:0:0:
402,192,14233,1,0,0:0:0:0:
402,192,14410,128,0,14763:0:0:0:0:
182,192,14763,1,0,0:0:0:0:
329,192,14939,1,0,0:0:0:0:
182,192,15116,1,0,0:0:0:0:
329,192,15292,1,0,0:0:0:0:
475,192,15469,1,0,0:0:0:0:
475,192,15645,128,0,15998:0:0:0:0:
109,192,15998,1,0,0:0:0:0:
402,192,16351,128,0,16704:0:0:0:0:
36,192,16704,1,0,0:0:0:0:
475,192,17057,5,0,0:0:0:70:crash.wav
256,192,17057,1,0,0:0:0:0:
256,192,17233,1,0,0:0:0:0:
109,192,17410,1,0,0:0:0:0:
109,192,17586,1,0,0:0:0:0:
402,192,17763,1,0,0:0:0:0:
402,192,17939,1,0,0:0:0:0:
256,192,18116,128,0,18469:0:0:0:0:
36,192,18469,1,0,0:0:0:50:kick_L.wav
475,192,18469,1,0,0:0:0:70:crash.wav
402,192,18998,1,0,0:0:0:0:
256,192,19175,1,0,0:0:0:0:
402,192,19351,1,0,0:0:0:0:
256,192,19527,1,0,0:0:0:0:
182,192,19704,1,0,0:0:0:0:
109,192,19880,1,0,0:0:0:0:
109,192,20057,128,0,20410:0:0:0:0:
329,192,20410,1,0,0:0:0:0:
182,192,20586,1,0,0:0:0:0:
329,192,20763,1,0,0:0:0:0:
182,192,20939,1,0,0:0:0:0:
36,192,21116,1,0,0:0:0:0:
36,192,21292,128,0,21645:0:0:0:0:
402,192,21645,1,0,0:0:0:0:
109,192,21998,128,0,22351:0:0:0:0:
475,192,22351,1,0,0:0:0:0:
402,192,22704,5,0,0:0:0:70:crash.wav
109,192,22880,1,0,0:0:0:50:kick_L.wav
402,192,23057,1,0,0:0:0:50:kick_L.wav
109,192,23233,1,0,0:0:0:50:kick_L.wav
256,192,23410,1,0,0:0:0:45:snare_L.wav
256,192,23763,1,0,0:0:0:45:snare_L.wav
109,192,24116,1,0,0:0:0:0:
256,192,24292,1,0,0:0:0:0:
402,192,24469,128,0,24822:0:0:0:0:
36,192,24822,1,0,0:0:0:0:
182,192,24998,1,0,0:0:0:0:
329,192,25175,128,0,25527:0:0:0:0:
109,192,25527,128,0,26233:0:0:0:0:
36,192,25527,1,0,0:0:0:0:
329,192,26233,128,0,26939:0:0:0:0:
402,192,26233,1,0,0:0:0:0:
182,192,26939,1,0,0:0:0:0:
329,192,27116,1,0,0:0:0:0:
475,192,27292,128,0,27645:0:0:0:0:
36,192,27645,1,0,0:0:0:0:
182,192,27822,1,0,0:0:0:0:
329,192,27998,128,0,28351:0:0:0:0:
109,192,28351,1,0,0:0:0:0:
182,192,28351,128,0,29057:0:0:0:0:
475,192,29057,1,0,0:0:0:0:
402,192,29057,128,0,29763:0:0:0:0:
36,192,29763,1,0,0:0:0:0:
182,192,29939,1,0,0:0:0:0:
36,192,30116,5,0,0:0:0:0:
182,192,30292,1,0,0:0:0:0:
329,192,30469,1,0,0:0:0:0:
475,192,30645,1,0,0:0:0:0:
329,192,30822,1,0,0:0:0:0:
475,192,30998,1,0,0:0:0:0:
182,192,31175,5,0,0:0:0:70:crash.wav
36,192,31175,1,0,0:0:0:50:kick_L.wav
109,192,32057,1,0,0:0:0:0:
182,192,32233,1,0,0:0:0:0:
256,192,32410,1,0,0:0:0:0:
36,192,32586,1,0,0:0:0:50:kick_L.wav
329,192,32586,1,0,0:0:0:70:crash.wav
182,192,32939,1,0,0:0:0:50:kick_L.wav
475,192,32939,1,0,0:0:0:45:snare_L.wav
36,192,33292,1,0,0:0:0:50:kick_L.wav
329,192,33292,1,0,0:0:0:0:
182,192,33645,1,0,0:0:0:50:kick_L.wav
475,192,33645,1,0,0:0:0:45:snare_L.wav
109,192,33998,1,0,0:0:0:50:kick_L.wav
329,192,33998,1,0,0:0:0:0:
256,192,34351,1,0,0:0:0:45:snare_L.wav
36,192,34351,1,0,0:0:0:50:kick_L.wav
256,192,34704,1,0,0:0:0:50:kick_L.wav
475,192,34704,1,0,0:0:0:0:
182,192,35057,1,0,0:0:0:50:kick_L.wav
402,192,35057,1,0,0:0:0:45:snare_L.wav
36,192,35410,1,0,0:0:0:50:kick_L.wav
475,192,35586,1,0,0:0:0:45:snare_L.wav
329,192,35763,1,0,0:0:0:45:snare_L.wav
475,192,35939,1,0,0:0:0:45:snare_L.wav
36,192,36116,1,0,0:0:0:50:kick_L.wav
475,192,36292,1,0,0:0:0:45:snare_L.wav
329,192,36469,1,0,0:0:0:45:snare_L.wav
475,192,36645,1,0,0:0:0:45:snare_L.wav
36,192,36822,1,0,0:0:0:50:kick_L.wav
256,192,36822,128,0,37880:0:0:0:0:
182,192,36822,1,0,0:0:0:70:crash.wav
402,192,37175,1,0,0:0:0:45:snare_L.wav
109,192,37175,1,0,0:0:0:50:kick_L.wav
475,192,37527,1,0,0:0:0:50:kick_L.wav
329,192,37527,1,0,0:0:0:0:
109,192,37880,1,0,0:0:0:50:kick_L.wav
402,192,37880,1,0,0:0:0:45:snare_L.wav
256,192,38057,1,0,0:0:0:0:
36,192,38233,1,0,0:0:0:50:kick_L.wav
402,192,38233,128,0,38939:0:0:0:0:
329,192,38586,1,0,0:0:0:45:snare_L.wav
109,192,38586,1,0,0:0:0:50:kick_L.wav
36,192,38939,1,0,0:0:0:50:kick_L.wav
256,192,38939,1,0,0:0:0:0:
182,192,39292,1,0,0:0:0:50:kick_L.wav
402,192,39292,1,0,0:0:0:45:snare_L.wav
256,192,39469,1,0,0:0:0:0:
475,192,39645,1,0,0:0:0:50:kick_L.wav
109,192,39645,128,0,40351:0:0:0:0:
402,192,39998,1,0,0:0:0:45:snare_L.wav
182,192,39998,1,0,0:0:0:50:kick_L.wav
475,192,40351,1,0,0:0:0:50:kick_L.wav
256,192,40351,1,0,0:0:0:0:
109,192,40704,1,0,0:0:0:50:kick_L.wav
329,192,40704,1,0,0:0:0:45:snare_L.wav
402,192,40880,1,0,0:0:0:0:
36,192,41057,1,0,0:0:0:50:kick_L.wav
256,192,41233,1,0,0:0:0:50:kick_L.wav
36,192,41410,1,0,0:0:0:50:kick_L.wav
256,192,41586,1,0,0:0:0:50:kick_L.wav
475,192,41763,1,0,0:0:0:50:sp.wav
182,192,41939,1,0,0:0:0:50:sp.wav
109,192,42027,1,0,0:0:0:50:sp.wav
36,192,42116,1,0,0:0:0:50:sp.wav
182,192,42292,1,0,0:0:0:50:sp.wav
475,192,42469,1,0,0:0:0:45:snare_L.wav
329,192,42469,1,0,0:0:0:50:kick_L.wav
256,192,42822,128,0,43175:0:0:0:0:
182,192,43351,1,0,0:0:0:0:
256,192,43527,1,0,0:0:0:0:
329,192,43704,1,0,0:0:0:0:
402,192,43880,1,0,0:0:0:70:crash.wav
109,192,43880,1,0,0:0:0:0:
475,192,44233,1,0,0:0:0:45:snare_L.wav
182,192,44233,1,0,0:0:0:0:
109,192,44586,1,0,0:0:0:0:
109,192,44763,1,0,0:0:0:0:
475,192,44939,1,0,0:0:0:45:snare_L.wav
182,192,45116,1,0,0:0:0:0:
36,192,45292,1,0,0:0:0:0:
329,192,45469,1,0,0:0:0:0:
475,192,45645,1,0,0:0:0:45:snare_L.wav
109,192,45822,1,0,0:0:0:0:
109,192,45998,1,0,0:0:0:0:
329,192,46175,1,0,0:0:0:50:kick_D.wav
475,192,46351,1,0,0:0:0:45:snare_L.wav
475,192,46704,1,0,0:0:0:50:kick_D.wav
329,192,46704,1,0,0:0:0:0:
402,192,46880,1,0,0:0:0:50:kick_D.wav
182,192,47057,1,0,0:0:0:45:snare_L.wav
109,192,47233,1,0,0:0:0:45:snare_L.wav
475,192,47410,1,0,0:0:0:50:kick_D.wav
329,192,47410,1,0,0:0:0:0:
402,192,47586,1,0,0:0:0:50:kick_D.wav
182,192,47763,1,0,0:0:0:45:snare_L.wav
109,192,47939,1,0,0:0:0:45:snare_L.wav
36,192,48116,128,0,48822:0:0:0:0:
256,192,48292,1,0,0:0:0:50:kick_D.wav
475,192,48469,1,0,0:0:0:45:snare_L.wav
475,192,48822,1,0,0:0:0:0:
256,192,48998,1,0,0:0:0:50:kick_D.wav
36,192,49175,1,0,0:0:0:45:snare_L.wav
329,192,49351,1,0,0:0:0:0:
402,192,49439,1,0,0:0:0:0:
475,192,49527,128,0,50233:0:0:0:0:
256,192,49880,1,0,0:0:0:45:snare_L.wav
36,192,50233,1,0,0:0:0:0:
256,192,50410,1,0,0:0:0:50:kick_D.wav
475,192,50586,1,0,0:0:0:45:snare_L.wav
182,192,50763,1,0,0:0:0:0:
109,192,50851,1,0,0:0:0:0:
36,192,50939,128,0,51645:0:0:0:0:
256,192,51292,1,0,0:0:0:45:snare_L.wav
475,192,51645,1,0,0:0:0:0:
329,192,51822,1,0,0:0:0:50:kick_D.wav
182,192,51998,1,0,0:0:0:45:snare_L.wav
329,192,52175,1,0,0:0:0:0:
475,192,52351,1,0,0:0:0:50:kick_D.wav
109,192,52351,128,0,52704:0:0:0:0:
256,192,52704,1,0,0:0:0:45:snare_L.wav
402,192,53057,1,0,0:0:0:45:snare_D.wav
182,192,53057,128,0,53586:0:0:0:0:
402,192,53586,1,0,0:0:0:50:kick_D.wav
329,192,53763,1,0,0:0:0:50:kick_D.wav
36,192,53763,128,0,54469:0:0:0:0:
256,192,53939,1,0,0:0:0:50:kick_L.wav
475,192,54116,1,0,0:0:0:45:snare_L.wav
256,192,54292,1,0,0:0:0:50:kick_D.wav
329,192,54469,1,0,0:0:0:50:kick_L.wav
182,192,54645,1,0,0:0:0:0:
36,192,54822,1,0,0:0:0:0:
182,192,54998,1,0,0:0:0:0:
475,192,55175,5,0,0:0:0:70:crash.wav
329,192,55175,1,0,0:0:0:0:
182,192,55351,1,0,0:0:0:0:
36,192,55527,1,0,0:0:0:0:
182,192,55704,1,0,0:0:0:0:
402,192,55880,1,0,0:0:0:0:
256,192,56057,1,0,0:0:0:0:
475,192,56233,1,0,0:0:0:0:
329,192,56410,1,0,0:0:0:0:
256,192,56586,1,0,0:0:0:50:kick_L.wav
475,192,56586,1,0,0:0:0:0:
182,192,56939,1,0,0:0:0:50:kick_L.wav
402,192,56939,1,0,0:0:0:45:snare_L.wav
329,192,57292,128,0,57998:0:0:0:0:
109,192,57292,128,0,57998:0:0:0:0:
402,192,57998,1,0,0:0:0:0:
256,192,58175,1,0,0:0:0:0:
109,192,58351,1,0,0:0:0:0:
256,192,58527,1,0,0:0:0:0:
329,192,58704,1,0,0:0:0:0:
182,192,58880,1,0,0:0:0:0:
329,192,59057,1,0,0:0:0:0:
402,192,59233,1,0,0:0:0:0:
256,192,59410,1,0,0:0:0:50:kick_L.wav
475,192,59410,1,0,0:0:0:0:
182,192,59763,1,0,0:0:0:50:kick_L.wav
402,192,59763,1,0,0:0:0:45:snare_L.wav
109,192,60116,128,0,60645:0:0:0:0:
329,192,60116,128,0,60645:0:0:0:0:
256,192,60645,1,0,0:0:0:0:
475,192,60822,1,0,0:0:0:0:
256,192,60998,1,0,0:0:0:0:
36,192,61175,1,0,0:0:0:0:
256,192,61351,1,0,0:0:0:0:
475,192,61527,1,0,0:0:0:0:
182,192,61704,1,0,0:0:0:0:
402,192,61880,1,0,0:0:0:0:
109,192,62057,1,0,0:0:0:0:
329,192,62233,1,0,0:0:0:50:kick_L.wav
475,192,62233,1,0,0:0:0:0:
256,192,62586,1,0,0:0:0:50:kick_L.wav
402,192,62586,1,0,0:0:0:45:snare_L.wav
182,192,62939,128,0,63469:0:0:0:0:
329,192,62939,128,0,63469:0:0:0:0:
36,192,63469,1,0,0:0:0:0:
402,192,63645,1,0,0:0:0:0:
109,192,63822,1,0,0:0:0:0:
402,192,63998,1,0,0:0:0:0:
109,192,64175,1,0,0:0:0:0:
475,192,64351,1,0,0:0:0:0:
475,192,64527,1,0,0:0:0:0:
256,192,64704,1,0,0:0:0:0:
256,192,64880,1,0,0:0:0:0:
36,192,65057,1,0,0:0:0:50:kick_L.wav
36,192,65233,1,0,0:0:0:50:kick_L.wav
36,192,65410,1,0,0:0:0:50:kick_L.wav
402,192,65586,1,0,0:0:0:50:kick_L.wav
109,192,65763,1,0,0:0:0:50:kick_D.wav
256,192,65939,1,0,0:0:0:40:snare_SP.wav
475,192,66116,1,0,0:0:0:50:kick_L.wav
329,192,66292,1,0,0:0:0:50:kick_D.wav
109,192,66469,128,0,66998:0:0:0:0:
402,192,66998,1,0,0:0:0:0:
329,192,67086,1,0,0:0:0:0:
256,192,67175,1,0,0:0:0:0:
109,192,67351,1,0,0:0:0:0:
256,192,67527,1,0,0:0:0:0:
109,192,67704,1,0,0:0:0:0:
475,192,67880,1,0,0:0:0:0:
402,192,67998,1,0,0:0:0:0:
329,192,68086,1,0,0:0:0:0:
36,192,68233,1,0,0:0:0:0:
182,192,68410,1,0,0:0:0:0:
475,192,68586,1,0,0:0:0:0:
402,192,68704,1,0,0:0:0:0:
329,192,68792,1,0,0:0:0:0:
182,192,68939,128,0,69292:0:0:0:0:
36,192,69292,1,0,0:0:0:50:kick_D.wav
329,192,69822,1,0,0:0:0:0:
402,192,69880,1,0,0:0:0:0:
475,192,69998,1,0,0:0:0:0:
182,192,70175,1,0,0:0:0:0:
109,192,70351,1,0,0:0:0:0:
475,192,70351,1,0,0:0:0:0:
36,192,70527,1,0,0:0:0:0:
475,192,70527,1,0,0:0:0:0:
329,192,70704,1,0,0:0:0:0:
182,192,70880,1,0,0:0:0:0:
329,192,71057,1,0,0:0:0:0:
182,192,71233,1,0,0:0:0:0:
36,192,71410,1,0,0:0:0:0:
109,192,71586,1,0,0:0:0:0:
182,192,71763,128,0,72116:0:0:0:0:
36,192,72116,1,0,0:0:0:50:kick_L.wav
402,192,72116,128,0,72645:0:0:0:0:
36,192,72469,1,0,0:0:0:45:snare_L.wav
256,192,72645,1,0,0:0:0:0:
182,192,72733,1,0,0:0:0:0:
109,192,72822,1,0,0:0:0:50:kick_L.wav
402,192,72998,1,0,0:0:0:0:
109,192,73175,1,0,0:0:0:45:snare_L.wav
256,192,73351,1,0,0:0:0:0:
329,192,73439,1,0,0:0:0:0:
402,192,73527,1,0,0:0:0:50:kick_L.wav
36,192,73704,1,0,0:0:0:0:
109,192,73792,1,0,0:0:0:0:
182,192,73880,1,0,0:0:0:45:snare_L.wav
329,192,74057,1,0,0:0:0:0:
36,192,74233,1,0,0:0:0:50:kick_L.wav
329,192,74410,1,0,0:0:0:0:
182,192,74586,128,0,74939:0:0:0:0:
475,192,74939,1,0,0:0:0:50:kick_D.wav
109,192,74939,128,0,75292:0:0:0:0:
402,192,75292,1,0,0:0:0:45:snare_L.wav
256,192,75469,1,0,0:0:0:0:
475,192,75645,1,0,0:0:0:0:
256,192,75822,1,0,0:0:0:0:
475,192,75998,1,0,0:0:0:45:snare_L.wav
109,192,76175,1,0,0:0:0:0:
402,192,76351,1,0,0:0:0:0:
36,192,76527,1,0,0:0:0:50:kick_D.wav
475,192,76704,1,0,0:0:0:45:snare_L.wav
329,192,76704,1,0,0:0:0:0:
36,192,76880,1,0,0:0:0:50:kick_D.wav
475,192,77057,1,0,0:0:0:45:snare_L.wav
329,192,77057,1,0,0:0:0:0:
36,192,77233,1,0,0:0:0:50:kick_D.wav
329,192,77410,1,0,0:0:0:45:snare_D.wav
475,192,77410,1,0,0:0:0:45:snare_L.wav
36,192,77763,1,0,0:0:0:70:crash.wav
256,192,77763,1,0,0:0:0:0:
402,192,77939,1,0,0:0:0:0:
182,192,78116,1,0,0:0:0:0:
329,192,78292,1,0,0:0:0:0:
109,192,78469,1,0,0:0:0:0:
256,192,78645,1,0,0:0:0:0:
36,192,78822,1,0,0:0:0:0:
182,192,78998,1,0,0:0:0:0:
329,192,79175,1,0,0:0:0:0:
109,192,79175,1,0,0:0:0:70:crash.wav
475,192,79351,1,0,0:0:0:0:
256,192,79527,1,0,0:0:0:0:
402,192,79704,1,0,0:0:0:0:
182,192,79880,1,0,0:0:0:0:
329,192,80057,1,0,0:0:0:0:
109,192,80233,1,0,0:0:0:0:
256,192,80410,1,0,0:0:0:0:
402,192,80586,1,0,0:0:0:70:crash.wav
36,192,80586,1,0,0:0:0:0:
109,192,80763,1,0,0:0:0:0:
182,192,80939,1,0,0:0:0:0:
256,192,81116,1,0,0:0:0:0:
475,192,81292,1,0,0:0:0:0:
402,192,81469,1,0,0:0:0:0:
329,192,81645,1,0,0:0:0:0:
256,192,81822,1,0,0:0:0:0:
182,192,81998,1,0,0:0:0:70:crash.wav
36,192,81998,1,0,0:0:0:50:kick_L.wav
329,192,82351,1,0,0:0:0:40:snare_SP.wav
475,192,82351,1,0,0:0:0:45:snare_D.wav
182,192,82527,1,0,0:0:0:45:snare_L.wav
36,192,82704,1,0,0:0:0:50:kick_L.wav
329,192,83057,1,0,0:0:0:40:snare_SP.wav
475,192,83057,1,0,0:0:0:45:snare_L.wav
256,192,83410,1,0,0:0:0:70:crash.wav
36,192,83410,1,0,0:0:0:0:
182,192,83586,1,0,0:0:0:0:
109,192,83763,1,0,0:0:0:0:
256,192,83939,1,0,0:0:0:0:
182,192,84116,1,0,0:0:0:0:
329,192,84292,1,0,0:0:0:0:
256,192,84469,1,0,0:0:0:0:
402,192,84645,1,0,0:0:0:0:
256,192,84822,5,0,0:0:0:70:crash.wav
475,192,84822,1,0,0:0:0:0:
329,192,84998,1,0,0:0:0:0:
402,192,85175,1,0,0:0:0:0:
256,192,85351,1,0,0:0:0:0:
329,192,85527,1,0,0:0:0:0:
182,192,85704,1,0,0:0:0:0:
256,192,85880,1,0,0:0:0:0:
109,192,86057,1,0,0:0:0:0:
475,192,86233,1,0,0:0:0:50:kick_L.wav
329,192,86233,1,0,0:0:0:70:crash.wav
182,192,86586,1,0,0:0:0:45:snare_D.wav
36,192,86586,1,0,0:0:0:40:snare_SP.wav
329,192,86763,1,0,0:0:0:45:snare_L.wav
475,192,86939,1,0,0:0:0:50:kick_L.wav
182,192,87292,1,0,0:0:0:45:snare_L.wav
36,192,87292,1,0,0:0:0:40:snare_SP.wav
109,192,87645,1,0,0:0:0:50:kick_L.wav
402,192,87645,1,0,0:0:0:0:
256,192,87998,1,0,0:0:0:40:snare_SP.wav
256,192,88175,1,0,0:0:0:50:kick_L.wav
109,192,88351,1,0,0:0:0:50:kick_L.wav
402,192,88351,1,0,0:0:0:70:crash.wav
182,192,90469,1,0,0:0:0:70:crash.wav
36,192,90469,1,0,0:0:0:50:kick_D.wav
475,192,90822,1,0,0:0:0:45:snare_L.wav
329,192,90822,1,0,0:0:0:0:
36,192,90998,1,0,0:0:0:0:
36,192,91351,1,0,0:0:0:50:kick_D.wav
182,192,91351,1,0,0:0:0:0:
475,192,91527,1,0,0:0:0:45:snare_L.wav
329,192,91527,1,0,0:0:0:0:
182,192,91704,1,0,0:0:0:0:
36,192,91880,1,0,0:0:0:50:kick_L.wav
36,192,92057,1,0,0:0:0:50:kick_L.wav
36,192,92410,1,0,0:0:0:50:kick_L.wav
36,192,92763,1,0,0:0:0:50:kick_L.wav
182,192,92939,1,0,0:0:0:0:
329,192,93116,1,0,0:0:0:0:
402,192,93204,1,0,0:0:0:0:
475,192,93292,1,0,0:0:0:50:kick_L.wav
36,192,93292,1,0,0:0:0:50:kick_D.wav
182,192,93469,1,0,0:0:0:0:
475,192,93645,1,0,0:0:0:45:snare_L.wav
36,192,93645,1,0,0:0:0:0:
182,192,93822,1,0,0:0:0:50:kick_D.wav
329,192,93998,128,0,94175:0:0:0:0:
109,192,94175,1,0,0:0:0:50:kick_D.wav
329,192,94351,128,0,94527:0:0:0:0:
475,192,94351,1,0,0:0:0:45:snare_L.wav
109,192,94527,1,0,0:0:0:50:kick_D.wav
256,192,94704,1,0,0:0:0:50:kick_D.wav
475,192,94704,128,0,95233:0:0:0:0:
109,192,95233,1,0,0:0:0:50:kick_D.wav
402,192,95233,1,0,0:0:0:0:
36,192,95586,1,0,0:0:0:50:kick_D.wav
182,192,95586,1,0,0:0:0:0:
475,192,95763,1,0,0:0:0:45:snare_L.wav
329,192,95763,1,0,0:0:0:0:
402,192,95939,1,0,0:0:0:0:
256,192,96027,1,0,0:0:0:0:
109,192,96116,1,0,0:0:0:50:kick_L.wav
109,192,96292,1,0,0:0:0:50:kick_L.wav
402,192,96645,1,0,0:0:0:50:kick_L.wav
402,192,96998,1,0,0:0:0:0:
182,192,97175,1,0,0:0:0:45:snare_L.wav
36,192,97175,1,0,0:0:0:0:
109,192,97351,1,0,0:0:0:0:
256,192,97439,1,0,0:0:0:0:
402,192,97527,1,0,0:0:0:50:kick_L.wav
402,192,97704,1,0,0:0:0:50:kick_L.wav
109,192,98057,1,0,0:0:0:50:kick_L.wav
109,192,98410,1,0,0:0:0:0:
475,192,98586,1,0,0:0:0:45:snare_L.wav
329,192,98586,1,0,0:0:0:0:
109,192,98763,1,0,0:0:0:50:kick_D.wav
402,192,98939,1,0,0:0:0:50:kick_D.wav
402,192,99116,1,0,0:0:0:50:kick_D.wav
402,192,99292,1,0,0:0:0:50:kick_D.wav
182,192,99469,1,0,0:0:0:0:
109,192,99557,1,0,0:0:0:0:
36,192,99645,1,0,0:0:0:0:
402,192,99822,1,0,0:0:0:50:kick_D.wav
329,192,99998,1,0,0:0:0:45:snare_L.wav
182,192,99998,1,0,0:0:0:0:
109,192,100175,1,0,0:0:0:50:kick_D.wav
329,192,100351,1,0,0:0:0:40:snare_SP.wav
475,192,100351,1,0,0:0:0:0:
36,192,100704,1,0,0:0:0:40:snare_SP.wav
182,192,100704,1,0,0:0:0:0:
475,192,101057,1,0,0:0:0:0:
329,192,101057,1,0,0:0:0:40:snare_SP.wav
36,192,101233,1,0,0:0:0:0:
109,192,101410,1,0,0:0:0:0:
182,192,101586,1,0,0:0:0:0:
402,192,101763,1,0,0:0:0:70:crash.wav
256,192,101763,128,0,102116:0:0:0:0:
475,192,102116,1,0,0:0:0:45:snare_L.wav
329,192,102292,1,0,0:0:0:0:
182,192,102469,128,0,102822:0:0:0:0:
329,192,102645,1,0,0:0:0:50:kick_D.wav
475,192,102822,1,0,0:0:0:45:snare_L.wav
256,192,102998,1,0,0:0:0:0:
36,192,103175,1,0,0:0:0:50:kick_L.wav
36,192,103351,1,0,0:0:0:50:kick_L.wav
36,192,103704,1,0,0:0:0:50:kick_L.wav
36,192,104057,1,0,0:0:0:50:kick_L.wav
475,192,104233,1,0,0:0:0:45:snare_L.wav
329,192,104233,1,0,0:0:0:0:
256,192,104410,1,0,0:0:0:0:
36,192,104586,1,0,0:0:0:50:kick_L.wav
182,192,104586,1,0,0:0:0:0:
329,192,104851,1,0,0:0:0:50:kick_L.wav
475,192,104851,1,0,0:0:0:0:
36,192,105116,1,0,0:0:0:50:kick_L.wav
182,192,105116,1,0,0:0:0:0:
329,192,105380,1,0,0:0:0:50:kick_L.wav
475,192,105380,1,0,0:0:0:0:
402,192,105645,1,0,0:0:0:50:kick_L.wav
109,192,105733,1,0,0:0:0:50:kick_L.wav
402,192,105822,1,0,0:0:0:50:kick_L.wav
109,192,105910,1,0,0:0:0:50:kick_L.wav
402,192,105998,128,0,106704:0:0:0:0:
36,192,106351,1,0,0:0:0:45:snare_L.wav
182,192,106351,1,0,0:0:0:0:
109,192,106880,1,0,0:0:0:50:kick_D.wav
475,192,107057,1,0,0:0:0:45:snare_L.wav
329,192,107057,1,0,0:0:0:0:
402,192,107233,1,0,0:0:0:0:
256,192,107322,1,0,0:0:0:0:
109,192,107410,1,0,0:0:0:50:kick_L.wav
109,192,107586,1,0,0:0:0:50:kick_L.wav
109,192,107939,1,0,0:0:0:50:kick_L.wav
402,192,108292,1,0,0:0:0:0:
182,192,108469,1,0,0:0:0:45:snare_L.wav
36,192,108469,1,0,0:0:0:0:
109,192,108645,1,0,0:0:0:0:
256,192,108733,1,0,0:0:0:0:
402,192,108822,1,0,0:0:0:50:kick_L.wav
402,192,108998,1,0,0:0:0:50:kick_L.wav
402,192,109351,1,0,0:0:0:50:kick_L.wav
109,192,109704,1,0,0:0:0:0:
475,192,109880,1,0,0:0:0:45:snare_L.wav
329,192,109880,1,0,0:0:0:0:
109,192,110057,1,0,0:0:0:50:kick_D.wav
402,192,110233,1,0,0:0:0:50:kick_D.wav
402,192,110410,1,0,0:0:0:50:kick_D.wav
402,192,110586,1,0,0:0:0:50:kick_D.wav
182,192,110763,1,0,0:0:0:0:
109,192,110851,1,0,0:0:0:0:
36,192,110939,1,0,0:0:0:50:kick_D.wav
329,192,111116,1,0,0:0:0:50:kick_D.wav
182,192,111292,1,0,0:0:0:45:snare_L.wav
36,192,111292,1,0,0:0:0:0:
329,192,111469,1,0,0:0:0:50:kick_D.wav
475,192,111469,1,0,0:0:0:0:
36,192,111645,128,0,112351:0:0:0:0:
182,192,111645,128,0,112351:0:0:0:0:
475,192,111998,1,0,0:0:0:50:snare_L.wav
329,192,112086,1,0,0:0:0:50:snare_L.wav
475,192,112351,1,0,0:0:0:40:snare_SP.wav
329,192,112439,1,0,0:0:0:40:snare_SP.wav
475,192,112704,1,0,0:0:0:45:snare_L.wav
329,192,112704,1,0,0:0:0:0:
36,192,112880,1,0,0:0:0:0:
109,192,112969,1,0,0:0:0:0:
402,192,113057,1,0,0:0:0:70:crash.wav
182,192,113057,128,0,113763:0:0:0:0:
475,192,113410,1,0,0:0:0:45:snare_L.wav
329,192,113410,1,0,0:0:0:0:
36,192,113763,1,0,0:0:0:0:
109,192,113939,1,0,0:0:0:50:kick_D.wav
475,192,114116,1,0,0:0:0:45:snare_L.wav
329,192,114116,1,0,0:0:0:0:
182,192,114292,1,0,0:0:0:0:
256,192,114380,1,0,0:0:0:0:
36,192,114469,1,0,0:0:0:50:kick_D.wav
329,192,114469,128,0,115175:0:0:0:0:
475,192,114822,1,0,0:0:0:45:snare_L.wav
182,192,114822,1,0,0:0:0:0:
109,192,115175,1,0,0:0:0:0:
182,192,115351,1,0,0:0:0:50:kick_D.wav
256,192,115527,1,0,0:0:0:45:snare_L.wav
475,192,115527,1,0,0:0:0:0:
402,192,115704,1,0,0:0:0:0:
109,192,115880,1,0,0:0:0:50:kick_D.wav
329,192,115880,1,0,0:0:0:0:
475,192,116233,1,0,0:0:0:45:snare_L.wav
329,192,116233,1,0,0:0:0:0:
36,192,116410,1,0,0:0:0:50:kick_D.wav
182,192,116410,1,0,0:0:0:0:
329,192,116586,1,0,0:0:0:0:
182,192,116763,1,0,0:0:0:50:kick_D.wav
475,192,116939,1,0,0:0:0:45:snare_L.wav
329,192,116939,1,0,0:0:0:0:
182,192,117116,1,0,0:0:0:0:
36,192,117292,128,0,118704:0:0:0:0:
329,192,117844,128,0,118704:0:0:0:0:
475,192,118704,1,0,0:0:0:40:snare_SP.wav
182,192,118704,1,0,0:0:0:50:kick_L.wav
475,192,119057,1,0,0:0:0:40:snare_SP.wav
182,192,119057,1,0,0:0:0:50:kick_L.wav
475,192,119410,1,0,0:0:0:40:snare_SP.wav
182,192,119410,1,0,0:0:0:50:kick_L.wav
475,192,119763,1,0,0:0:0:40:snare_SP.wav
182,192,119763,1,0,0:0:0:50:kick_L.wav
329,192,120116,1,0,0:0:0:50:kick_L.wav
475,192,120116,128,0,121527:0:0:0:0:
182,192,120292,1,0,0:0:0:50:kick_L.wav
36,192,120469,1,0,0:0:0:50:kick_L.wav
182,192,120645,1,0,0:0:0:50:kick_L.wav
329,192,120822,1,0,0:0:0:50:kick_L.wav
182,192,120998,1,0,0:0:0:50:kick_L.wav
36,192,121175,1,0,0:0:0:50:kick_L.wav
182,192,121351,1,0,0:0:0:50:kick_L.wav
329,192,121527,128,0,122233:0:0:0:0:
109,192,121527,128,0,122233:0:0:0:0:
256,192,122233,128,0,122586:0:0:0:0:
36,192,122233,128,0,122586:0:0:0:0:
182,192,122586,128,0,122939:0:0:0:0:
402,192,122586,128,0,122939:0:0:0:0:
109,192,122939,1,0,0:0:0:50:kick_L.wav
329,192,122939,1,0,0:0:0:40:snare_SP.wav
402,192,123204,1,0,0:0:0:40:snare_SP.wav
182,192,123204,1,0,0:0:0:50:kick_L.wav
329,192,123469,1,0,0:0:0:20:snare_SP.wav
109,192,123469,1,0,0:0:0:50:kick_L.wav
329,192,123645,1,0,0:0:0:40:snare_SP.wav
109,192,123645,1,0,0:0:0:50:kick_L.wav
402,192,123998,1,0,0:0:0:40:snare_SP.wav
36,192,123998,1,0,0:0:0:50:kick_L.wav
182,192,124351,1,0,0:0:0:50:kick_D.wav
402,192,124351,1,0,0:0:0:0:
256,192,124527,1,0,0:0:0:0:
329,192,124704,1,0,0:0:0:60:clap.wav
475,192,124704,1,0,0:0:0:50:kick_D.wav
109,192,125057,1,0,0:0:0:50:kick_D.wav
329,192,125057,1,0,0:0:0:0:
182,192,125233,1,0,0:0:0:0:
402,192,125410,1,0,0:0:0:60:clap.wav
256,192,125410,1,0,0:0:0:50:kick_D.wav
36,192,125763,1,0,0:0:0:50:kick_D.wav
256,192,125763,1,0,0:0:0:0:
109,192,125939,1,0,0:0:0:0:
182,192,126116,1,0,0:0:0:60:clap.wav
329,192,126116,1,0,0:0:0:50:kick_D.wav
329,192,126469,1,0,0:0:0:60:clap.wav
182,192,126469,1,0,0:0:0:50:kick_D.wav
475,192,126645,128,0,127175:0:0:0:0:
36,192,126822,1,0,0:0:0:50:kick_D.wav
36,192,127175,1,0,0:0:0:50:kick_D.wav
329,192,127175,1,0,0:0:0:40:snare_SP.wav
182,192,127351,1,0,0:0:0:50:kick_D.wav
36,192,127527,1,0,0:0:0:50:kick_D.wav
329,192,127527,1,0,0:0:0:40:snare_SP.wav
182,192,127704,1,0,0:0:0:50:kick_D.wav
402,192,127880,128,0,128586:0:0:0:0:
475,192,127880,128,0,128586:0:0:0:0:
36,192,128586,1,0,0:0:0:0:
109,192,128763,1,0,0:0:0:0:
182,192,128939,1,0,0:0:0:0:
256,192,129116,1,0,0:0:0:0:
475,192,129292,1,0,0:0:0:0:
402,192,129469,1,0,0:0:0:0:
329,192,129645,1,0,0:0:0:0:
256,192,129822,1,0,0:0:0:0:
36,192,129998,1,0,0:0:0:50:kick_D.wav
475,192,129998,128,0,130351:0:0:0:0:
256,192,130351,1,0,0:0:0:40:snare_SP.wav
256,192,130527,1,0,0:0:0:40:snare_SP.wav
36,192,130704,1,0,0:0:0:50:kick_D.wav
329,192,130704,1,0,0:0:0:0:
182,192,131057,1,0,0:0:0:0:
256,192,131233,1,0,0:0:0:0:
475,192,131410,1,0,0:0:0:50:kick_D.wav
329,192,131410,128,0,131763:0:0:0:0:
109,192,131763,1,0,0:0:0:40:snare_SP.wav
109,192,131939,1,0,0:0:0:40:snare_SP.wav
36,192,132116,1,0,0:0:0:50:kick_D.wav
329,192,132116,1,0,0:0:0:0:
182,192,132469,1,0,0:0:0:0:
256,192,132645,1,0,0:0:0:0:
36,192,132822,1,0,0:0:0:50:kick_L.wav
329,192,132822,1,0,0:0:0:0:
36,192,132998,1,0,0:0:0:50:kick_L.wav
36,192,133175,1,0,0:0:0:50:kick_L.wav
475,192,133351,1,0,0:0:0:0:
402,192,133439,1,0,0:0:0:0:
329,192,133527,1,0,0:0:0:50:kick_L.wav
36,192,133704,1,0,0:0:0:50:kick_L.wav
109,192,133792,1,0,0:0:0:50:kick_L.wav
182,192,133880,1,0,0:0:0:50:kick_L.wav
329,192,133880,128,0,134057:0:0:0:0:
402,192,134057,128,0,134233:0:0:0:0:
109,192,134233,128,0,135116:0:0:0:0:
475,192,134233,128,0,135116:0:0:0:0:
329,192,135116,1,0,0:0:0:0:
402,192,135292,1,0,0:0:0:40:snare_SP.wav
329,192,135469,1,0,0:0:0:0:
36,192,135645,1,0,0:0:0:50:kick_D.wav
109,192,135645,1,0,0:0:0:0:
182,192,135822,1,0,0:0:0:0:
329,192,135998,1,0,0:0:0:60:clap.wav
256,192,135998,1,0,0:0:0:50:kick_D.wav
109,192,136351,1,0,0:0:0:50:kick_D.wav
182,192,136351,1,0,0:0:0:0:
256,192,136527,1,0,0:0:0:0:
402,192,136704,1,0,0:0:0:60:clap.wav
329,192,136704,1,0,0:0:0:50:kick_D.wav
182,192,137057,1,0,0:0:0:50:kick_D.wav
256,192,137057,1,0,0:0:0:0:
329,192,137233,1,0,0:0:0:0:
475,192,137410,1,0,0:0:0:60:clap.wav
402,192,137410,1,0,0:0:0:50:kick_D.wav
475,192,137763,1,0,0:0:0:60:clap.wav
402,192,137763,1,0,0:0:0:50:kick_D.wav
256,192,137939,128,0,138469:0:0:0:0:
36,192,138469,1,0,0:0:0:50:kick_L.wav
329,192,138469,1,0,0:0:0:40:snare_SP.wav
475,192,138645,1,0,0:0:0:40:snare_SP.wav
182,192,138645,1,0,0:0:0:50:kick_L.wav
256,192,138822,128,0,139175:0:0:0:0:
109,192,139175,128,0,139880:0:0:0:0:
402,192,139175,128,0,139880:0:0:0:0:
36,192,139880,1,0,0:0:0:0:
109,192,140057,1,0,0:0:0:0:
182,192,140233,1,0,0:0:0:0:
256,192,140410,1,0,0:0:0:0:
475,192,140586,1,0,0:0:0:0:
402,192,140763,1,0,0:0:0:0:
329,192,140939,1,0,0:0:0:0:
256,192,141116,1,0,0:0:0:0:
109,192,141292,1,0,0:0:0:0:
182,192,141469,1,0,0:0:0:0:
256,192,141645,128,0,141998:0:0:0:0:
109,192,141998,1,0,0:0:0:50:kick_D.wav
475,192,141998,1,0,0:0:0:0:
402,192,142351,1,0,0:0:0:40:snare_SP.wav
182,192,142351,1,0,0:0:0:50:kick_D.wav
36,192,142704,1,0,0:0:0:0:
109,192,142880,1,0,0:0:0:0:
182,192,143057,128,0,143410:0:0:0:0:
36,192,143410,1,0,0:0:0:50:kick_D.wav
402,192,143410,1,0,0:0:0:0:
329,192,143763,1,0,0:0:0:40:snare_SP.wav
109,192,143763,1,0,0:0:0:50:kick_D.wav
109,192,144116,1,0,0:0:0:50:kick_D.wav
475,192,144292,1,0,0:0:0:45:snare_L.wav
329,192,144292,1,0,0:0:0:40:snare_SP.wav
475,192,144469,1,0,0:0:0:45:snare_L.wav
329,192,144469,1,0,0:0:0:40:snare_SP.wav
182,192,144645,128,0,144822:0:0:0:0:
36,192,144822,1,0,0:0:0:50:kick_D.wav
329,192,144998,1,0,0:0:0:40:snare_SP.wav
475,192,144998,1,0,0:0:0:45:snare_L.wav
329,192,145175,1,0,0:0:0:40:snare_SP.wav
475,192,145175,1,0,0:0:0:45:snare_L.wav
182,192,145351,128,0,145527:0:0:0:0:
36,192,145527,128,0,146586:0:0:0:0:
329,192,145527,128,0,146586:0:0:0:0:
182,192,146586,1,0,0:0:0:0:
256,192,146763,1,0,0:0:0:0:
329,192,146939,1,0,0:0:0:50:kick_D.wav
475,192,146939,1,0,0:0:0:40:snare_SP.wav
36,192,147204,1,0,0:0:0:50:kick_D.wav
182,192,147204,1,0,0:0:0:40:snare_SP.wav
329,192,147469,1,0,0:0:0:50:kick_D.wav
475,192,147469,1,0,0:0:0:40:snare_SP.wav
36,192,147645,1,0,0:0:0:50:kick_L.wav
109,192,147822,1,0,0:0:0:0:
329,192,147998,1,0,0:0:0:40:snare_SP.wav
475,192,147998,1,0,0:0:0:45:snare_L.wav
256,192,148175,1,0,0:0:0:0:
182,192,148351,1,0,0:0:0:40:snare_SP.wav
36,192,148351,1,0,0:0:0:50:kick_L.wav
475,192,148616,1,0,0:0:0:40:snare_SP.wav
329,192,148616,1,0,0:0:0:50:kick_L.wav
182,192,148880,1,0,0:0:0:40:snare_SP.wav
36,192,148880,1,0,0:0:0:50:kick_L.wav
475,192,149057,1,0,0:0:0:50:kick_L.wav
402,192,149233,1,0,0:0:0:0:
36,192,149410,1,0,0:0:0:40:snare_SP.wav
182,192,149410,1,0,0:0:0:45:snare_L.wav
256,192,149586,1,0,0:0:0:0:
329,192,149763,1,0,0:0:0:50:kick_L.wav
329,192,149939,1,0,0:0:0:50:kick_L.wav
329,192,150116,1,0,0:0:0:50:kick_L.wav
182,192,150292,1,0,0:0:0:0:
36,192,150380,1,0,0:0:0:0:
402,192,150469,1,0,0:0:0:45:snare_L.wav
402,192,150645,1,0,0:0:0:45:snare_L.wav
402,192,150822,1,0,0:0:0:45:snare_L.wav
182,192,150998,1,0,0:0:0:0:
36,192,151086,1,0,0:0:0:0:
402,192,151175,1,0,0:0:0:45:snare_L.wav
402,192,151351,1,0,0:0:0:45:snare_L.wav
402,192,151527,1,0,0:0:0:45:snare_L.wav
182,192,151704,1,0,0:0:0:0:
36,192,151792,1,0,0:0:0:0:
402,192,151880,128,0,152410:0:0:0:0:
256,192,152410,128,0,152586:0:0:0:0:
109,192,152586,128,0,152939:0:0:0:0:
329,192,152939,128,0,155057:0:0:0:0:
475,192,152939,128,0,155057:0:0:0:0:
36,192,155057,1,0,0:0:0:50:kick_L.wav
36,192,155233,1,0,0:0:0:45:snare_L.wav
182,192,155322,1,0,0:0:0:45:snare_L.wav
329,192,155410,1,0,0:0:0:70:crash.wav
475,192,155410,1,0,0:0:0:45:snare_D.wav
