osu file format v14

[General]
AudioFilename: Influenza.mp3
AudioLeadIn: 0
PreviewTime: 77763
Countdown: 0
SampleSet: Soft
StackLeniency: 0.7
Mode: 3
LetterboxInBreaks: 0
SpecialStyle: 0
WidescreenStoryboard: 0

[Editor]
DistanceSpacing: 0.8
BeatDivisor: 4
GridSize: 16
TimelineZoom: 1.5

[Metadata]
Title:Beethoven Influenza
TitleUnicode:Beethoven Influenza
Artist:BanYa & Warak
ArtistUnicode:BanYa & Warak
Creator:ExPew
Version:Hard
Source:PUMP IT UP - 2015 PRIME -
Tags:PIU Remix Ludwig van Beethoven Virus
BeatmapID:692727
BeatmapSetID:295397

[Difficulty]
HPDrainRate:7.9
CircleSize:7
OverallDifficulty:7.6
ApproachRate:0
SliderMultiplier:1.4
SliderTickRate:1

[Events]
//Background and Video events
0,0,"beethoven_influenza.jpg",0,0
//Break Periods
//Storyboard Layer 0 (Background)
//Storyboard Layer 1 (Fail)
//Storyboard Layer 2 (Pass)
//Storyboard Layer 3 (Foreground)
//Storyboard Sound Samples

[TimingPoints]
1528,352.941176470588,4,2,0,50,1,0

[HitObjects]
256,192,1528,5,0,0:0:0:70:crash.wav
36,192,1528,1,0,0:0:0:50:kick_L.wav
402,192,1528,1,0,0:0:0:0:
329,192,1704,1,0,0:0:0:0:
109,192,2057,1,0,0:0:0:0:
256,192,2057,1,0,0:0:0:0:
182,192,2233,1,0,0:0:0:0:
329,192,2586,1,0,0:0:0:0:
475,192,2586,1,0,0:0:0:0:
402,192,2763,1,0,0:0:0:0:
36,192,3116,1,0,0:0:0:0:
182,192,3116,1,0,0:0:0:0:
109,192,3292,1,0,0:0:0:0:
182,192,3645,1,0,0:0:0:0:
329,192,3645,1,0,0:0:0:0:
256,192,3822,1,0,0:0:0:0:
36,192,4175,1,0,0:0:0:0:
182,192,4351,1,0,0:0:0:0:
329,192,4351,1,0,0:0:0:0:
475,192,4527,1,0,0:0:0:0:
109,192,4880,1,0,0:0:0:0:
256,192,4880,1,0,0:0:0:0:
402,192,5057,1,0,0:0:0:0:
182,192,5410,1,0,0:0:0:0:
329,192,5410,1,0,0:0:0:0:
36,192,5586,1,0,0:0:0:0:
256,192,5939,1,0,0:0:0:0:
402,192,5939,1,0,0:0:0:0:
109,192,6116,5,0,0:0:0:0:
182,192,6469,1,0,0:0:0:0:
329,192,6469,1,0,0:0:0:0:
256,192,6645,1,0,0:0:0:0:
109,192,6822,1,0,0:0:0:0:
402,192,6822,1,0,0:0:0:0:
256,192,6998,1,0,0:0:0:0:
475,192,7175,5,0,0:0:0:70:crash.wav
36,192,7175,1,0,0:0:0:50:kick_L.wav
182,192,7175,1,0,0:0:0:0:
329,192,7351,1,0,0:0:0:0:
402,192,7704,1,0,0:0:0:0:
109,192,7704,1,0,0:0:0:0:
256,192,7880,1,0,0:0:0:0:
182,192,8233,1,0,0:0:0:0:
475,192,8233,1,0,0:0:0:0:
329,192,8410,1,0,0:0:0:0:
402,192,8763,1,0,0:0:0:0:
109,192,8763,1,0,0:0:0:0:
256,192,8939,1,0,0:0:0:0:
36,192,9292,1,0,0:0:0:0:
329,192,9292,1,0,0:0:0:0:
182,192,9469,1,0,0:0:0:0:
475,192,9822,1,0,0:0:0:0:
329,192,9998,1,0,0:0:0:0:
182,192,9998,1,0,0:0:0:0:
475,192,10175,1,0,0:0:0:0:
109,192,10527,1,0,0:0:0:0:
256,192,10527,1,0,0:0:0:0:
402,192,10704,1,0,0:0:0:0:
182,192,11057,1,0,0:0:0:0:
329,192,11057,1,0,0:0:0:0:
36,192,11233,1,0,0:0:0:0:
256,192,11586,1,0,0:0:0:0:
402,192,11586,1,0,0:0:0:0:
109,192,11763,1,0,0:0:0:0:
329,192,12116,1,0,0:0:0:0:
475,192,12116,1,0,0:0:0:0:
256,192,12292,1,0,0:0:0:0:
36,192,12469,1,0,0:0:0:0:
182,192,12469,1,0,0:0:0:0:
256,192,12645,1,0,0:0:0:0:
475,192,12822,1,0,0:0:0:70:crash.wav
109,192,12822,1,0,0:0:0:50:kick_L.wav
329,192,12822,1,0,0:0:0:0:
36,192,13351,1,0,0:0:0:0:
475,192,13527,1,0,0:0:0:45:snare_L.wav
182,192,13527,1,0,0:0:0:0:
36,192,13704,1,0,0:0:0:0:
182,192,13880,1,0,0:0:0:0:
329,192,14057,1,0,0:0:0:0:
36,192,14233,1,0,0:0:0:50:kick_L.wav
475,192,14233,1,0,0:0:0:0:
475,192,14410,128,0,14763:0:0:0:0:
36,192,14763,1,0,0:0:0:0:
475,192,14939,1,0,0:0:0:45:snare_L.wav
182,192,14939,1,0,0:0:0:0:
36,192,15116,1,0,0:0:0:0:
329,192,15292,1,0,0:0:0:0:
475,192,15469,1,0,0:0:0:0:
36,192,15645,1,0,0:0:0:50:kick_L.wav
256,192,15645,128,0,15998:0:0:0:0:
109,192,15998,128,0,16351:0:0:0:0:
182,192,16351,1,0,0:0:0:45:snare_L.wav
402,192,16351,128,0,16704:0:0:0:0:
256,192,16704,128,0,17057:0:0:0:0:
329,192,17057,5,0,0:0:0:70:crash.wav
36,192,17057,1,0,0:0:0:50:kick_L.wav
475,192,17233,1,0,0:0:0:0:
329,192,17322,1,0,0:0:0:0:
182,192,17410,1,0,0:0:0:0:
182,192,17586,1,0,0:0:0:0:
402,192,17763,1,0,0:0:0:0:
402,192,17939,1,0,0:0:0:0:
36,192,18116,1,0,0:0:0:0:
182,192,18204,1,0,0:0:0:0:
36,192,18292,1,0,0:0:0:0:
182,192,18380,1,0,0:0:0:0:
475,192,18469,1,0,0:0:0:50:kick_L.wav
329,192,18469,1,0,0:0:0:70:crash.wav
475,192,18998,1,0,0:0:0:0:
36,192,19175,1,0,0:0:0:45:snare_L.wav
329,192,19175,1,0,0:0:0:0:
475,192,19351,1,0,0:0:0:0:
329,192,19527,1,0,0:0:0:0:
182,192,19704,1,0,0:0:0:0:
475,192,19880,1,0,0:0:0:50:kick_L.wav
36,192,19880,1,0,0:0:0:0:
36,192,20057,128,0,20410:0:0:0:0:
475,192,20410,1,0,0:0:0:0:
36,192,20586,1,0,0:0:0:45:snare_L.wav
329,192,20586,1,0,0:0:0:0:
475,192,20763,1,0,0:0:0:0:
182,192,20939,1,0,0:0:0:0:
36,192,21116,1,0,0:0:0:0:
475,192,21292,1,0,0:0:0:50:kick_L.wav
256,192,21292,128,0,21645:0:0:0:0:
402,192,21645,128,0,21998:0:0:0:0:
329,192,21998,1,0,0:0:0:45:snare_L.wav
109,192,21998,128,0,22351:0:0:0:0:
256,192,22351,128,0,22704:0:0:0:0:
36,192,22704,1,0,0:0:0:50:kick_L.wav
475,192,22880,1,0,0:0:0:50:kick_L.wav
329,192,22969,1,0,0:0:0:50:kick_L.wav
182,192,23057,1,0,0:0:0:50:kick_L.wav
475,192,23233,1,0,0:0:0:50:kick_L.wav
329,192,23322,1,0,0:0:0:50:kick_L.wav
182,192,23410,1,0,0:0:0:50:kick_L.wav
36,192,23410,1,0,0:0:0:45:snare_L.wav
329,192,23645,1,0,0:0:0:50:kick_L.wav
36,192,23763,1,0,0:0:0:45:snare_L.wav
182,192,23763,1,0,0:0:0:50:kick_L.wav
329,192,23998,1,0,0:0:0:50:kick_L.wav
109,192,24116,1,0,0:0:0:0:
475,192,24116,1,0,0:0:0:0:
256,192,24292,1,0,0:0:0:0:
402,192,24469,128,0,24822:0:0:0:0:
475,192,24822,1,0,0:0:0:0:
36,192,24822,1,0,0:0:0:0:
182,192,24998,1,0,0:0:0:0:
329,192,25175,128,0,25527:0:0:0:0:
36,192,25527,1,0,0:0:0:0:
182,192,25616,1,0,0:0:0:0:
475,192,25704,1,0,0:0:0:0:
329,192,25792,1,0,0:0:0:0:
182,192,25880,1,0,0:0:0:0:
36,192,25969,1,0,0:0:0:0:
329,192,26057,1,0,0:0:0:0:
475,192,26145,1,0,0:0:0:0:
36,192,26233,1,0,0:0:0:0:
182,192,26322,1,0,0:0:0:0:
475,192,26410,1,0,0:0:0:0:
329,192,26498,1,0,0:0:0:0:
182,192,26586,1,0,0:0:0:0:
36,192,26675,1,0,0:0:0:0:
329,192,26763,1,0,0:0:0:0:
475,192,26851,1,0,0:0:0:0:
36,192,26939,1,0,0:0:0:0:
182,192,26939,1,0,0:0:0:0:
329,192,27116,1,0,0:0:0:0:
475,192,27292,128,0,27645:0:0:0:0:
109,192,27645,1,0,0:0:0:0:
402,192,27645,1,0,0:0:0:0:
256,192,27822,1,0,0:0:0:0:
402,192,27998,128,0,28351:0:0:0:0:
182,192,28351,1,0,0:0:0:0:
36,192,28439,1,0,0:0:0:0:
475,192,28527,1,0,0:0:0:0:
329,192,28616,1,0,0:0:0:0:
36,192,28704,1,0,0:0:0:0:
182,192,28792,1,0,0:0:0:0:
329,192,28880,1,0,0:0:0:0:
475,192,28969,1,0,0:0:0:0:
182,192,29057,1,0,0:0:0:0:
36,192,29145,1,0,0:0:0:0:
475,192,29233,1,0,0:0:0:0:
329,192,29322,1,0,0:0:0:0:
36,192,29410,1,0,0:0:0:0:
182,192,29498,1,0,0:0:0:0:
329,192,29586,1,0,0:0:0:0:
475,192,29675,1,0,0:0:0:0:
36,192,29763,1,0,0:0:0:0:
182,192,29763,1,0,0:0:0:0:
329,192,29939,1,0,0:0:0:0:
475,192,30116,5,0,0:0:0:0:
182,192,30292,1,0,0:0:0:0:
36,192,30469,1,0,0:0:0:0:
329,192,30469,1,0,0:0:0:0:
182,192,30645,1,0,0:0:0:0:
475,192,30645,1,0,0:0:0:0:
36,192,30822,1,0,0:0:0:0:
329,192,30822,1,0,0:0:0:0:
182,192,30998,1,0,0:0:0:0:
475,192,30998,1,0,0:0:0:0:
256,192,31175,5,0,0:0:0:70:crash.wav
36,192,31175,1,0,0:0:0:50:kick_L.wav
402,192,31175,1,0,0:0:0:0:
36,192,32057,5,0,0:0:0:50:kick_D.wav
109,192,32233,1,0,0:0:0:50:kick_D.wav
182,192,32410,1,0,0:0:0:50:kick_D.wav
36,192,32586,1,0,0:0:0:50:kick_L.wav
256,192,32586,1,0,0:0:0:70:crash.wav
475,192,32586,1,0,0:0:0:0:
329,192,32586,128,0,32939:0:0:0:0:
182,192,32763,1,0,0:0:0:0:
109,192,32939,1,0,0:0:0:50:kick_L.wav
475,192,32939,1,0,0:0:0:45:snare_L.wav
402,192,33116,1,0,0:0:0:0:
36,192,33292,1,0,0:0:0:50:kick_L.wav
256,192,33292,128,0,33645:0:0:0:0:
402,192,33469,1,0,0:0:0:0:
109,192,33645,1,0,0:0:0:50:kick_L.wav
475,192,33645,1,0,0:0:0:45:snare_L.wav
402,192,33822,1,0,0:0:0:0:
36,192,33998,1,0,0:0:0:50:kick_L.wav
182,192,33998,128,0,34704:0:0:0:0:
475,192,34175,1,0,0:0:0:0:
329,192,34351,1,0,0:0:0:45:snare_L.wav
109,192,34351,1,0,0:0:0:50:kick_L.wav
475,192,34527,1,0,0:0:0:0:
36,192,34704,1,0,0:0:0:50:kick_L.wav
475,192,34880,1,0,0:0:0:0:
256,192,34880,128,0,35410:0:0:0:0:
36,192,35057,1,0,0:0:0:50:kick_L.wav
402,192,35057,1,0,0:0:0:45:snare_L.wav
109,192,35233,1,0,0:0:0:0:
36,192,35410,1,0,0:0:0:50:kick_L.wav
402,192,35410,1,0,0:0:0:0:
475,192,35586,1,0,0:0:0:45:snare_L.wav
329,192,35586,1,0,0:0:0:50:kick_L.wav
475,192,35763,1,0,0:0:0:45:snare_L.wav
329,192,35763,1,0,0:0:0:50:kick_L.wav
475,192,35939,1,0,0:0:0:45:snare_L.wav
329,192,35939,1,0,0:0:0:50:kick_L.wav
36,192,36116,1,0,0:0:0:50:kick_L.wav
329,192,36292,1,0,0:0:0:50:kick_L.wav
475,192,36292,1,0,0:0:0:45:snare_L.wav
329,192,36469,1,0,0:0:0:50:kick_L.wav
475,192,36469,1,0,0:0:0:45:snare_L.wav
475,192,36645,1,0,0:0:0:45:snare_L.wav
329,192,36645,1,0,0:0:0:50:kick_L.wav
256,192,36822,1,0,0:0:0:70:crash.wav
36,192,36822,1,0,0:0:0:50:kick_L.wav
402,192,36822,128,0,37880:0:0:0:0:
182,192,36998,1,0,0:0:0:0:
329,192,37175,1,0,0:0:0:45:snare_L.wav
109,192,37175,1,0,0:0:0:50:kick_L.wav
256,192,37351,1,0,0:0:0:0:
36,192,37527,1,0,0:0:0:50:kick_L.wav
182,192,37527,1,0,0:0:0:0:
109,192,37704,1,0,0:0:0:0:
182,192,37880,1,0,0:0:0:50:kick_L.wav
329,192,37880,1,0,0:0:0:45:snare_L.wav
475,192,37880,1,0,0:0:0:0:
402,192,38057,1,0,0:0:0:0:
109,192,38057,1,0,0:0:0:0:
36,192,38233,1,0,0:0:0:50:kick_L.wav
182,192,38233,1,0,0:0:0:0:
475,192,38233,128,0,38939:0:0:0:0:
109,192,38410,1,0,0:0:0:0:
402,192,38586,1,0,0:0:0:45:snare_L.wav
256,192,38586,1,0,0:0:0:50:kick_L.wav
329,192,38763,1,0,0:0:0:0:
182,192,38939,1,0,0:0:0:50:kick_L.wav
402,192,38939,1,0,0:0:0:0:
109,192,39116,1,0,0:0:0:0:
36,192,39292,1,0,0:0:0:50:kick_L.wav
329,192,39292,1,0,0:0:0:45:snare_L.wav
475,192,39292,1,0,0:0:0:0:
256,192,39469,1,0,0:0:0:0:
402,192,39469,1,0,0:0:0:0:
182,192,39645,1,0,0:0:0:50:kick_L.wav
329,192,39645,128,0,40351:0:0:0:0:
475,192,39822,1,0,0:0:0:0:
109,192,39998,1,0,0:0:0:45:snare_L.wav
36,192,39998,1,0,0:0:0:50:kick_L.wav
475,192,40175,1,0,0:0:0:0:
182,192,40351,1,0,0:0:0:50:kick_L.wav
256,192,40351,1,0,0:0:0:0:
109,192,40527,1,0,0:0:0:0:
36,192,40704,1,0,0:0:0:50:kick_L.wav
402,192,40704,1,0,0:0:0:45:snare_L.wav
256,192,40704,1,0,0:0:0:0:
475,192,40880,1,0,0:0:0:0:
182,192,40880,1,0,0:0:0:0:
36,192,41057,1,0,0:0:0:50:kick_L.wav
329,192,41057,1,0,0:0:0:0:
36,192,41233,1,0,0:0:0:50:kick_L.wav
329,192,41233,1,0,0:0:0:0:
36,192,41410,1,0,0:0:0:50:kick_L.wav
329,192,41410,1,0,0:0:0:0:
475,192,41586,1,0,0:0:0:50:sp.wav
182,192,41586,1,0,0:0:0:50:kick_L.wav
36,192,41763,1,0,0:0:0:50:sp.wav
329,192,41763,1,0,0:0:0:0:
475,192,41939,1,0,0:0:0:50:sp.wav
182,192,41939,1,0,0:0:0:0:
402,192,42027,1,0,0:0:0:50:sp.wav
109,192,42027,1,0,0:0:0:0:
329,192,42116,1,0,0:0:0:50:sp.wav
36,192,42116,1,0,0:0:0:0:
36,192,42292,1,0,0:0:0:50:sp.wav
329,192,42292,1,0,0:0:0:0:
475,192,42469,1,0,0:0:0:45:snare_L.wav
182,192,42469,1,0,0:0:0:50:kick_L.wav
329,192,42469,128,0,42822:0:0:0:0:
402,192,43351,1,0,0:0:0:0:
329,192,43527,1,0,0:0:0:45:snare_L.wav
182,192,43527,1,0,0:0:0:0:
109,192,43704,1,0,0:0:0:0:
256,192,43880,1,0,0:0:0:70:crash.wav
36,192,43880,1,0,0:0:0:50:kick_D.wav
402,192,43880,128,0,44233:0:0:0:0:
475,192,44233,1,0,0:0:0:45:snare_L.wav
256,192,44233,1,0,0:0:0:0:
329,192,44410,1,0,0:0:0:0:
256,192,44586,128,0,44939:0:0:0:0:
109,192,44763,1,0,0:0:0:50:kick_D.wav
402,192,44939,1,0,0:0:0:45:snare_L.wav
182,192,44939,1,0,0:0:0:0:
256,192,45116,1,0,0:0:0:0:
36,192,45292,1,0,0:0:0:50:kick_D.wav
182,192,45292,128,0,45822:0:0:0:0:
475,192,45645,1,0,0:0:0:45:snare_L.wav
329,192,45645,1,0,0:0:0:0:
182,192,45998,1,0,0:0:0:0:
475,192,46175,1,0,0:0:0:0:
329,192,46263,1,0,0:0:0:0:
182,192,46351,1,0,0:0:0:0:
36,192,46439,1,0,0:0:0:0:
182,192,46527,1,0,0:0:0:0:
329,192,46616,1,0,0:0:0:0:
475,192,46704,1,0,0:0:0:50:kick_D.wav
475,192,46880,1,0,0:0:0:50:kick_D.wav
36,192,47057,1,0,0:0:0:45:snare_L.wav
182,192,47057,1,0,0:0:0:0:
36,192,47233,1,0,0:0:0:45:snare_L.wav
182,192,47233,1,0,0:0:0:0:
475,192,47410,1,0,0:0:0:50:kick_D.wav
475,192,47586,1,0,0:0:0:50:kick_D.wav
36,192,47763,1,0,0:0:0:45:snare_L.wav
182,192,47763,1,0,0:0:0:0:
36,192,47939,1,0,0:0:0:45:snare_L.wav
182,192,47939,1,0,0:0:0:0:
109,192,48116,128,0,48822:0:0:0:0:
329,192,48116,1,0,0:0:0:0:
402,192,48292,1,0,0:0:0:50:kick_D.wav
475,192,48469,1,0,0:0:0:45:snare_L.wav
256,192,48469,1,0,0:0:0:0:
256,192,48822,1,0,0:0:0:0:
109,192,48998,1,0,0:0:0:50:kick_D.wav
329,192,48998,1,0,0:0:0:0:
402,192,49175,1,0,0:0:0:45:snare_L.wav
182,192,49175,1,0,0:0:0:0:
109,192,49263,1,0,0:0:0:0:
36,192,49351,1,0,0:0:0:0:
182,192,49439,1,0,0:0:0:0:
329,192,49527,1,0,0:0:0:50:kick_D.wav
475,192,49527,128,0,50233:0:0:0:0:
182,192,49880,1,0,0:0:0:45:snare_L.wav
402,192,49880,1,0,0:0:0:0:
256,192,50233,1,0,0:0:0:0:
36,192,50233,1,0,0:0:0:0:
182,192,50410,1,0,0:0:0:50:kick_D.wav
329,192,50586,1,0,0:0:0:45:snare_L.wav
109,192,50586,1,0,0:0:0:0:
402,192,50675,1,0,0:0:0:0:
475,192,50763,1,0,0:0:0:0:
329,192,50851,1,0,0:0:0:0:
182,192,50939,1,0,0:0:0:50:kick_D.wav
36,192,50939,128,0,51645:0:0:0:0:
256,192,51292,1,0,0:0:0:0:
402,192,51292,1,0,0:0:0:45:snare_L.wav
329,192,51645,1,0,0:0:0:0:
475,192,51645,1,0,0:0:0:0:
256,192,51822,1,0,0:0:0:50:kick_D.wav
36,192,51998,1,0,0:0:0:45:snare_L.wav
182,192,51998,1,0,0:0:0:0:
475,192,52175,1,0,0:0:0:0:
36,192,52351,1,0,0:0:0:50:kick_D.wav
182,192,52439,1,0,0:0:0:50:kick_D.wav
36,192,52527,1,0,0:0:0:50:kick_D.wav
182,192,52616,1,0,0:0:0:50:kick_D.wav
329,192,52704,1,0,0:0:0:45:snare_L.wav
475,192,52792,1,0,0:0:0:45:snare_L.wav
182,192,52880,1,0,0:0:0:50:kick_D.wav
36,192,52969,1,0,0:0:0:50:kick_D.wav
475,192,53057,1,0,0:0:0:45:snare_D.wav
329,192,53145,1,0,0:0:0:45:snare_D.wav
475,192,53233,1,0,0:0:0:45:snare_D.wav
329,192,53322,1,0,0:0:0:45:snare_D.wav
475,192,53410,1,0,0:0:0:45:snare_D.wav
329,192,53498,1,0,0:0:0:45:snare_D.wav
182,192,53586,1,0,0:0:0:50:kick_D.wav
36,192,53675,1,0,0:0:0:50:kick_D.wav
402,192,53763,1,0,0:0:0:50:kick_D.wav
256,192,53763,128,0,54469:0:0:0:0:
109,192,53939,1,0,0:0:0:50:kick_L.wav
475,192,54116,1,0,0:0:0:45:snare_L.wav
329,192,54116,1,0,0:0:0:0:
109,192,54292,1,0,0:0:0:50:kick_D.wav
109,192,54469,1,0,0:0:0:50:kick_L.wav
329,192,54645,1,0,0:0:0:0:
36,192,54822,1,0,0:0:0:50:kick_L.wav
182,192,54822,1,0,0:0:0:0:
329,192,54998,1,0,0:0:0:0:
36,192,55175,1,0,0:0:0:50:kick_L.wav
182,192,55175,1,0,0:0:0:70:crash.wav
402,192,55351,1,0,0:0:0:0:
109,192,55527,1,0,0:0:0:50:kick_L.wav
256,192,55527,1,0,0:0:0:45:snare_L.wav
475,192,55704,1,0,0:0:0:0:
36,192,55880,1,0,0:0:0:50:kick_L.wav
182,192,55880,1,0,0:0:0:0:
402,192,56057,1,0,0:0:0:0:
256,192,56233,1,0,0:0:0:50:kick_L.wav
109,192,56233,1,0,0:0:0:45:snare_L.wav
475,192,56410,1,0,0:0:0:0:
109,192,56586,1,0,0:0:0:50:kick_L.wav
329,192,56586,1,0,0:0:0:0:
329,192,56763,1,0,0:0:0:0:
182,192,56939,1,0,0:0:0:50:kick_L.wav
402,192,56939,1,0,0:0:0:45:snare_L.wav
182,192,57116,1,0,0:0:0:0:
36,192,57292,1,0,0:0:0:50:kick_L.wav
36,192,57469,1,0,0:0:0:50:kick_L.wav
36,192,57645,1,0,0:0:0:50:kick_L.wav
36,192,57822,1,0,0:0:0:50:kick_L.wav
182,192,57910,1,0,0:0:0:50:kick_L.wav
329,192,57998,1,0,0:0:0:50:kick_L.wav
475,192,57998,1,0,0:0:0:0:
109,192,58175,1,0,0:0:0:0:
256,192,58351,1,0,0:0:0:50:kick_L.wav
402,192,58351,1,0,0:0:0:45:snare_L.wav
36,192,58527,1,0,0:0:0:0:
329,192,58704,1,0,0:0:0:50:kick_L.wav
475,192,58704,1,0,0:0:0:0:
109,192,58880,1,0,0:0:0:0:
256,192,59057,1,0,0:0:0:50:kick_L.wav
402,192,59057,1,0,0:0:0:45:snare_L.wav
36,192,59233,1,0,0:0:0:0:
182,192,59410,1,0,0:0:0:50:kick_L.wav
475,192,59410,1,0,0:0:0:0:
475,192,59586,1,0,0:0:0:0:
402,192,59763,1,0,0:0:0:50:kick_L.wav
109,192,59763,1,0,0:0:0:45:snare_L.wav
109,192,59939,1,0,0:0:0:0:
329,192,60116,1,0,0:0:0:50:kick_L.wav
182,192,60204,1,0,0:0:0:50:kick_L.wav
36,192,60292,1,0,0:0:0:50:kick_L.wav
256,192,60469,1,0,0:0:0:50:kick_L.wav
475,192,60645,1,0,0:0:0:50:sp.wav
329,192,60733,1,0,0:0:0:50:sp.wav
36,192,60822,1,0,0:0:0:50:kick_L.wav
182,192,60822,1,0,0:0:0:0:
109,192,60998,1,0,0:0:0:0:
475,192,61175,1,0,0:0:0:45:snare_L.wav
329,192,61175,1,0,0:0:0:50:kick_L.wav
402,192,61351,1,0,0:0:0:0:
109,192,61527,1,0,0:0:0:50:kick_L.wav
182,192,61527,1,0,0:0:0:0:
36,192,61704,1,0,0:0:0:0:
475,192,61880,1,0,0:0:0:45:snare_L.wav
402,192,61880,1,0,0:0:0:50:kick_L.wav
329,192,62057,1,0,0:0:0:0:
36,192,62233,1,0,0:0:0:50:kick_L.wav
256,192,62233,1,0,0:0:0:0:
256,192,62410,1,0,0:0:0:0:
402,192,62586,1,0,0:0:0:50:kick_L.wav
182,192,62586,1,0,0:0:0:45:snare_L.wav
182,192,62763,1,0,0:0:0:0:
36,192,62939,1,0,0:0:0:50:kick_L.wav
36,192,63116,1,0,0:0:0:50:kick_L.wav
36,192,63292,1,0,0:0:0:50:kick_L.wav
182,192,63380,1,0,0:0:0:45:snare_D.wav
475,192,63469,1,0,0:0:0:45:snare_L.wav
329,192,63469,1,0,0:0:0:0:
182,192,63557,1,0,0:0:0:45:snare_D.wav
36,192,63645,1,0,0:0:0:50:kick_L.wav
402,192,63645,1,0,0:0:0:0:
256,192,63822,1,0,0:0:0:0:
475,192,63998,1,0,0:0:0:45:snare_L.wav
109,192,63998,1,0,0:0:0:50:kick_L.wav
329,192,64175,1,0,0:0:0:0:
182,192,64351,1,0,0:0:0:50:kick_L.wav
109,192,64439,1,0,0:0:0:50:kick_L.wav
36,192,64527,1,0,0:0:0:50:kick_L.wav
475,192,64704,1,0,0:0:0:45:snare_L.wav
329,192,64704,1,0,0:0:0:50:kick_L.wav
256,192,64880,1,0,0:0:0:0:
36,192,65057,1,0,0:0:0:50:kick_L.wav
182,192,65057,1,0,0:0:0:0:
36,192,65233,1,0,0:0:0:50:kick_L.wav
182,192,65233,1,0,0:0:0:0:
36,192,65410,1,0,0:0:0:50:kick_L.wav
182,192,65410,1,0,0:0:0:0:
475,192,65498,1,0,0:0:0:50:kick_L.wav
329,192,65586,1,0,0:0:0:50:kick_L.wav
182,192,65675,1,0,0:0:0:50:kick_L.wav
36,192,65763,1,0,0:0:0:50:kick_D.wav
402,192,65851,1,0,0:0:0:50:kick_D.wav
256,192,65939,1,0,0:0:0:40:snare_SP.wav
109,192,66027,1,0,0:0:0:40:snare_SP.wav
329,192,66116,1,0,0:0:0:50:kick_L.wav
402,192,66160,1,0,0:0:0:50:kick_L.wav
475,192,66204,1,0,0:0:0:50:kick_L.wav
36,192,66292,1,0,0:0:0:50:kick_D.wav
109,192,66336,1,0,0:0:0:50:kick_D.wav
182,192,66380,1,0,0:0:0:50:kick_D.wav
36,192,66469,1,0,0:0:0:50:kick_L.wav
402,192,66469,1,0,0:0:0:70:crash.wav
329,192,66469,128,0,66998:0:0:0:0:
109,192,66822,1,0,0:0:0:50:kick_L.wav
256,192,66822,1,0,0:0:0:45:snare_L.wav
475,192,66998,1,0,0:0:0:0:
402,192,67086,1,0,0:0:0:0:
329,192,67175,1,0,0:0:0:50:kick_L.wav
36,192,67175,1,0,0:0:0:0:
256,192,67351,1,0,0:0:0:0:
109,192,67527,1,0,0:0:0:50:kick_L.wav
475,192,67527,1,0,0:0:0:45:snare_L.wav
329,192,67527,1,0,0:0:0:0:
256,192,67704,1,0,0:0:0:0:
36,192,67880,1,0,0:0:0:50:kick_L.wav
402,192,67880,1,0,0:0:0:0:
256,192,67998,1,0,0:0:0:0:
402,192,68086,1,0,0:0:0:0:
475,192,68233,1,0,0:0:0:45:snare_L.wav
109,192,68233,1,0,0:0:0:50:kick_L.wav
329,192,68233,1,0,0:0:0:0:
182,192,68410,1,0,0:0:0:0:
402,192,68586,1,0,0:0:0:50:kick_L.wav
36,192,68586,1,0,0:0:0:0:
256,192,68704,1,0,0:0:0:0:
402,192,68792,1,0,0:0:0:0:
256,192,68939,128,0,69292:0:0:0:0:
109,192,69292,1,0,0:0:0:50:kick_D.wav
36,192,69292,128,0,69645:0:0:0:0:
475,192,69645,1,0,0:0:0:45:snare_L.wav
329,192,69645,1,0,0:0:0:0:
109,192,69822,1,0,0:0:0:0:
256,192,69880,1,0,0:0:0:0:
36,192,69998,1,0,0:0:0:50:kick_D.wav
402,192,69998,1,0,0:0:0:0:
256,192,70175,1,0,0:0:0:50:kick_D.wav
109,192,70175,1,0,0:0:0:0:
329,192,70351,1,0,0:0:0:45:snare_L.wav
475,192,70351,1,0,0:0:0:0:
182,192,70527,1,0,0:0:0:0:
36,192,70704,1,0,0:0:0:50:kick_D.wav
402,192,70704,1,0,0:0:0:0:
475,192,70792,1,0,0:0:0:0:
182,192,70880,1,0,0:0:0:0:
256,192,70969,1,0,0:0:0:0:
36,192,71057,1,0,0:0:0:45:snare_L.wav
402,192,71057,1,0,0:0:0:0:
475,192,71145,1,0,0:0:0:0:
182,192,71233,1,0,0:0:0:0:
256,192,71322,1,0,0:0:0:0:
36,192,71410,1,0,0:0:0:50:kick_D.wav
402,192,71410,1,0,0:0:0:0:
109,192,71586,1,0,0:0:0:50:kick_D.wav
475,192,71586,1,0,0:0:0:0:
182,192,71763,128,0,72116:0:0:0:0:
36,192,72116,1,0,0:0:0:50:kick_L.wav
402,192,72116,128,0,72645:0:0:0:0:
109,192,72469,1,0,0:0:0:50:kick_L.wav
256,192,72469,1,0,0:0:0:45:snare_L.wav
329,192,72645,1,0,0:0:0:0:
182,192,72733,1,0,0:0:0:0:
36,192,72822,1,0,0:0:0:50:kick_L.wav
256,192,72910,1,0,0:0:0:0:
109,192,72998,1,0,0:0:0:0:
329,192,73086,1,0,0:0:0:0:
182,192,73175,1,0,0:0:0:45:snare_L.wav
402,192,73263,1,0,0:0:0:0:
256,192,73351,1,0,0:0:0:0:
475,192,73439,1,0,0:0:0:0:
109,192,73527,1,0,0:0:0:50:kick_L.wav
329,192,73527,1,0,0:0:0:0:
329,192,73704,1,0,0:0:0:0:
402,192,73792,1,0,0:0:0:0:
256,192,73880,1,0,0:0:0:45:snare_L.wav
36,192,73880,1,0,0:0:0:50:kick_L.wav
402,192,74057,1,0,0:0:0:0:
109,192,74233,1,0,0:0:0:50:kick_L.wav
329,192,74233,1,0,0:0:0:0:
475,192,74410,1,0,0:0:0:0:
402,192,74586,128,0,74939:0:0:0:0:
182,192,74939,1,0,0:0:0:50:kick_D.wav
36,192,74939,128,0,75292:0:0:0:0:
475,192,75292,1,0,0:0:0:45:snare_L.wav
182,192,75380,1,0,0:0:0:0:
329,192,75469,1,0,0:0:0:0:
475,192,75557,1,0,0:0:0:0:
36,192,75645,1,0,0:0:0:50:kick_D.wav
182,192,75645,1,0,0:0:0:0:
109,192,75822,1,0,0:0:0:50:kick_D.wav
475,192,75998,1,0,0:0:0:45:snare_L.wav
329,192,75998,1,0,0:0:0:0:
402,192,76175,1,0,0:0:0:50:kick_D.wav
36,192,76351,1,0,0:0:0:0:
109,192,76439,1,0,0:0:0:0:
182,192,76527,1,0,0:0:0:50:kick_D.wav
256,192,76616,1,0,0:0:0:0:
109,192,76704,1,0,0:0:0:45:snare_L.wav
182,192,76792,1,0,0:0:0:0:
256,192,76880,1,0,0:0:0:50:kick_D.wav
329,192,76969,1,0,0:0:0:0:
475,192,77057,1,0,0:0:0:45:snare_L.wav
402,192,77145,1,0,0:0:0:0:
329,192,77233,1,0,0:0:0:50:kick_D.wav
256,192,77322,1,0,0:0:0:0:
402,192,77410,1,0,0:0:0:45:snare_L.wav
329,192,77498,1,0,0:0:0:0:
256,192,77586,1,0,0:0:0:50:kick_D.wav
182,192,77675,1,0,0:0:0:0:
36,192,77763,1,0,0:0:0:70:crash.wav
475,192,77763,1,0,0:0:0:50:kick_L.wav
256,192,77939,1,0,0:0:0:0:
475,192,78027,1,0,0:0:0:0:
182,192,78116,1,0,0:0:0:0:
402,192,78204,1,0,0:0:0:0:
109,192,78292,1,0,0:0:0:0:
329,192,78380,1,0,0:0:0:0:
36,192,78469,1,0,0:0:0:0:
256,192,78557,1,0,0:0:0:0:
475,192,78645,1,0,0:0:0:0:
182,192,78733,1,0,0:0:0:0:
402,192,78822,1,0,0:0:0:0:
109,192,78910,1,0,0:0:0:0:
329,192,78998,1,0,0:0:0:0:
36,192,79086,1,0,0:0:0:0:
256,192,79175,1,0,0:0:0:0:
402,192,79175,1,0,0:0:0:70:crash.wav
182,192,79351,1,0,0:0:0:0:
475,192,79439,1,0,0:0:0:0:
109,192,79527,1,0,0:0:0:0:
402,192,79616,1,0,0:0:0:0:
36,192,79704,1,0,0:0:0:0:
329,192,79792,1,0,0:0:0:0:
182,192,79880,1,0,0:0:0:0:
475,192,79969,1,0,0:0:0:0:
109,192,80057,1,0,0:0:0:0:
402,192,80145,1,0,0:0:0:0:
36,192,80233,1,0,0:0:0:0:
329,192,80322,1,0,0:0:0:0:
182,192,80410,1,0,0:0:0:0:
475,192,80498,1,0,0:0:0:0:
36,192,80586,1,0,0:0:0:70:crash.wav
109,192,80586,1,0,0:0:0:0:
329,192,80675,1,0,0:0:0:0:
182,192,80763,1,0,0:0:0:0:
402,192,80851,1,0,0:0:0:0:
256,192,80939,1,0,0:0:0:0:
475,192,81027,1,0,0:0:0:0:
329,192,81116,1,0,0:0:0:0:
182,192,81292,1,0,0:0:0:0:
36,192,81380,1,0,0:0:0:0:
256,192,81469,1,0,0:0:0:0:
109,192,81557,1,0,0:0:0:0:
329,192,81645,1,0,0:0:0:0:
182,192,81733,1,0,0:0:0:0:
402,192,81822,1,0,0:0:0:0:
256,192,81910,1,0,0:0:0:0:
475,192,81998,1,0,0:0:0:70:crash.wav
36,192,81998,1,0,0:0:0:0:
109,192,82086,1,0,0:0:0:0:
182,192,82175,1,0,0:0:0:0:
256,192,82263,1,0,0:0:0:0:
109,192,82351,1,0,0:0:0:0:
182,192,82439,1,0,0:0:0:0:
256,192,82527,1,0,0:0:0:0:
329,192,82616,1,0,0:0:0:0:
475,192,82704,1,0,0:0:0:0:
402,192,82792,1,0,0:0:0:0:
329,192,82880,1,0,0:0:0:0:
256,192,82969,1,0,0:0:0:0:
402,192,83057,1,0,0:0:0:0:
329,192,83145,1,0,0:0:0:0:
256,192,83233,1,0,0:0:0:0:
182,192,83322,1,0,0:0:0:0:
36,192,83410,1,0,0:0:0:70:crash.wav
475,192,83410,1,0,0:0:0:0:
402,192,83586,1,0,0:0:0:0:
182,192,83675,1,0,0:0:0:0:
329,192,83763,1,0,0:0:0:0:
109,192,83851,1,0,0:0:0:0:
256,192,83939,1,0,0:0:0:0:
36,192,84027,1,0,0:0:0:0:
475,192,84116,1,0,0:0:0:0:
256,192,84204,1,0,0:0:0:0:
402,192,84292,1,0,0:0:0:0:
182,192,84380,1,0,0:0:0:0:
329,192,84469,1,0,0:0:0:0:
109,192,84557,1,0,0:0:0:0:
256,192,84645,1,0,0:0:0:0:
36,192,84733,1,0,0:0:0:0:
329,192,84822,1,0,0:0:0:0:
182,192,84822,1,0,0:0:0:70:crash.wav
475,192,84998,1,0,0:0:0:0:
256,192,85086,1,0,0:0:0:0:
402,192,85175,1,0,0:0:0:0:
182,192,85263,1,0,0:0:0:0:
329,192,85351,1,0,0:0:0:0:
109,192,85439,1,0,0:0:0:0:
256,192,85527,1,0,0:0:0:0:
36,192,85616,1,0,0:0:0:0:
402,192,85704,1,0,0:0:0:0:
182,192,85792,1,0,0:0:0:0:
329,192,85880,1,0,0:0:0:0:
109,192,85969,1,0,0:0:0:0:
256,192,86057,1,0,0:0:0:0:
36,192,86145,1,0,0:0:0:0:
182,192,86233,1,0,0:0:0:0:
329,192,86233,1,0,0:0:0:70:crash.wav
256,192,86322,1,0,0:0:0:0:
402,192,86410,1,0,0:0:0:0:
475,192,86498,1,0,0:0:0:0:
182,192,86586,1,0,0:0:0:0:
256,192,86675,1,0,0:0:0:0:
402,192,86763,1,0,0:0:0:0:
475,192,86851,1,0,0:0:0:0:
329,192,86939,1,0,0:0:0:0:
256,192,87027,1,0,0:0:0:0:
109,192,87116,1,0,0:0:0:0:
36,192,87204,1,0,0:0:0:0:
329,192,87292,1,0,0:0:0:0:
256,192,87380,1,0,0:0:0:0:
109,192,87469,1,0,0:0:0:0:
36,192,87557,1,0,0:0:0:0:
329,192,87645,1,0,0:0:0:50:kick_L.wav
475,192,87645,1,0,0:0:0:0:
36,192,87998,1,0,0:0:0:40:snare_SP.wav
182,192,87998,1,0,0:0:0:45:snare_D.wav
329,192,88175,1,0,0:0:0:50:kick_L.wav
475,192,88175,1,0,0:0:0:45:snare_L.wav
36,192,88351,1,0,0:0:0:50:kick_L.wav
182,192,88351,1,0,0:0:0:70:crash.wav
109,192,89939,1,0,0:0:0:0:
182,192,90116,1,0,0:0:0:0:
256,192,90292,1,0,0:0:0:0:
475,192,90469,1,0,0:0:0:70:crash.wav
109,192,90469,1,0,0:0:0:50:kick_D.wav
329,192,90469,128,0,90998:0:0:0:0:
182,192,90822,1,0,0:0:0:45:snare_L.wav
36,192,90822,1,0,0:0:0:0:
402,192,90998,1,0,0:0:0:0:
256,192,91175,128,0,91704:0:0:0:0:
36,192,91351,1,0,0:0:0:50:kick_D.wav
402,192,91527,1,0,0:0:0:45:snare_L.wav
109,192,91527,1,0,0:0:0:0:
329,192,91704,1,0,0:0:0:0:
475,192,91704,1,0,0:0:0:0:
36,192,91880,1,0,0:0:0:50:kick_L.wav
182,192,91880,1,0,0:0:0:0:
36,192,92057,1,0,0:0:0:50:kick_L.wav
182,192,92057,1,0,0:0:0:0:
36,192,92410,1,0,0:0:0:50:kick_L.wav
182,192,92410,1,0,0:0:0:0:
36,192,92763,1,0,0:0:0:50:kick_L.wav
182,192,92763,1,0,0:0:0:0:
475,192,92939,1,0,0:0:0:0:
329,192,93027,1,0,0:0:0:45:snare_D.wav
475,192,93116,1,0,0:0:0:45:snare_L.wav
329,192,93204,1,0,0:0:0:45:snare_D.wav
36,192,93292,1,0,0:0:0:50:kick_D.wav
182,192,93292,1,0,0:0:0:0:
329,192,93469,1,0,0:0:0:0:
475,192,93645,1,0,0:0:0:45:snare_L.wav
182,192,93645,1,0,0:0:0:0:
329,192,93822,1,0,0:0:0:0:
36,192,93822,1,0,0:0:0:50:kick_L.wav
182,192,93998,1,0,0:0:0:0:
475,192,94175,1,0,0:0:0:50:kick_D.wav
329,192,94175,1,0,0:0:0:50:kick_D.wav
182,192,94351,1,0,0:0:0:45:snare_L.wav
36,192,94351,1,0,0:0:0:0:
329,192,94527,1,0,0:0:0:50:kick_D.wav
36,192,94704,1,0,0:0:0:50:kick_D.wav
182,192,94792,1,0,0:0:0:50:kick_D.wav
36,192,94880,1,0,0:0:0:50:kick_D.wav
475,192,94969,1,0,0:0:0:50:kick_D.wav
329,192,95057,1,0,0:0:0:50:kick_D.wav
475,192,95145,1,0,0:0:0:50:kick_D.wav
36,192,95233,1,0,0:0:0:50:kick_D.wav
182,192,95233,1,0,0:0:0:0:
109,192,95586,1,0,0:0:0:50:kick_D.wav
402,192,95586,1,0,0:0:0:0:
475,192,95763,1,0,0:0:0:45:snare_L.wav
36,192,95763,1,0,0:0:0:0:
182,192,95851,1,0,0:0:0:0:
475,192,95939,1,0,0:0:0:0:
329,192,96027,1,0,0:0:0:0:
36,192,96116,1,0,0:0:0:50:kick_L.wav
182,192,96116,1,0,0:0:0:0:
36,192,96292,1,0,0:0:0:50:kick_L.wav
182,192,96292,1,0,0:0:0:0:
475,192,96645,1,0,0:0:0:50:kick_L.wav
329,192,96645,1,0,0:0:0:0:
329,192,96998,1,0,0:0:0:0:
475,192,97175,1,0,0:0:0:45:snare_L.wav
36,192,97175,1,0,0:0:0:0:
329,192,97263,1,0,0:0:0:0:
36,192,97351,1,0,0:0:0:0:
182,192,97439,1,0,0:0:0:0:
475,192,97527,1,0,0:0:0:50:kick_L.wav
329,192,97527,1,0,0:0:0:0:
475,192,97704,1,0,0:0:0:50:kick_L.wav
329,192,97704,1,0,0:0:0:0:
36,192,98057,1,0,0:0:0:50:kick_L.wav
182,192,98057,1,0,0:0:0:0:
182,192,98410,1,0,0:0:0:0:
475,192,98586,1,0,0:0:0:45:snare_L.wav
329,192,98586,1,0,0:0:0:50:kick_L.wav
182,192,98763,1,0,0:0:0:50:kick_D.wav
36,192,98763,1,0,0:0:0:0:
329,192,98939,1,0,0:0:0:50:kick_D.wav
475,192,98939,1,0,0:0:0:0:
475,192,99116,1,0,0:0:0:50:kick_D.wav
109,192,99116,1,0,0:0:0:0:
475,192,99292,1,0,0:0:0:50:kick_D.wav
109,192,99292,1,0,0:0:0:0:
329,192,99469,1,0,0:0:0:0:
182,192,99557,1,0,0:0:0:0:
36,192,99645,1,0,0:0:0:0:
256,192,99822,1,0,0:0:0:50:kick_D.wav
475,192,99998,1,0,0:0:0:45:snare_L.wav
329,192,99998,1,0,0:0:0:0:
36,192,100175,1,0,0:0:0:50:kick_D.wav
182,192,100175,1,0,0:0:0:0:
475,192,100351,1,0,0:0:0:40:snare_SP.wav
329,192,100439,1,0,0:0:0:40:snare_SP.wav
475,192,100527,1,0,0:0:0:50:kick_D.wav
182,192,100704,1,0,0:0:0:40:snare_SP.wav
329,192,100792,1,0,0:0:0:40:snare_SP.wav
182,192,100880,1,0,0:0:0:50:kick_D.wav
475,192,101057,1,0,0:0:0:40:snare_SP.wav
329,192,101145,1,0,0:0:0:40:snare_SP.wav
475,192,101233,1,0,0:0:0:50:kick_D.wav
36,192,101233,1,0,0:0:0:0:
109,192,101410,1,0,0:0:0:45:snare_L.wav
182,192,101586,1,0,0:0:0:50:kick_D.wav
36,192,101763,1,0,0:0:0:50:kick_D.wav
256,192,101763,1,0,0:0:0:70:crash.wav
329,192,101763,128,0,102292:0:0:0:0:
475,192,102116,1,0,0:0:0:45:snare_L.wav
109,192,102116,1,0,0:0:0:0:
402,192,102292,1,0,0:0:0:0:
182,192,102469,128,0,102998:0:0:0:0:
109,192,102645,1,0,0:0:0:50:kick_D.wav
402,192,102822,1,0,0:0:0:45:snare_L.wav
36,192,102822,1,0,0:0:0:0:
329,192,102998,1,0,0:0:0:0:
475,192,102998,1,0,0:0:0:0:
36,192,103175,1,0,0:0:0:50:kick_L.wav
256,192,103175,1,0,0:0:0:0:
36,192,103351,1,0,0:0:0:50:kick_L.wav
256,192,103351,1,0,0:0:0:0:
36,192,103704,1,0,0:0:0:50:kick_L.wav
256,192,103704,1,0,0:0:0:0:
36,192,104057,1,0,0:0:0:50:kick_L.wav
182,192,104057,1,0,0:0:0:0:
109,192,104145,1,0,0:0:0:0:
475,192,104233,1,0,0:0:0:45:snare_L.wav
329,192,104233,1,0,0:0:0:0:
402,192,104322,1,0,0:0:0:0:
109,192,104410,1,0,0:0:0:0:
182,192,104498,1,0,0:0:0:0:
475,192,104586,1,0,0:0:0:50:kick_L.wav
329,192,104586,1,0,0:0:0:50:kick_L.wav
36,192,104675,1,0,0:0:0:0:
475,192,104851,1,0,0:0:0:50:kick_L.wav
329,192,104851,1,0,0:0:0:50:kick_L.wav
36,192,104939,1,0,0:0:0:0:
475,192,105116,1,0,0:0:0:50:kick_L.wav
329,192,105116,1,0,0:0:0:50:kick_L.wav
36,192,105204,1,0,0:0:0:0:
475,192,105380,1,0,0:0:0:50:kick_L.wav
329,192,105380,1,0,0:0:0:50:kick_L.wav
36,192,105469,1,0,0:0:0:0:
109,192,105645,1,0,0:0:0:50:kick_L.wav
402,192,105645,1,0,0:0:0:0:
256,192,105733,1,0,0:0:0:50:kick_L.wav
109,192,105822,1,0,0:0:0:50:kick_L.wav
402,192,105822,1,0,0:0:0:0:
256,192,105910,1,0,0:0:0:50:kick_L.wav
109,192,105998,1,0,0:0:0:50:kick_L.wav
402,192,105998,1,0,0:0:0:50:kick_D.wav
475,192,105998,128,0,106704:0:0:0:0:
256,192,106175,1,0,0:0:0:50:kick_D.wav
182,192,106351,1,0,0:0:0:45:snare_L.wav
36,192,106351,1,0,0:0:0:0:
256,192,106527,1,0,0:0:0:0:
329,192,106704,1,0,0:0:0:0:
182,192,106880,1,0,0:0:0:50:kick_D.wav
36,192,106880,1,0,0:0:0:0:
475,192,107057,1,0,0:0:0:45:snare_L.wav
329,192,107057,1,0,0:0:0:0:
182,192,107145,1,0,0:0:0:0:
329,192,107233,1,0,0:0:0:0:
182,192,107322,1,0,0:0:0:0:
36,192,107410,1,0,0:0:0:50:kick_L.wav
402,192,107410,1,0,0:0:0:0:
36,192,107586,1,0,0:0:0:50:kick_L.wav
402,192,107586,1,0,0:0:0:0:
475,192,107939,1,0,0:0:0:50:kick_L.wav
109,192,107939,1,0,0:0:0:0:
109,192,108292,1,0,0:0:0:0:
475,192,108469,1,0,0:0:0:45:snare_L.wav
182,192,108469,1,0,0:0:0:0:
329,192,108557,1,0,0:0:0:0:
182,192,108645,1,0,0:0:0:0:
329,192,108733,1,0,0:0:0:0:
109,192,108822,1,0,0:0:0:50:kick_L.wav
475,192,108822,1,0,0:0:0:0:
109,192,108998,1,0,0:0:0:50:kick_L.wav
475,192,108998,1,0,0:0:0:0:
36,192,109351,1,0,0:0:0:50:kick_L.wav
402,192,109351,1,0,0:0:0:0:
402,192,109704,1,0,0:0:0:0:
475,192,109880,1,0,0:0:0:45:snare_L.wav
329,192,109880,1,0,0:0:0:0:
109,192,110057,1,0,0:0:0:50:kick_D.wav
402,192,110057,1,0,0:0:0:0:
36,192,110233,1,0,0:0:0:50:kick_D.wav
182,192,110233,1,0,0:0:0:0:
182,192,110410,1,0,0:0:0:50:kick_D.wav
402,192,110410,1,0,0:0:0:0:
182,192,110586,1,0,0:0:0:50:kick_D.wav
402,192,110586,1,0,0:0:0:0:
182,192,110763,1,0,0:0:0:0:
329,192,110851,1,0,0:0:0:0:
36,192,110939,1,0,0:0:0:50:kick_D.wav
475,192,110939,1,0,0:0:0:0:
36,192,111116,1,0,0:0:0:50:kick_D.wav
182,192,111292,1,0,0:0:0:45:snare_L.wav
475,192,111292,1,0,0:0:0:0:
329,192,111380,1,0,0:0:0:45:snare_L.wav
36,192,111469,1,0,0:0:0:50:kick_D.wav
182,192,111557,1,0,0:0:0:50:kick_D.wav
329,192,111645,1,0,0:0:0:0:
475,192,111645,1,0,0:0:0:0:
109,192,111822,1,0,0:0:0:50:kick_D.wav
36,192,111910,1,0,0:0:0:50:kick_D.wav
329,192,111998,1,0,0:0:0:45:snare_L.wav
256,192,112086,1,0,0:0:0:45:snare_L.wav
109,192,112175,1,0,0:0:0:50:kick_D.wav
36,192,112263,1,0,0:0:0:50:kick_D.wav
329,192,112351,1,0,0:0:0:40:snare_SP.wav
256,192,112439,1,0,0:0:0:40:snare_SP.wav
36,192,112527,1,0,0:0:0:50:kick_D.wav
182,192,112616,1,0,0:0:0:50:kick_D.wav
36,192,112704,1,0,0:0:0:45:snare_L.wav
182,192,112792,1,0,0:0:0:0:
329,192,112880,1,0,0:0:0:0:
475,192,112969,1,0,0:0:0:0:
182,192,113057,1,0,0:0:0:50:kick_D.wav
329,192,113057,128,0,113763:0:0:0:0:
256,192,113410,1,0,0:0:0:45:snare_L.wav
109,192,113410,1,0,0:0:0:0:
182,192,113763,1,0,0:0:0:0:
475,192,113763,1,0,0:0:0:0:
329,192,113939,1,0,0:0:0:50:kick_D.wav
475,192,114116,1,0,0:0:0:45:snare_L.wav
182,192,114116,1,0,0:0:0:0:
36,192,114204,1,0,0:0:0:0:
182,192,114292,1,0,0:0:0:0:
36,192,114380,1,0,0:0:0:0:
256,192,114469,1,0,0:0:0:50:kick_D.wav
402,192,114469,128,0,115175:0:0:0:0:
182,192,114822,1,0,0:0:0:45:snare_L.wav
36,192,114822,1,0,0:0:0:0:
182,192,115175,1,0,0:0:0:0:
36,192,115175,1,0,0:0:0:0:
256,192,115351,1,0,0:0:0:50:kick_D.wav
475,192,115527,1,0,0:0:0:45:snare_L.wav
329,192,115527,1,0,0:0:0:0:
256,192,115704,1,0,0:0:0:0:
109,192,115880,1,0,0:0:0:50:kick_D.wav
329,192,115880,128,0,116233:0:0:0:0:
475,192,116233,1,0,0:0:0:45:snare_L.wav
182,192,116233,1,0,0:0:0:0:
36,192,116410,1,0,0:0:0:50:kick_D.wav
256,192,116410,1,0,0:0:0:0:
182,192,116586,128,0,116939:0:0:0:0:
402,192,116763,1,0,0:0:0:50:kick_D.wav
36,192,116939,1,0,0:0:0:45:snare_L.wav
329,192,116939,1,0,0:0:0:0:
256,192,117116,1,0,0:0:0:0:
329,192,117292,128,0,118704:0:0:0:0:
475,192,117844,128,0,118704:0:0:0:0:
109,192,118175,1,0,0:0:0:50:kick_D.wav
109,192,118351,1,0,0:0:0:50:kick_D.wav
182,192,118704,1,0,0:0:0:40:snare_SP.wav
36,192,118704,1,0,0:0:0:50:kick_L.wav
36,192,119057,1,0,0:0:0:40:snare_SP.wav
182,192,119057,1,0,0:0:0:45:snare_D.wav
182,192,119410,1,0,0:0:0:40:snare_SP.wav
36,192,119410,1,0,0:0:0:50:kick_L.wav
182,192,119763,1,0,0:0:0:40:snare_SP.wav
36,192,119763,1,0,0:0:0:50:kick_L.wav
475,192,120116,1,0,0:0:0:50:kick_L.wav
329,192,120116,1,0,0:0:0:40:snare_SP.wav
182,192,120292,1,0,0:0:0:40:snare_SP.wav
36,192,120292,1,0,0:0:0:50:kick_L.wav
475,192,120469,1,0,0:0:0:50:kick_L.wav
329,192,120469,1,0,0:0:0:40:snare_SP.wav
36,192,120645,1,0,0:0:0:50:kick_L.wav
182,192,120645,1,0,0:0:0:40:snare_SP.wav
475,192,120822,1,0,0:0:0:50:kick_L.wav
329,192,120822,1,0,0:0:0:40:snare_SP.wav
182,192,120998,1,0,0:0:0:40:snare_SP.wav
36,192,120998,1,0,0:0:0:50:kick_L.wav
329,192,121175,1,0,0:0:0:40:snare_SP.wav
475,192,121175,1,0,0:0:0:50:kick_L.wav
182,192,121351,1,0,0:0:0:40:snare_SP.wav
36,192,121351,1,0,0:0:0:50:kick_L.wav
402,192,121527,1,0,0:0:0:50:kick_L.wav
475,192,121527,128,0,122233:0:0:0:0:
256,192,121616,1,0,0:0:0:50:kick_L.wav
36,192,121704,1,0,0:0:0:50:kick_L.wav
182,192,121792,1,0,0:0:0:50:kick_L.wav
402,192,121880,1,0,0:0:0:50:kick_L.wav
256,192,121969,1,0,0:0:0:50:kick_L.wav
36,192,122057,1,0,0:0:0:50:kick_L.wav
182,192,122145,1,0,0:0:0:50:kick_L.wav
329,192,122233,1,0,0:0:0:50:kick_L.wav
256,192,122233,128,0,122586:0:0:0:0:
109,192,122322,1,0,0:0:0:50:kick_L.wav
402,192,122410,1,0,0:0:0:50:kick_L.wav
182,192,122498,1,0,0:0:0:50:kick_L.wav
329,192,122586,1,0,0:0:0:50:kick_L.wav
36,192,122586,128,0,122939:0:0:0:0:
475,192,122675,1,0,0:0:0:50:kick_L.wav
182,192,122763,1,0,0:0:0:50:kick_L.wav
329,192,122851,1,0,0:0:0:50:kick_L.wav
109,192,122939,1,0,0:0:0:50:kick_L.wav
475,192,122939,1,0,0:0:0:40:snare_SP.wav
475,192,123204,1,0,0:0:0:40:snare_SP.wav
109,192,123204,1,0,0:0:0:50:kick_L.wav
475,192,123469,1,0,0:0:0:20:snare_SP.wav
109,192,123469,1,0,0:0:0:50:kick_L.wav
475,192,123645,1,0,0:0:0:40:snare_SP.wav
109,192,123645,1,0,0:0:0:50:kick_L.wav
36,192,123822,1,0,0:0:0:0:
329,192,123998,1,0,0:0:0:50:kick_L.wav
475,192,123998,1,0,0:0:0:0:
182,192,124175,1,0,0:0:0:0:
36,192,124351,1,0,0:0:0:50:kick_D.wav
402,192,124351,128,0,124704:0:0:0:0:
109,192,124527,1,0,0:0:0:0:
182,192,124704,1,0,0:0:0:60:clap.wav
475,192,124704,1,0,0:0:0:40:snare_SP.wav
256,192,124880,1,0,0:0:0:0:
475,192,125057,1,0,0:0:0:50:kick_D.wav
109,192,125057,128,0,125410:0:0:0:0:
402,192,125233,1,0,0:0:0:0:
36,192,125410,1,0,0:0:0:60:clap.wav
329,192,125410,1,0,0:0:0:40:snare_SP.wav
256,192,125586,1,0,0:0:0:0:
109,192,125763,1,0,0:0:0:50:kick_D.wav
36,192,125763,128,0,126469:0:0:0:0:
182,192,125939,1,0,0:0:0:0:
256,192,126116,1,0,0:0:0:60:clap.wav
402,192,126116,1,0,0:0:0:40:snare_SP.wav
475,192,126292,1,0,0:0:0:0:
182,192,126469,1,0,0:0:0:60:clap.wav
329,192,126469,1,0,0:0:0:40:snare_SP.wav
256,192,126645,128,0,127175:0:0:0:0:
475,192,126645,1,0,0:0:0:0:
36,192,126822,1,0,0:0:0:50:kick_D.wav
475,192,126998,1,0,0:0:0:0:
109,192,127175,1,0,0:0:0:50:kick_D.wav
402,192,127175,1,0,0:0:0:40:snare_SP.wav
402,192,127351,1,0,0:0:0:40:snare_SP.wav
109,192,127351,1,0,0:0:0:50:kick_D.wav
109,192,127527,1,0,0:0:0:50:kick_D.wav
402,192,127527,1,0,0:0:0:40:snare_SP.wav
402,192,127704,1,0,0:0:0:40:snare_SP.wav
109,192,127704,1,0,0:0:0:50:kick_D.wav
475,192,127880,1,0,0:0:0:50:kick_L.wav
36,192,127880,128,0,128586:0:0:0:0:
329,192,127969,1,0,0:0:0:50:kick_L.wav
182,192,128057,1,0,0:0:0:50:kick_L.wav
402,192,128145,1,0,0:0:0:50:kick_L.wav
256,192,128233,1,0,0:0:0:50:kick_L.wav
109,192,128322,1,0,0:0:0:50:kick_L.wav
329,192,128410,1,0,0:0:0:50:kick_L.wav
182,192,128498,1,0,0:0:0:50:kick_L.wav
329,192,128586,1,0,0:0:0:50:kick_D.wav
475,192,128586,128,0,129292:0:0:0:0:
256,192,128763,1,0,0:0:0:0:
36,192,128939,1,0,0:0:0:50:kick_D.wav
182,192,128939,1,0,0:0:0:40:snare_SP.wav
329,192,129116,1,0,0:0:0:0:
182,192,129292,1,0,0:0:0:50:kick_D.wav
256,192,129469,1,0,0:0:0:0:
329,192,129645,1,0,0:0:0:50:kick_D.wav
475,192,129645,1,0,0:0:0:40:snare_SP.wav
182,192,129822,1,0,0:0:0:0:
109,192,129998,1,0,0:0:0:50:kick_D.wav
402,192,129998,128,0,130351:0:0:0:0:
182,192,130175,1,0,0:0:0:0:
36,192,130351,1,0,0:0:0:50:kick_D.wav
329,192,130351,1,0,0:0:0:40:snare_SP.wav
36,192,130527,1,0,0:0:0:50:kick_D.wav
329,192,130527,1,0,0:0:0:40:snare_SP.wav
475,192,130704,1,0,0:0:0:50:kick_D.wav
182,192,130704,128,0,131057:0:0:0:0:
402,192,130880,1,0,0:0:0:0:
36,192,131057,1,0,0:0:0:50:kick_D.wav
329,192,131057,1,0,0:0:0:40:snare_SP.wav
182,192,131233,1,0,0:0:0:0:
109,192,131410,1,0,0:0:0:50:kick_D.wav
329,192,131410,128,0,131763:0:0:0:0:
36,192,131586,1,0,0:0:0:0:
182,192,131763,1,0,0:0:0:50:kick_D.wav
475,192,131763,1,0,0:0:0:40:snare_SP.wav
182,192,131939,1,0,0:0:0:50:kick_D.wav
475,192,131939,1,0,0:0:0:40:snare_SP.wav
402,192,132116,1,0,0:0:0:50:kick_D.wav
109,192,132116,128,0,132469:0:0:0:0:
329,192,132292,1,0,0:0:0:0:
36,192,132469,1,0,0:0:0:50:kick_D.wav
182,192,132469,1,0,0:0:0:40:snare_SP.wav
256,192,132645,1,0,0:0:0:0:
36,192,132822,1,0,0:0:0:50:kick_L.wav
329,192,132822,1,0,0:0:0:0:
36,192,132998,1,0,0:0:0:50:kick_L.wav
329,192,132998,1,0,0:0:0:0:
36,192,133175,1,0,0:0:0:50:kick_L.wav
329,192,133175,1,0,0:0:0:0:
475,192,133351,1,0,0:0:0:0:
329,192,133439,1,0,0:0:0:0:
36,192,133527,1,0,0:0:0:50:kick_L.wav
182,192,133527,1,0,0:0:0:0:
36,192,133704,1,0,0:0:0:50:kick_L.wav
182,192,133704,1,0,0:0:0:0:
329,192,133792,1,0,0:0:0:50:kick_L.wav
475,192,133792,1,0,0:0:0:0:
36,192,133880,128,0,134057:0:0:0:0:
182,192,134057,128,0,134233:0:0:0:0:
256,192,134233,1,0,0:0:0:50:kick_L.wav
475,192,134233,128,0,135116:0:0:0:0:
402,192,134322,1,0,0:0:0:50:kick_L.wav
256,192,134410,1,0,0:0:0:50:kick_L.wav
402,192,134498,1,0,0:0:0:50:kick_L.wav
109,192,134586,1,0,0:0:0:50:kick_L.wav
329,192,134675,1,0,0:0:0:50:kick_L.wav
36,192,134763,1,0,0:0:0:50:kick_L.wav
182,192,134851,1,0,0:0:0:50:kick_L.wav
36,192,134939,1,0,0:0:0:50:kick_L.wav
182,192,135027,1,0,0:0:0:50:kick_L.wav
36,192,135116,1,0,0:0:0:0:
329,192,135116,1,0,0:0:0:0:
402,192,135292,1,0,0:0:0:40:snare_SP.wav
109,192,135292,1,0,0:0:0:0:
475,192,135469,1,0,0:0:0:0:
182,192,135469,1,0,0:0:0:0:
36,192,135645,1,0,0:0:0:50:kick_D.wav
402,192,135645,128,0,135998:0:0:0:0:
109,192,135822,1,0,0:0:0:0:
182,192,135998,1,0,0:0:0:60:clap.wav
475,192,135998,1,0,0:0:0:40:snare_SP.wav
256,192,136175,1,0,0:0:0:0:
36,192,136351,1,0,0:0:0:50:kick_D.wav
329,192,136351,128,0,136704:0:0:0:0:
109,192,136527,1,0,0:0:0:0:
182,192,136704,1,0,0:0:0:60:clap.wav
402,192,136704,1,0,0:0:0:40:snare_SP.wav
256,192,136880,1,0,0:0:0:0:
182,192,137057,1,0,0:0:0:50:kick_D.wav
36,192,137057,128,0,137763:0:0:0:0:
256,192,137233,1,0,0:0:0:0:
329,192,137410,1,0,0:0:0:60:clap.wav
475,192,137410,1,0,0:0:0:40:snare_SP.wav
182,192,137586,1,0,0:0:0:0:
329,192,137763,1,0,0:0:0:60:clap.wav
475,192,137763,1,0,0:0:0:40:snare_SP.wav
402,192,137939,128,0,138469:0:0:0:0:
256,192,137939,1,0,0:0:0:0:
182,192,138116,1,0,0:0:0:50:kick_D.wav
109,192,138292,1,0,0:0:0:0:
36,192,138469,1,0,0:0:0:50:kick_L.wav
182,192,138469,1,0,0:0:0:40:snare_SP.wav
182,192,138645,1,0,0:0:0:40:snare_SP.wav
36,192,138645,1,0,0:0:0:50:kick_L.wav
329,192,138822,1,0,0:0:0:50:kick_L.wav
109,192,138822,128,0,139175:0:0:0:0:
475,192,138910,1,0,0:0:0:50:kick_L.wav
329,192,138998,1,0,0:0:0:50:kick_L.wav
475,192,139086,1,0,0:0:0:50:kick_L.wav
182,192,139175,128,0,139880:0:0:0:0:
36,192,139175,128,0,139880:0:0:0:0:
109,192,139880,1,0,0:0:0:50:kick_D.wav
475,192,139880,128,0,140586:0:0:0:0:
182,192,140057,1,0,0:0:0:0:
256,192,140233,1,0,0:0:0:40:snare_SP.wav
36,192,140233,1,0,0:0:0:50:kick_D.wav
329,192,140410,1,0,0:0:0:0:
109,192,140586,1,0,0:0:0:50:kick_D.wav
402,192,140586,1,0,0:0:0:0:
256,192,140763,1,0,0:0:0:0:
329,192,140939,1,0,0:0:0:40:snare_SP.wav
36,192,140939,1,0,0:0:0:50:kick_D.wav
109,192,141116,1,0,0:0:0:0:
402,192,141116,1,0,0:0:0:0:
182,192,141292,1,0,0:0:0:50:kick_D.wav
475,192,141292,128,0,141645:0:0:0:0:
182,192,141645,1,0,0:0:0:50:kick_L.wav
402,192,141645,1,0,0:0:0:50:kick_D.wav
36,192,141733,1,0,0:0:0:50:kick_L.wav
182,192,141822,1,0,0:0:0:50:kick_L.wav
36,192,141910,1,0,0:0:0:50:kick_L.wav
329,192,141998,1,0,0:0:0:50:kick_D.wav
475,192,141998,1,0,0:0:0:0:
475,192,142351,1,0,0:0:0:40:snare_SP.wav
182,192,142351,1,0,0:0:0:50:kick_D.wav
402,192,142527,1,0,0:0:0:0:
109,192,142527,1,0,0:0:0:0:
329,192,142704,1,0,0:0:0:50:kick_D.wav
36,192,142704,128,0,143057:0:0:0:0:
329,192,143057,1,0,0:0:0:50:kick_L.wav
109,192,143057,1,0,0:0:0:50:kick_D.wav
475,192,143145,1,0,0:0:0:50:kick_L.wav
329,192,143233,1,0,0:0:0:50:kick_L.wav
475,192,143322,1,0,0:0:0:50:kick_L.wav
182,192,143410,1,0,0:0:0:50:kick_D.wav
36,192,143410,1,0,0:0:0:0:
329,192,143763,1,0,0:0:0:40:snare_SP.wav
109,192,143763,1,0,0:0:0:50:kick_D.wav
182,192,143939,1,0,0:0:0:0:
402,192,143939,1,0,0:0:0:0:
256,192,144116,1,0,0:0:0:50:kick_D.wav
475,192,144116,1,0,0:0:0:0:
182,192,144292,1,0,0:0:0:45:snare_L.wav
36,192,144292,1,0,0:0:0:40:snare_SP.wav
475,192,144469,1,0,0:0:0:45:snare_L.wav
329,192,144469,1,0,0:0:0:40:snare_SP.wav
402,192,144645,128,0,144822:0:0:0:0:
256,192,144822,1,0,0:0:0:50:kick_D.wav
475,192,144822,1,0,0:0:0:0:
36,192,144998,1,0,0:0:0:40:snare_SP.wav
182,192,144998,1,0,0:0:0:45:snare_L.wav
329,192,145175,1,0,0:0:0:40:snare_SP.wav
475,192,145175,1,0,0:0:0:45:snare_L.wav
109,192,145351,128,0,145527:0:0:0:0:
475,192,145527,1,0,0:0:0:50:kick_L.wav
36,192,145527,128,0,146586:0:0:0:0:
329,192,145616,1,0,0:0:0:50:kick_L.wav
182,192,145704,1,0,0:0:0:50:kick_L.wav
402,192,145792,1,0,0:0:0:50:kick_L.wav
256,192,145880,1,0,0:0:0:50:kick_L.wav
475,192,145969,1,0,0:0:0:50:kick_L.wav
329,192,146057,1,0,0:0:0:50:kick_L.wav
182,192,146145,1,0,0:0:0:50:kick_L.wav
402,192,146233,1,0,0:0:0:50:kick_L.wav
256,192,146322,1,0,0:0:0:50:kick_L.wav
475,192,146410,1,0,0:0:0:50:kick_L.wav
329,192,146498,1,0,0:0:0:50:kick_L.wav
109,192,146586,1,0,0:0:0:50:kick_L.wav
182,192,146586,1,0,0:0:0:40:snare_SP.wav
109,192,146939,1,0,0:0:0:50:kick_D.wav
475,192,147027,1,0,0:0:0:40:snare_SP.wav
329,192,147027,1,0,0:0:0:50:kick_D.wav
109,192,147204,1,0,0:0:0:50:kick_D.wav
475,192,147292,1,0,0:0:0:40:snare_SP.wav
329,192,147292,1,0,0:0:0:50:kick_D.wav
329,192,147469,1,0,0:0:0:50:kick_D.wav
475,192,147469,1,0,0:0:0:40:snare_SP.wav
36,192,147645,1,0,0:0:0:50:kick_L.wav
182,192,147645,128,0,147998:0:0:0:0:
329,192,147998,1,0,0:0:0:40:snare_SP.wav
475,192,147998,1,0,0:0:0:45:snare_L.wav
36,192,148175,1,0,0:0:0:0:
182,192,148175,1,0,0:0:0:0:
402,192,148351,1,0,0:0:0:50:kick_L.wav
36,192,148439,1,0,0:0:0:40:snare_SP.wav
182,192,148439,1,0,0:0:0:50:kick_L.wav
402,192,148616,1,0,0:0:0:50:kick_L.wav
36,192,148704,1,0,0:0:0:40:snare_SP.wav
182,192,148704,1,0,0:0:0:50:kick_L.wav
36,192,148880,1,0,0:0:0:40:snare_SP.wav
182,192,148880,1,0,0:0:0:50:kick_L.wav
475,192,149057,1,0,0:0:0:50:kick_L.wav
329,192,149057,128,0,149410:0:0:0:0:
36,192,149410,1,0,0:0:0:40:snare_SP.wav
182,192,149410,1,0,0:0:0:45:snare_L.wav
329,192,149586,1,0,0:0:0:0:
475,192,149586,1,0,0:0:0:0:
36,192,149763,1,0,0:0:0:50:kick_L.wav
182,192,149763,1,0,0:0:0:40:snare_SP.wav
36,192,149939,1,0,0:0:0:50:kick_L.wav
182,192,149939,1,0,0:0:0:40:snare_SP.wav
182,192,150116,1,0,0:0:0:40:snare_SP.wav
36,192,150116,1,0,0:0:0:50:kick_L.wav
329,192,150292,1,0,0:0:0:0:
182,192,150380,1,0,0:0:0:0:
256,192,150469,1,0,0:0:0:50:kick_D.wav
475,192,150469,1,0,0:0:0:45:snare_L.wav
256,192,150645,1,0,0:0:0:50:kick_D.wav
475,192,150645,1,0,0:0:0:45:snare_L.wav
256,192,150822,1,0,0:0:0:50:kick_D.wav
475,192,150822,1,0,0:0:0:45:snare_L.wav
329,192,150998,1,0,0:0:0:0:
182,192,151086,1,0,0:0:0:0:
256,192,151175,1,0,0:0:0:50:kick_D.wav
475,192,151175,1,0,0:0:0:45:snare_L.wav
256,192,151351,1,0,0:0:0:50:kick_D.wav
475,192,151351,1,0,0:0:0:45:snare_L.wav
475,192,151527,1,0,0:0:0:45:snare_L.wav
256,192,151527,1,0,0:0:0:50:kick_D.wav
329,192,151704,1,0,0:0:0:0:
182,192,151792,1,0,0:0:0:0:
475,192,151880,1,0,0:0:0:50:kick_D.wav
329,192,151969,1,0,0:0:0:50:kick_D.wav
182,192,152057,1,0,0:0:0:50:kick_D.wav
36,192,152145,1,0,0:0:0:50:kick_D.wav
329,192,152233,1,0,0:0:0:50:kick_D.wav
182,192,152322,1,0,0:0:0:50:kick_D.wav
475,192,152410,128,0,152586:0:0:0:0:
36,192,152586,1,0,0:0:0:50:kick_D.wav
256,192,152586,128,0,152939:0:0:0:0:
402,192,152939,1,0,0:0:0:50:kick_D.wav
182,192,153027,1,0,0:0:0:50:kick_D.wav
402,192,153116,1,0,0:0:0:50:kick_D.wav
182,192,153204,1,0,0:0:0:50:kick_D.wav
329,192,153292,1,0,0:0:0:50:kick_D.wav
109,192,153380,1,0,0:0:0:50:kick_D.wav
329,192,153469,1,0,0:0:0:50:kick_D.wav
109,192,153557,1,0,0:0:0:50:kick_D.wav
402,192,153645,1,0,0:0:0:50:kick_D.wav
329,192,153733,1,0,0:0:0:50:kick_D.wav
109,192,153822,1,0,0:0:0:50:kick_D.wav
182,192,153910,1,0,0:0:0:50:kick_D.wav
329,192,153998,1,0,0:0:0:50:kick_D.wav
402,192,154086,1,0,0:0:0:50:kick_D.wav
182,192,154175,1,0,0:0:0:50:kick_D.wav
109,192,154263,1,0,0:0:0:50:kick_D.wav
329,192,154351,1,0,0:0:0:50:kick_D.wav
109,192,154439,1,0,0:0:0:50:kick_D.wav
329,192,154527,1,0,0:0:0:50:kick_D.wav
109,192,154616,1,0,0:0:0:50:kick_D.wav
402,192,154704,1,0,0:0:0:50:kick_D.wav
182,192,154792,1,0,0:0:0:50:kick_D.wav
402,192,154880,1,0,0:0:0:50:kick_D.wav
182,192,154969,1,0,0:0:0:50:kick_D.wav
36,192,155057,1,0,0:0:0:50:kick_L.wav
329,192,155057,1,0,0:0:0:0:
182,192,155145,1,0,0:0:0:50:kick_L.wav
475,192,155145,1,0,0:0:0:0:
36,192,155233,1,0,0:0:0:50:kick_L.wav
329,192,155233,1,0,0:0:0:0:
182,192,155322,1,0,0:0:0:50:kick_L.wav
475,192,155322,1,0,0:0:0:0:
256,192,155410,1,0,0:0:0:70:crash.wav
402,192,155410,1,0,0:0:0:45:snare_D.wav
109,192,155410,1,0,0:0:0:50:kick_D.wav
