osu file format v14

[General]
AudioFilename: Influenza.mp3
AudioLeadIn: 0
PreviewTime: 77763
Countdown: 0
SampleSet: Soft
StackLeniency: 0.7
Mode: 3
LetterboxInBreaks: 0
SpecialStyle: 0
WidescreenStoryboard: 0

[Editor]
DistanceSpacing: 0.8
BeatDivisor: 4
GridSize: 16
TimelineZoom: 1.3

[Metadata]
Title:Beethoven Influenza
TitleUnicode:Beethoven Influenza
Artist:BanYa & Warak
ArtistUnicode:BanYa & Warak
Creator:ExPew
Version:Easy
Source:PUMP IT UP - 2015 PRIME -
Tags:PIU Remix Ludwig van Beethoven Virus
BeatmapID:1081672
BeatmapSetID:295397

[Difficulty]
HPDrainRate:6.5
CircleSize:7
OverallDifficulty:6.5
ApproachRate:0
SliderMultiplier:1.4
SliderTickRate:1

[Events]
//Background and Video events
0,0,"beethoven_influenza.jpg",0,0
//Break Periods
//Storyboard Layer 0 (Background)
//Storyboard Layer 1 (Fail)
//Storyboard Layer 2 (Pass)
//Storyboard Layer 3 (Foreground)
//Storyboard Sound Samples

[TimingPoints]
1528,352.941176470588,4,2,0,50,1,0

[HitObjects]
475,192,1528,5,0,0:0:0:70:crash.wav
329,192,1528,1,0,0:0:0:50:kick_L.wav
182,192,2057,1,0,0:0:0:0:
256,192,2586,1,0,0:0:0:0:
329,192,3116,1,0,0:0:0:0:
402,192,3645,1,0,0:0:0:0:
475,192,4175,1,0,0:0:0:0:
329,192,4351,1,0,0:0:0:0:
256,192,4880,1,0,0:0:0:0:
182,192,5410,1,0,0:0:0:0:
109,192,5939,1,0,0:0:0:0:
36,192,6469,5,0,0:0:0:0:
36,192,6822,1,0,0:0:0:0:
475,192,7175,5,0,0:0:0:70:crash.wav
36,192,7175,1,0,0:0:0:50:kick_L.wav
109,192,7704,1,0,0:0:0:0:
182,192,8233,1,0,0:0:0:0:
256,192,8763,1,0,0:0:0:0:
329,192,9292,1,0,0:0:0:0:
475,192,9822,1,0,0:0:0:0:
329,192,9998,1,0,0:0:0:0:
256,192,10527,1,0,0:0:0:0:
182,192,11057,1,0,0:0:0:0:
256,192,11410,128,0,12822:0:0:0:0:
182,192,12822,1,0,0:0:0:70:crash.wav
36,192,12822,1,0,0:0:0:50:kick_L.wav
475,192,13527,1,0,0:0:0:45:snare_L.wav
329,192,13527,1,0,0:0:0:0:
36,192,14233,1,0,0:0:0:50:kick_L.wav
475,192,14939,1,0,0:0:0:45:snare_L.wav
329,192,14939,1,0,0:0:0:0:
36,192,15645,1,0,0:0:0:50:kick_L.wav
475,192,16351,1,0,0:0:0:45:snare_L.wav
329,192,16351,1,0,0:0:0:0:
36,192,17057,1,0,0:0:0:50:kick_L.wav
182,192,17057,1,0,0:0:0:70:crash.wav
36,192,18469,1,0,0:0:0:50:kick_L.wav
182,192,18469,1,0,0:0:0:70:crash.wav
475,192,19175,1,0,0:0:0:45:snare_L.wav
329,192,19175,1,0,0:0:0:0:
36,192,19880,1,0,0:0:0:50:kick_L.wav
475,192,20586,1,0,0:0:0:45:snare_L.wav
329,192,20586,1,0,0:0:0:0:
36,192,21292,1,0,0:0:0:50:kick_L.wav
475,192,21998,1,0,0:0:0:45:snare_L.wav
329,192,21998,1,0,0:0:0:0:
36,192,22704,1,0,0:0:0:50:kick_L.wav
329,192,23410,1,0,0:0:0:50:kick_L.wav
475,192,23410,1,0,0:0:0:45:snare_L.wav
475,192,23763,1,0,0:0:0:45:snare_L.wav
329,192,23763,1,0,0:0:0:50:kick_L.wav
36,192,24116,1,0,0:0:0:0:
329,192,24822,1,0,0:0:0:0:
36,192,25527,1,0,0:0:0:0:
329,192,26233,1,0,0:0:0:0:
475,192,26939,1,0,0:0:0:0:
182,192,27645,1,0,0:0:0:0:
475,192,28351,1,0,0:0:0:0:
182,192,29057,1,0,0:0:0:0:
329,192,29763,1,0,0:0:0:0:
475,192,29763,1,0,0:0:0:0:
329,192,31175,5,0,0:0:0:70:crash.wav
36,192,31175,1,0,0:0:0:50:kick_L.wav
329,192,32586,1,0,0:0:0:50:kick_L.wav
475,192,32586,1,0,0:0:0:70:crash.wav
109,192,32939,1,0,0:0:0:45:snare_L.wav
329,192,33292,1,0,0:0:0:50:kick_L.wav
109,192,33645,1,0,0:0:0:45:snare_L.wav
402,192,33998,1,0,0:0:0:50:kick_L.wav
182,192,34351,1,0,0:0:0:45:snare_L.wav
402,192,34704,1,0,0:0:0:50:kick_L.wav
182,192,35057,1,0,0:0:0:45:snare_L.wav
329,192,35410,1,0,0:0:0:50:kick_L.wav
475,192,35410,1,0,0:0:0:0:
329,192,36116,1,0,0:0:0:50:kick_L.wav
475,192,36116,1,0,0:0:0:0:
475,192,36822,1,0,0:0:0:70:crash.wav
329,192,36822,1,0,0:0:0:50:kick_L.wav
109,192,37175,1,0,0:0:0:45:snare_L.wav
329,192,37527,1,0,0:0:0:50:kick_L.wav
109,192,37880,1,0,0:0:0:45:snare_L.wav
402,192,38233,1,0,0:0:0:50:kick_L.wav
182,192,38586,1,0,0:0:0:45:snare_L.wav
402,192,38939,1,0,0:0:0:50:kick_L.wav
182,192,39292,1,0,0:0:0:45:snare_L.wav
475,192,39645,1,0,0:0:0:50:kick_L.wav
256,192,39998,1,0,0:0:0:45:snare_L.wav
475,192,40351,1,0,0:0:0:50:kick_L.wav
256,192,40704,1,0,0:0:0:45:snare_L.wav
36,192,41057,1,0,0:0:0:50:kick_L.wav
182,192,41057,1,0,0:0:0:0:
475,192,41763,1,0,0:0:0:50:sp.wav
329,192,41763,1,0,0:0:0:0:
329,192,42469,1,0,0:0:0:45:snare_L.wav
182,192,42469,1,0,0:0:0:50:kick_L.wav
182,192,43880,1,0,0:0:0:70:crash.wav
36,192,43880,1,0,0:0:0:50:kick_D.wav
475,192,44233,1,0,0:0:0:45:snare_L.wav
182,192,44763,1,0,0:0:0:50:kick_D.wav
475,192,44939,1,0,0:0:0:45:snare_L.wav
109,192,45292,1,0,0:0:0:50:kick_D.wav
402,192,45645,1,0,0:0:0:45:snare_L.wav
109,192,46175,1,0,0:0:0:50:kick_D.wav
402,192,46351,1,0,0:0:0:45:snare_L.wav
36,192,46704,1,0,0:0:0:50:kick_D.wav
182,192,46704,1,0,0:0:0:0:
475,192,47057,1,0,0:0:0:45:snare_L.wav
329,192,47233,1,0,0:0:0:45:snare_L.wav
36,192,47410,1,0,0:0:0:50:kick_D.wav
182,192,47410,1,0,0:0:0:0:
475,192,47763,1,0,0:0:0:45:snare_L.wav
329,192,47939,1,0,0:0:0:45:snare_L.wav
182,192,48116,1,0,0:0:0:0:
36,192,48292,1,0,0:0:0:50:kick_D.wav
329,192,48469,1,0,0:0:0:45:snare_L.wav
36,192,48998,1,0,0:0:0:50:kick_D.wav
329,192,49175,1,0,0:0:0:45:snare_L.wav
109,192,49527,1,0,0:0:0:50:kick_D.wav
402,192,49880,1,0,0:0:0:45:snare_L.wav
109,192,50410,1,0,0:0:0:50:kick_D.wav
402,192,50586,1,0,0:0:0:45:snare_L.wav
36,192,50939,1,0,0:0:0:50:kick_D.wav
329,192,51292,1,0,0:0:0:45:snare_L.wav
36,192,51822,1,0,0:0:0:50:kick_D.wav
329,192,51998,1,0,0:0:0:45:snare_L.wav
109,192,52351,1,0,0:0:0:50:kick_D.wav
329,192,52880,1,0,0:0:0:50:kick_D.wav
109,192,53057,1,0,0:0:0:45:snare_D.wav
329,192,53586,1,0,0:0:0:50:kick_D.wav
109,192,53763,1,0,0:0:0:50:kick_D.wav
109,192,53939,1,0,0:0:0:50:kick_D.wav
402,192,54116,1,0,0:0:0:45:snare_L.wav
182,192,54292,1,0,0:0:0:50:kick_D.wav
182,192,54469,1,0,0:0:0:50:kick_L.wav
402,192,54645,128,0,55175:0:0:0:0:
36,192,55175,1,0,0:0:0:50:kick_L.wav
182,192,55175,1,0,0:0:0:70:crash.wav
475,192,55527,1,0,0:0:0:45:snare_L.wav
182,192,55880,1,0,0:0:0:50:kick_L.wav
329,192,56057,1,0,0:0:0:0:
475,192,56233,1,0,0:0:0:45:snare_L.wav
182,192,56586,1,0,0:0:0:50:kick_L.wav
475,192,56939,1,0,0:0:0:45:snare_L.wav
36,192,57292,1,0,0:0:0:50:kick_L.wav
182,192,57292,1,0,0:0:0:0:
109,192,57998,1,0,0:0:0:50:kick_L.wav
402,192,58351,1,0,0:0:0:45:snare_L.wav
109,192,58704,1,0,0:0:0:50:kick_L.wav
256,192,58880,1,0,0:0:0:0:
402,192,59057,1,0,0:0:0:45:snare_L.wav
109,192,59410,1,0,0:0:0:50:kick_L.wav
402,192,59763,1,0,0:0:0:45:snare_L.wav
109,192,60116,1,0,0:0:0:50:kick_L.wav
256,192,60116,1,0,0:0:0:0:
329,192,60822,1,0,0:0:0:50:kick_L.wav
36,192,61175,1,0,0:0:0:45:snare_L.wav
182,192,61351,1,0,0:0:0:0:
329,192,61527,1,0,0:0:0:50:kick_L.wav
182,192,61880,1,0,0:0:0:45:snare_L.wav
36,192,62233,1,0,0:0:0:50:kick_L.wav
329,192,62586,1,0,0:0:0:45:snare_L.wav
36,192,62939,1,0,0:0:0:50:kick_L.wav
182,192,62939,1,0,0:0:0:0:
36,192,63645,1,0,0:0:0:50:kick_L.wav
475,192,63998,1,0,0:0:0:45:snare_L.wav
256,192,64175,1,0,0:0:0:0:
36,192,64351,1,0,0:0:0:50:kick_L.wav
475,192,64704,1,0,0:0:0:45:snare_L.wav
256,192,64880,1,0,0:0:0:0:
36,192,65057,1,0,0:0:0:50:kick_L.wav
182,192,65233,1,0,0:0:0:50:kick_L.wav
36,192,65410,1,0,0:0:0:50:kick_L.wav
475,192,65763,1,0,0:0:0:50:kick_D.wav
329,192,65939,1,0,0:0:0:40:snare_SP.wav
475,192,66116,1,0,0:0:0:50:kick_L.wav
36,192,66469,1,0,0:0:0:50:kick_L.wav
182,192,66469,1,0,0:0:0:70:crash.wav
402,192,66822,1,0,0:0:0:45:snare_L.wav
182,192,67175,1,0,0:0:0:50:kick_L.wav
402,192,67527,1,0,0:0:0:45:snare_L.wav
109,192,67880,1,0,0:0:0:50:kick_L.wav
256,192,68057,1,0,0:0:0:0:
402,192,68233,1,0,0:0:0:45:snare_L.wav
36,192,68586,1,0,0:0:0:50:kick_L.wav
182,192,68763,1,0,0:0:0:0:
329,192,68939,128,0,69292:0:0:0:0:
36,192,69292,1,0,0:0:0:50:kick_D.wav
329,192,69645,1,0,0:0:0:45:snare_L.wav
36,192,69998,1,0,0:0:0:50:kick_D.wav
475,192,70175,1,0,0:0:0:50:kick_D.wav
329,192,70351,1,0,0:0:0:45:snare_L.wav
109,192,70704,1,0,0:0:0:50:kick_D.wav
329,192,71057,1,0,0:0:0:45:snare_L.wav
182,192,71410,1,0,0:0:0:50:kick_D.wav
36,192,71586,1,0,0:0:0:50:kick_D.wav
329,192,71763,128,0,72116:0:0:0:0:
36,192,72116,1,0,0:0:0:50:kick_L.wav
329,192,72469,1,0,0:0:0:45:snare_L.wav
36,192,72822,1,0,0:0:0:50:kick_L.wav
329,192,73175,1,0,0:0:0:45:snare_L.wav
182,192,73527,1,0,0:0:0:50:kick_L.wav
475,192,73880,1,0,0:0:0:45:snare_L.wav
182,192,74233,1,0,0:0:0:50:kick_L.wav
329,192,74410,1,0,0:0:0:0:
475,192,74586,128,0,74939:0:0:0:0:
109,192,74939,1,0,0:0:0:50:kick_D.wav
402,192,75292,1,0,0:0:0:45:snare_L.wav
109,192,75645,1,0,0:0:0:50:kick_D.wav
256,192,75822,1,0,0:0:0:50:kick_D.wav
402,192,75998,1,0,0:0:0:45:snare_L.wav
109,192,76175,1,0,0:0:0:50:kick_D.wav
109,192,76527,1,0,0:0:0:50:kick_D.wav
402,192,76704,1,0,0:0:0:45:snare_L.wav
109,192,76880,1,0,0:0:0:50:kick_D.wav
402,192,77057,1,0,0:0:0:45:snare_L.wav
109,192,77233,1,0,0:0:0:50:kick_D.wav
329,192,77410,1,0,0:0:0:45:snare_D.wav
475,192,77410,1,0,0:0:0:45:snare_L.wav
182,192,77763,1,0,0:0:0:70:crash.wav
36,192,77763,1,0,0:0:0:50:kick_L.wav
256,192,79175,1,0,0:0:0:70:crash.wav
109,192,79175,1,0,0:0:0:50:kick_L.wav
329,192,80586,1,0,0:0:0:50:kick_L.wav
475,192,80586,1,0,0:0:0:70:crash.wav
402,192,81998,1,0,0:0:0:70:crash.wav
256,192,81998,1,0,0:0:0:50:kick_L.wav
182,192,83410,1,0,0:0:0:50:kick_L.wav
329,192,83410,1,0,0:0:0:70:crash.wav
402,192,84822,1,0,0:0:0:70:crash.wav
109,192,84822,1,0,0:0:0:50:kick_L.wav
36,192,86233,1,0,0:0:0:50:kick_L.wav
475,192,86233,1,0,0:0:0:70:crash.wav
36,192,87645,1,0,0:0:0:50:kick_L.wav
475,192,87645,1,0,0:0:0:0:
256,192,87998,1,0,0:0:0:40:snare_SP.wav
256,192,88175,1,0,0:0:0:50:kick_L.wav
109,192,88351,1,0,0:0:0:50:kick_L.wav
402,192,88351,1,0,0:0:0:70:crash.wav
256,192,90469,1,0,0:0:0:70:crash.wav
109,192,90469,1,0,0:0:0:50:kick_D.wav
402,192,90822,1,0,0:0:0:45:snare_L.wav
109,192,91351,1,0,0:0:0:50:kick_D.wav
402,192,91527,1,0,0:0:0:45:snare_L.wav
36,192,91880,1,0,0:0:0:50:kick_L.wav
36,192,92057,1,0,0:0:0:50:kick_L.wav
36,192,92410,1,0,0:0:0:50:kick_L.wav
36,192,92763,1,0,0:0:0:50:kick_L.wav
182,192,92939,1,0,0:0:0:0:
402,192,93292,1,0,0:0:0:50:kick_D.wav
109,192,93645,1,0,0:0:0:45:snare_L.wav
402,192,93822,1,0,0:0:0:50:kick_D.wav
109,192,94175,1,0,0:0:0:50:kick_D.wav
402,192,94351,1,0,0:0:0:45:snare_L.wav
109,192,94527,1,0,0:0:0:50:kick_D.wav
402,192,94704,128,0,95233:0:0:0:0:
109,192,95233,1,0,0:0:0:50:kick_D.wav
109,192,95586,1,0,0:0:0:50:kick_D.wav
402,192,95763,1,0,0:0:0:45:snare_L.wav
475,192,96116,1,0,0:0:0:50:kick_L.wav
475,192,96292,1,0,0:0:0:50:kick_L.wav
329,192,96645,1,0,0:0:0:50:kick_L.wav
36,192,96998,1,0,0:0:0:0:
182,192,97175,1,0,0:0:0:45:snare_L.wav
402,192,97527,1,0,0:0:0:50:kick_L.wav
402,192,97704,1,0,0:0:0:50:kick_L.wav
256,192,98057,1,0,0:0:0:50:kick_L.wav
36,192,98410,1,0,0:0:0:0:
182,192,98586,1,0,0:0:0:45:snare_L.wav
475,192,98939,1,0,0:0:0:50:kick_D.wav
329,192,99116,1,0,0:0:0:50:kick_D.wav
475,192,99292,1,0,0:0:0:50:kick_D.wav
36,192,99469,1,0,0:0:0:0:
182,192,99645,1,0,0:0:0:0:
182,192,99998,1,0,0:0:0:45:snare_L.wav
36,192,100175,1,0,0:0:0:50:kick_D.wav
329,192,100351,1,0,0:0:0:40:snare_SP.wav
475,192,100351,1,0,0:0:0:0:
36,192,100704,1,0,0:0:0:40:snare_SP.wav
182,192,100704,1,0,0:0:0:0:
329,192,101057,1,0,0:0:0:40:snare_SP.wav
475,192,101057,1,0,0:0:0:0:
182,192,101410,1,0,0:0:0:45:snare_L.wav
36,192,101410,1,0,0:0:0:0:
475,192,101763,1,0,0:0:0:70:crash.wav
329,192,101763,1,0,0:0:0:50:kick_D.wav
109,192,102116,1,0,0:0:0:45:snare_L.wav
329,192,102645,1,0,0:0:0:50:kick_D.wav
109,192,102822,1,0,0:0:0:45:snare_L.wav
36,192,103175,1,0,0:0:0:50:kick_L.wav
36,192,103351,1,0,0:0:0:50:kick_L.wav
36,192,103704,1,0,0:0:0:50:kick_L.wav
36,192,104057,1,0,0:0:0:50:kick_L.wav
256,192,104233,1,0,0:0:0:45:snare_L.wav
475,192,104586,1,0,0:0:0:50:kick_L.wav
36,192,104851,1,0,0:0:0:50:kick_L.wav
475,192,105116,1,0,0:0:0:50:kick_L.wav
36,192,105380,1,0,0:0:0:50:kick_L.wav
256,192,105645,128,0,105998:0:0:0:0:
109,192,105998,1,0,0:0:0:50:kick_D.wav
256,192,106175,1,0,0:0:0:50:kick_D.wav
402,192,106351,1,0,0:0:0:45:snare_L.wav
109,192,106880,1,0,0:0:0:50:kick_D.wav
402,192,107057,1,0,0:0:0:45:snare_L.wav
256,192,107233,1,0,0:0:0:0:
109,192,107410,1,0,0:0:0:50:kick_L.wav
109,192,107586,1,0,0:0:0:50:kick_L.wav
36,192,107939,1,0,0:0:0:50:kick_L.wav
182,192,108292,1,0,0:0:0:0:
256,192,108469,1,0,0:0:0:45:snare_L.wav
402,192,108822,1,0,0:0:0:50:kick_L.wav
402,192,108998,1,0,0:0:0:50:kick_L.wav
475,192,109351,1,0,0:0:0:50:kick_L.wav
329,192,109704,1,0,0:0:0:0:
256,192,109880,1,0,0:0:0:45:snare_L.wav
36,192,110057,1,0,0:0:0:50:kick_D.wav
402,192,110233,1,0,0:0:0:50:kick_D.wav
402,192,110410,1,0,0:0:0:50:kick_D.wav
402,192,110586,1,0,0:0:0:50:kick_D.wav
36,192,110763,1,0,0:0:0:50:kick_D.wav
182,192,110939,1,0,0:0:0:50:kick_D.wav
329,192,111292,1,0,0:0:0:45:snare_L.wav
182,192,111469,1,0,0:0:0:50:kick_D.wav
329,192,111645,128,0,112351:0:0:0:0:
475,192,112351,1,0,0:0:0:45:snare_L.wav
182,192,112704,1,0,0:0:0:45:snare_L.wav
329,192,112880,1,0,0:0:0:0:
36,192,113057,1,0,0:0:0:70:crash.wav
475,192,113057,128,0,113763:0:0:0:0:
182,192,113410,1,0,0:0:0:45:snare_L.wav
329,192,113763,1,0,0:0:0:0:
109,192,114116,1,0,0:0:0:45:snare_L.wav
256,192,114292,1,0,0:0:0:0:
109,192,114469,1,0,0:0:0:50:kick_D.wav
402,192,114469,128,0,115175:0:0:0:0:
182,192,114822,1,0,0:0:0:45:snare_L.wav
256,192,115175,1,0,0:0:0:0:
36,192,115527,1,0,0:0:0:45:snare_L.wav
182,192,115704,1,0,0:0:0:0:
329,192,115880,1,0,0:0:0:0:
329,192,116233,1,0,0:0:0:45:snare_L.wav
475,192,116410,1,0,0:0:0:0:
329,192,116586,1,0,0:0:0:0:
36,192,116939,1,0,0:0:0:45:snare_L.wav
182,192,117116,1,0,0:0:0:0:
36,192,117292,128,0,118351:0:0:0:0:
329,192,118175,1,0,0:0:0:50:kick_D.wav
329,192,118351,1,0,0:0:0:50:kick_D.wav
36,192,118704,1,0,0:0:0:50:kick_L.wav
329,192,119057,1,0,0:0:0:40:snare_SP.wav
36,192,119410,1,0,0:0:0:50:kick_L.wav
329,192,119763,1,0,0:0:0:40:snare_SP.wav
109,192,120116,1,0,0:0:0:50:kick_L.wav
402,192,120469,1,0,0:0:0:50:kick_L.wav
109,192,120822,1,0,0:0:0:50:kick_L.wav
402,192,121175,1,0,0:0:0:50:kick_L.wav
475,192,121527,128,0,122233:0:0:0:0:
329,192,122233,128,0,122586:0:0:0:0:
182,192,122586,128,0,122939:0:0:0:0:
36,192,122939,1,0,0:0:0:50:kick_L.wav
182,192,123204,1,0,0:0:0:50:kick_L.wav
36,192,123469,1,0,0:0:0:40:snare_SP.wav
182,192,123645,1,0,0:0:0:50:kick_L.wav
475,192,123998,1,0,0:0:0:40:snare_SP.wav
329,192,123998,1,0,0:0:0:50:kick_L.wav
109,192,124351,1,0,0:0:0:50:kick_D.wav
256,192,124704,1,0,0:0:0:60:clap.wav
36,192,124704,1,0,0:0:0:50:kick_D.wav
402,192,125057,1,0,0:0:0:50:kick_D.wav
256,192,125410,1,0,0:0:0:60:clap.wav
475,192,125410,1,0,0:0:0:50:kick_D.wav
109,192,125763,1,0,0:0:0:50:kick_D.wav
256,192,126116,1,0,0:0:0:50:kick_D.wav
402,192,126116,1,0,0:0:0:60:clap.wav
402,192,126469,1,0,0:0:0:60:clap.wav
256,192,126469,1,0,0:0:0:50:kick_D.wav
109,192,126822,1,0,0:0:0:50:kick_D.wav
36,192,127175,1,0,0:0:0:50:kick_D.wav
182,192,127351,1,0,0:0:0:50:kick_D.wav
475,192,127527,1,0,0:0:0:50:kick_D.wav
329,192,127704,1,0,0:0:0:50:kick_D.wav
256,192,127880,128,0,128586:0:0:0:0:
109,192,128586,1,0,0:0:0:50:kick_D.wav
36,192,128939,1,0,0:0:0:50:kick_D.wav
256,192,128939,1,0,0:0:0:40:snare_SP.wav
402,192,129292,1,0,0:0:0:50:kick_D.wav
256,192,129645,1,0,0:0:0:50:kick_D.wav
475,192,129645,1,0,0:0:0:40:snare_SP.wav
109,192,129998,1,0,0:0:0:50:kick_D.wav
402,192,130351,1,0,0:0:0:40:snare_SP.wav
402,192,130527,1,0,0:0:0:40:snare_SP.wav
36,192,130704,1,0,0:0:0:50:kick_D.wav
402,192,131057,1,0,0:0:0:40:snare_SP.wav
109,192,131410,1,0,0:0:0:50:kick_D.wav
402,192,131763,1,0,0:0:0:40:snare_SP.wav
402,192,131939,1,0,0:0:0:40:snare_SP.wav
36,192,132116,1,0,0:0:0:50:kick_D.wav
402,192,132469,1,0,0:0:0:40:snare_SP.wav
36,192,132822,1,0,0:0:0:50:kick_L.wav
182,192,132998,1,0,0:0:0:50:kick_L.wav
36,192,133175,1,0,0:0:0:50:kick_L.wav
475,192,133527,1,0,0:0:0:50:kick_L.wav
329,192,133704,1,0,0:0:0:50:kick_L.wav
475,192,133880,1,0,0:0:0:50:kick_L.wav
182,192,134233,128,0,135116:0:0:0:0:
36,192,135116,1,0,0:0:0:0:
182,192,135292,1,0,0:0:0:50:snare_SP.wav
329,192,135469,1,0,0:0:0:0:
475,192,135645,1,0,0:0:0:50:kick_D.wav
329,192,135998,1,0,0:0:0:60:clap.wav
182,192,135998,1,0,0:0:0:50:kick_D.wav
36,192,136351,1,0,0:0:0:50:kick_D.wav
329,192,136704,1,0,0:0:0:60:clap.wav
182,192,136704,1,0,0:0:0:50:kick_D.wav
475,192,137057,1,0,0:0:0:50:kick_D.wav
329,192,137410,1,0,0:0:0:60:clap.wav
182,192,137410,1,0,0:0:0:50:kick_D.wav
329,192,137763,1,0,0:0:0:60:clap.wav
182,192,137763,1,0,0:0:0:50:kick_D.wav
256,192,137939,128,0,138469:0:0:0:0:
36,192,138469,1,0,0:0:0:50:kick_L.wav
182,192,138645,1,0,0:0:0:40:snare_SP.wav
475,192,138822,128,0,139175:0:0:0:0:
256,192,139175,128,0,139880:0:0:0:0:
109,192,139880,1,0,0:0:0:50:kick_D.wav
402,192,140233,1,0,0:0:0:40:snare_SP.wav
256,192,140233,1,0,0:0:0:50:kick_D.wav
109,192,140586,1,0,0:0:0:50:kick_D.wav
402,192,140939,1,0,0:0:0:40:snare_SP.wav
256,192,140939,1,0,0:0:0:50:kick_D.wav
109,192,141292,1,0,0:0:0:50:kick_D.wav
256,192,141645,128,0,141998:0:0:0:0:
36,192,141998,1,0,0:0:0:50:kick_D.wav
329,192,142351,1,0,0:0:0:40:snare_SP.wav
109,192,142351,1,0,0:0:0:50:kick_D.wav
182,192,142704,1,0,0:0:0:50:kick_D.wav
256,192,143057,128,0,143410:0:0:0:0:
475,192,143410,1,0,0:0:0:50:kick_D.wav
402,192,143763,1,0,0:0:0:40:snare_SP.wav
182,192,143763,1,0,0:0:0:50:kick_D.wav
329,192,144116,1,0,0:0:0:50:kick_D.wav
475,192,144292,1,0,0:0:0:40:snare_SP.wav
329,192,144469,1,0,0:0:0:40:snare_SP.wav
182,192,144822,1,0,0:0:0:50:kick_D.wav
36,192,144998,1,0,0:0:0:40:snare_SP.wav
182,192,145175,1,0,0:0:0:40:snare_SP.wav
109,192,145527,1,0,0:0:0:50:kick_L.wav
402,192,145527,128,0,146586:0:0:0:0:
256,192,146586,1,0,0:0:0:0:
402,192,146939,1,0,0:0:0:50:kick_D.wav
109,192,147204,1,0,0:0:0:50:kick_D.wav
402,192,147469,1,0,0:0:0:50:kick_D.wav
109,192,147645,1,0,0:0:0:50:kick_L.wav
329,192,147998,1,0,0:0:0:40:snare_SP.wav
475,192,147998,1,0,0:0:0:45:snare_L.wav
329,192,148351,1,0,0:0:0:50:kick_L.wav
36,192,148616,1,0,0:0:0:50:kick_L.wav
329,192,148880,1,0,0:0:0:50:kick_L.wav
36,192,149057,1,0,0:0:0:50:kick_L.wav
256,192,149410,1,0,0:0:0:40:snare_SP.wav
402,192,149410,1,0,0:0:0:45:snare_L.wav
36,192,149763,1,0,0:0:0:50:kick_L.wav
329,192,149939,1,0,0:0:0:50:kick_L.wav
182,192,150116,1,0,0:0:0:50:kick_L.wav
475,192,150469,1,0,0:0:0:45:snare_L.wav
182,192,150645,1,0,0:0:0:45:snare_L.wav
329,192,150822,1,0,0:0:0:45:snare_L.wav
109,192,151175,1,0,0:0:0:45:snare_L.wav
402,192,151351,1,0,0:0:0:45:snare_L.wav
256,192,151527,1,0,0:0:0:45:snare_L.wav
475,192,151880,128,0,152410:0:0:0:0:
329,192,151880,128,0,152410:0:0:0:0:
36,192,152586,1,0,0:0:0:50:kick_D.wav
329,192,152939,128,0,155057:0:0:0:0:
182,192,152939,128,0,155057:0:0:0:0:
36,192,155057,1,0,0:0:0:50:kick_L.wav
36,192,155233,1,0,0:0:0:50:kick_L.wav
329,192,155410,1,0,0:0:0:70:crash.wav
475,192,155410,1,0,0:0:0:45:snare_D.wav
