osu file format v14

[General]
AudioFilename: audio.mp3
AudioLeadIn: 0
PreviewTime: 77763
Countdown: 0
SampleSet: Soft
StackLeniency: 0.7
Mode: 3
LetterboxInBreaks: 0
SpecialStyle: 0
WidescreenStoryboard: 1

[Editor]
DistanceSpacing: 0.8
BeatDivisor: 4
GridSize: 16
TimelineZoom: 2.3

[Metadata]
Title:Beethoven Influenza
TitleUnicode:Beethoven Influenza
Artist:BanYa & Warak
ArtistUnicode:BanYa & Warak
Creator:Another Lie
Version:Plague
Source:Pump It Up 2015 PRIME
Tags:beethoven remix influenza virus
BeatmapID:1251735
BeatmapSetID:585131

[Difficulty]
HPDrainRate:9
CircleSize:4
OverallDifficulty:9
ApproachRate:5
SliderMultiplier:1.4
SliderTickRate:1

[Events]
//Background and Video events
0,0,"5002767893_5d49dd3f5f_b.jpg",0,0
//Break Periods
//Storyboard Layer 0 (Background)
//Storyboard Layer 1 (Fail)
//Storyboard Layer 2 (Pass)
//Storyboard Layer 3 (Foreground)
//Storyboard Sound Samples

[TimingPoints]
1528,352.941176470588,4,2,0,30,1,0
77763,-100,4,2,0,30,0,1
88439,-100,4,2,0,30,0,0

[HitObjects]
64,192,1528,5,0,0:0:0:0:
192,192,1528,1,0,0:0:0:0:
448,192,1528,1,0,0:0:0:0:
192,192,1704,1,0,0:0:0:0:
192,192,1880,1,0,0:0:0:0:
320,192,2057,1,0,0:0:0:0:
448,192,2057,1,0,0:0:0:0:
192,192,2233,1,0,0:0:0:0:
192,192,2410,1,0,0:0:0:0:
64,192,2586,1,0,0:0:0:0:
448,192,2586,1,0,0:0:0:0:
192,192,2763,1,0,0:0:0:0:
192,192,2939,1,0,0:0:0:0:
64,192,3116,1,0,0:0:0:0:
320,192,3116,1,0,0:0:0:0:
448,192,3292,1,0,0:0:0:0:
448,192,3469,1,0,0:0:0:0:
64,192,3645,1,0,0:0:0:0:
320,192,3645,1,0,0:0:0:0:
192,192,3822,1,0,0:0:0:0:
192,192,3998,1,0,0:0:0:0:
448,192,4175,1,0,0:0:0:0:
64,192,4175,1,0,0:0:0:0:
192,192,4351,1,0,0:0:0:0:
320,192,4351,1,0,0:0:0:0:
192,192,4527,1,0,0:0:0:0:
192,192,4704,1,0,0:0:0:0:
64,192,4880,1,0,0:0:0:0:
320,192,4880,1,0,0:0:0:0:
448,192,5057,1,0,0:0:0:0:
448,192,5233,1,0,0:0:0:0:
64,192,5410,1,0,0:0:0:0:
192,192,5410,1,0,0:0:0:0:
448,192,5586,1,0,0:0:0:0:
448,192,5763,1,0,0:0:0:0:
320,192,5939,1,0,0:0:0:0:
192,192,5939,1,0,0:0:0:0:
192,192,6116,1,0,0:0:0:0:
64,192,6292,1,0,0:0:0:0:
64,192,6469,1,0,0:0:0:0:
192,192,6469,1,0,0:0:0:0:
448,192,6645,1,0,0:0:0:0:
320,192,6822,1,0,0:0:0:0:
448,192,6822,1,0,0:0:0:0:
64,192,6998,1,0,0:0:0:0:
64,192,7175,1,0,0:0:0:0:
192,192,7175,1,0,0:0:0:0:
320,192,7175,1,0,0:0:0:0:
320,192,7351,1,0,0:0:0:0:
320,192,7527,1,0,0:0:0:0:
64,192,7704,1,0,0:0:0:0:
448,192,7704,1,0,0:0:0:0:
320,192,7880,1,0,0:0:0:0:
320,192,8057,1,0,0:0:0:0:
192,192,8233,1,0,0:0:0:0:
448,192,8233,1,0,0:0:0:0:
320,192,8410,1,0,0:0:0:0:
320,192,8586,1,0,0:0:0:0:
64,192,8763,1,0,0:0:0:0:
192,192,8763,1,0,0:0:0:0:
320,192,8939,1,0,0:0:0:0:
448,192,8939,1,0,0:0:0:0:
64,192,9116,1,0,0:0:0:0:
64,192,9292,1,0,0:0:0:0:
448,192,9292,1,0,0:0:0:0:
192,192,9469,1,0,0:0:0:0:
192,192,9645,1,0,0:0:0:0:
64,192,9822,1,0,0:0:0:0:
448,192,9822,1,0,0:0:0:0:
192,192,9998,1,0,0:0:0:0:
320,192,9998,1,0,0:0:0:0:
64,192,10175,1,0,0:0:0:0:
64,192,10351,1,0,0:0:0:0:
320,192,10527,1,0,0:0:0:0:
448,192,10527,1,0,0:0:0:0:
192,192,10704,1,0,0:0:0:0:
192,192,10880,1,0,0:0:0:0:
64,192,11057,1,0,0:0:0:0:
448,192,11057,1,0,0:0:0:0:
320,192,11233,1,0,0:0:0:0:
320,192,11410,1,0,0:0:0:0:
192,192,11586,1,0,0:0:0:0:
64,192,11586,1,0,0:0:0:0:
448,192,11763,1,0,0:0:0:0:
448,192,11939,1,0,0:0:0:0:
320,192,12116,1,0,0:0:0:0:
64,192,12116,1,0,0:0:0:0:
192,192,12292,1,0,0:0:0:0:
192,192,12469,1,0,0:0:0:0:
448,192,12469,1,0,0:0:0:0:
320,192,12645,1,0,0:0:0:0:
192,192,12822,1,0,0:0:0:0:
320,192,12822,1,0,0:0:0:0:
448,192,12822,1,0,0:0:0:0:
64,192,12822,1,0,0:0:0:0:
64,192,13351,128,0,13527:0:0:0:0:
320,192,13351,128,0,13527:0:0:0:0:
192,192,13527,128,0,13704:0:0:0:0:
448,192,13527,128,0,13704:0:0:0:0:
64,192,13704,128,0,13969:0:0:0:0:
320,192,13704,128,0,13969:0:0:0:0:
192,192,13880,128,0,13969:0:0:0:0:
448,192,13880,128,0,13969:0:0:0:0:
64,192,14057,1,0,0:0:0:0:
448,192,14057,1,0,0:0:0:0:
64,192,14233,128,0,14675:0:0:0:0:
448,192,14233,128,0,14675:0:0:0:0:
192,192,14410,128,0,14675:0:0:0:0:
320,192,14410,128,0,14675:0:0:0:0:
320,192,14763,128,0,15027:0:0:0:0:
448,192,14763,128,0,15027:0:0:0:0:
64,192,14939,128,0,15204:0:0:0:0:
192,192,14939,128,0,15204:0:0:0:0:
448,192,15116,128,0,15380:0:0:0:0:
320,192,15116,128,0,15380:0:0:0:0:
192,192,15292,128,0,15380:0:0:0:0:
64,192,15292,128,0,15380:0:0:0:0:
64,192,15469,1,0,0:0:0:0:
192,192,15469,1,0,0:0:0:0:
64,192,15645,128,0,15998:0:0:0:0:
192,192,15645,128,0,15910:0:0:0:0:
448,192,15645,1,0,0:0:0:0:
320,192,15645,1,0,0:0:0:0:
192,192,15998,128,0,16351:0:0:0:0:
320,192,15998,128,0,16263:0:0:0:0:
320,192,16351,128,0,16704:0:0:0:0:
448,192,16351,128,0,16616:0:0:0:0:
64,192,16351,1,0,0:0:0:0:
448,192,16704,128,0,17057:0:0:0:0:
64,192,16704,128,0,16969:0:0:0:0:
64,192,17057,1,0,0:0:0:0:
192,192,17057,1,0,0:0:0:0:
320,192,17057,1,0,0:0:0:0:
448,192,17233,1,0,0:0:0:0:
448,192,17322,1,0,0:0:0:0:
64,192,17410,1,0,0:0:0:0:
320,192,17410,1,0,0:0:0:0:
64,192,17586,1,0,0:0:0:0:
320,192,17586,1,0,0:0:0:0:
192,192,17763,1,0,0:0:0:0:
448,192,17763,1,0,0:0:0:0:
192,192,17939,1,0,0:0:0:0:
448,192,17939,1,0,0:0:0:0:
64,192,18116,1,0,0:0:0:0:
448,192,18116,1,0,0:0:0:0:
320,192,18204,1,0,0:0:0:0:
192,192,18204,1,0,0:0:0:0:
64,192,18292,1,0,0:0:0:0:
448,192,18292,1,0,0:0:0:0:
320,192,18380,1,0,0:0:0:0:
192,192,18380,1,0,0:0:0:0:
64,192,18469,1,0,0:0:0:0:
192,192,18469,1,0,0:0:0:0:
320,192,18469,1,0,0:0:0:0:
448,192,18469,1,0,0:0:0:0:
192,192,18998,128,0,19175:0:0:0:0:
448,192,18998,128,0,19175:0:0:0:0:
320,192,19175,128,0,19351:0:0:0:0:
64,192,19175,128,0,19351:0:0:0:0:
448,192,19351,128,0,19616:0:0:0:0:
192,192,19351,128,0,19616:0:0:0:0:
320,192,19527,128,0,19616:0:0:0:0:
64,192,19527,128,0,19616:0:0:0:0:
64,192,19704,1,0,0:0:0:0:
448,192,19704,1,0,0:0:0:0:
448,192,19880,128,0,20322:0:0:0:0:
64,192,19880,128,0,20322:0:0:0:0:
320,192,20057,128,0,20322:0:0:0:0:
192,192,20057,128,0,20322:0:0:0:0:
192,192,20410,128,0,20675:0:0:0:0:
64,192,20410,128,0,20675:0:0:0:0:
448,192,20586,128,0,20851:0:0:0:0:
320,192,20586,128,0,20851:0:0:0:0:
64,192,20763,128,0,21027:0:0:0:0:
192,192,20763,128,0,21027:0:0:0:0:
320,192,20939,128,0,21027:0:0:0:0:
448,192,20939,128,0,21027:0:0:0:0:
320,192,21116,1,0,0:0:0:0:
448,192,21116,1,0,0:0:0:0:
448,192,21292,128,0,21645:0:0:0:0:
320,192,21292,128,0,21557:0:0:0:0:
64,192,21292,1,0,0:0:0:0:
192,192,21292,1,0,0:0:0:0:
320,192,21645,128,0,21998:0:0:0:0:
192,192,21645,128,0,21910:0:0:0:0:
192,192,21998,128,0,22351:0:0:0:0:
64,192,21998,128,0,22263:0:0:0:0:
448,192,21998,1,0,0:0:0:0:
64,192,22351,128,0,22704:0:0:0:0:
448,192,22351,128,0,22616:0:0:0:0:
448,192,22704,1,0,0:0:0:0:
320,192,22704,1,0,0:0:0:0:
192,192,22704,1,0,0:0:0:0:
448,192,22880,1,0,0:0:0:0:
448,192,22969,1,0,0:0:0:0:
64,192,23057,1,0,0:0:0:0:
320,192,23057,1,0,0:0:0:0:
448,192,23233,1,0,0:0:0:0:
448,192,23322,1,0,0:0:0:0:
320,192,23410,1,0,0:0:0:0:
64,192,23410,1,0,0:0:0:0:
448,192,23645,1,0,0:0:0:0:
192,192,23763,1,0,0:0:0:0:
320,192,23763,1,0,0:0:0:0:
448,192,23998,1,0,0:0:0:0:
64,192,24116,128,0,24204:0:0:0:0:
320,192,24116,1,0,0:0:0:0:
64,192,24292,128,0,24380:0:0:0:0:
192,192,24469,128,0,24557:0:0:0:0:
320,192,24469,1,0,0:0:0:0:
192,192,24645,1,0,0:0:0:0:
64,192,24822,128,0,24910:0:0:0:0:
64,192,24998,128,0,25086:0:0:0:0:
192,192,25175,128,0,25263:0:0:0:0:
320,192,25175,1,0,0:0:0:0:
192,192,25351,1,0,0:0:0:0:
64,192,25527,1,0,0:0:0:0:
320,192,25616,1,0,0:0:0:0:
192,192,25704,1,0,0:0:0:0:
448,192,25792,1,0,0:0:0:0:
64,192,25880,1,0,0:0:0:0:
320,192,25969,1,0,0:0:0:0:
192,192,26057,1,0,0:0:0:0:
448,192,26145,1,0,0:0:0:0:
64,192,26233,1,0,0:0:0:0:
320,192,26322,1,0,0:0:0:0:
192,192,26410,1,0,0:0:0:0:
448,192,26498,1,0,0:0:0:0:
64,192,26586,1,0,0:0:0:0:
320,192,26675,1,0,0:0:0:0:
192,192,26763,1,0,0:0:0:0:
448,192,26851,1,0,0:0:0:0:
64,192,26939,1,0,0:0:0:0:
320,192,26939,128,0,27027:0:0:0:0:
320,192,27116,128,0,27204:0:0:0:0:
192,192,27292,128,0,27380:0:0:0:0:
64,192,27292,1,0,0:0:0:0:
192,192,27469,1,0,0:0:0:0:
320,192,27645,128,0,27733:0:0:0:0:
448,192,27645,1,0,0:0:0:0:
320,192,27822,128,0,27910:0:0:0:0:
192,192,27998,128,0,28086:0:0:0:0:
64,192,27998,1,0,0:0:0:0:
192,192,28175,1,0,0:0:0:0:
448,192,28351,1,0,0:0:0:0:
192,192,28439,1,0,0:0:0:0:
320,192,28527,1,0,0:0:0:0:
64,192,28616,1,0,0:0:0:0:
448,192,28704,1,0,0:0:0:0:
192,192,28792,1,0,0:0:0:0:
320,192,28880,1,0,0:0:0:0:
64,192,28969,1,0,0:0:0:0:
448,192,29057,1,0,0:0:0:0:
192,192,29145,1,0,0:0:0:0:
320,192,29233,1,0,0:0:0:0:
64,192,29322,1,0,0:0:0:0:
448,192,29410,1,0,0:0:0:0:
192,192,29498,1,0,0:0:0:0:
320,192,29586,1,0,0:0:0:0:
64,192,29675,1,0,0:0:0:0:
192,192,29763,1,0,0:0:0:0:
448,192,29763,1,0,0:0:0:0:
64,192,29939,128,0,30027:0:0:0:0:
64,192,30116,128,0,30204:0:0:0:0:
192,192,30292,128,0,30380:0:0:0:0:
192,192,30469,128,0,30557:0:0:0:0:
448,192,30469,1,0,0:0:0:0:
320,192,30645,128,0,30733:0:0:0:0:
64,192,30645,1,0,0:0:0:0:
320,192,30822,128,0,30910:0:0:0:0:
192,192,30822,1,0,0:0:0:0:
448,192,30998,128,0,31086:0:0:0:0:
320,192,30998,1,0,0:0:0:0:
448,192,31175,1,0,0:0:0:0:
64,192,31175,1,0,0:0:0:0:
192,192,31175,1,0,0:0:0:0:
192,192,32057,1,0,0:0:0:0:
320,192,32057,1,0,0:0:0:0:
64,192,32145,1,0,0:0:0:0:
320,192,32233,1,0,0:0:0:0:
448,192,32233,1,0,0:0:0:0:
192,192,32322,1,0,0:0:0:0:
448,192,32410,1,0,0:0:0:0:
320,192,32498,1,0,0:0:0:0:
192,192,32586,1,0,0:0:0:0:
64,192,32586,128,0,32939:0:0:0:0:
320,192,32763,1,0,0:0:0:0:
192,192,32939,1,0,0:0:0:0:
448,192,32939,1,0,0:0:0:0:
64,192,33116,128,0,33204:0:0:0:0:
320,192,33292,128,0,33645:0:0:0:0:
64,192,33292,1,0,0:0:0:0:
448,192,33292,1,0,0:0:0:0:
192,192,33469,1,0,0:0:0:0:
64,192,33645,1,0,0:0:0:0:
448,192,33645,1,0,0:0:0:0:
192,192,33822,128,0,33910:0:0:0:0:
448,192,33998,128,0,34704:0:0:0:0:
320,192,33998,1,0,0:0:0:0:
192,192,33998,1,0,0:0:0:0:
64,192,34175,1,0,0:0:0:0:
192,192,34351,1,0,0:0:0:0:
320,192,34351,1,0,0:0:0:0:
64,192,34527,1,0,0:0:0:0:
192,192,34704,1,0,0:0:0:0:
320,192,34704,1,0,0:0:0:0:
448,192,34880,1,0,0:0:0:0:
192,192,35057,1,0,0:0:0:0:
320,192,35057,1,0,0:0:0:0:
64,192,35145,1,0,0:0:0:0:
320,192,35233,1,0,0:0:0:0:
192,192,35322,1,0,0:0:0:0:
64,192,35410,1,0,0:0:0:0:
448,192,35410,1,0,0:0:0:0:
192,192,35586,1,0,0:0:0:0:
320,192,35586,1,0,0:0:0:0:
192,192,35763,1,0,0:0:0:0:
320,192,35763,1,0,0:0:0:0:
192,192,35939,1,0,0:0:0:0:
320,192,35939,1,0,0:0:0:0:
64,192,36116,1,0,0:0:0:0:
448,192,36116,1,0,0:0:0:0:
192,192,36292,1,0,0:0:0:0:
320,192,36292,1,0,0:0:0:0:
192,192,36469,1,0,0:0:0:0:
320,192,36469,1,0,0:0:0:0:
192,192,36645,1,0,0:0:0:0:
320,192,36645,1,0,0:0:0:0:
64,192,36822,1,0,0:0:0:0:
448,192,36822,1,0,0:0:0:0:
320,192,36822,1,0,0:0:0:0:
192,192,36998,1,0,0:0:0:0:
320,192,37175,1,0,0:0:0:0:
448,192,37175,1,0,0:0:0:0:
64,192,37351,1,0,0:0:0:0:
192,192,37527,1,0,0:0:0:0:
320,192,37527,1,0,0:0:0:0:
448,192,37704,1,0,0:0:0:0:
64,192,37880,1,0,0:0:0:0:
192,192,37880,128,0,37969:0:0:0:0:
320,192,38057,128,0,38145:0:0:0:0:
64,192,38233,1,0,0:0:0:0:
448,192,38233,128,0,38939:0:0:0:0:
192,192,38233,1,0,0:0:0:0:
320,192,38410,1,0,0:0:0:0:
192,192,38586,1,0,0:0:0:0:
64,192,38586,1,0,0:0:0:0:
320,192,38763,1,0,0:0:0:0:
64,192,38939,1,0,0:0:0:0:
192,192,38939,1,0,0:0:0:0:
320,192,39116,1,0,0:0:0:0:
448,192,39292,128,0,39380:0:0:0:0:
64,192,39292,1,0,0:0:0:0:
192,192,39292,1,0,0:0:0:0:
320,192,39469,128,0,39557:0:0:0:0:
192,192,39645,128,0,40351:0:0:0:0:
64,192,39645,1,0,0:0:0:0:
448,192,39645,1,0,0:0:0:0:
320,192,39822,1,0,0:0:0:0:
64,192,39998,1,0,0:0:0:0:
448,192,39998,1,0,0:0:0:0:
320,192,40175,1,0,0:0:0:0:
64,192,40351,1,0,0:0:0:0:
448,192,40351,1,0,0:0:0:0:
192,192,40527,1,0,0:0:0:0:
320,192,40704,1,0,0:0:0:0:
448,192,40704,128,0,40792:0:0:0:0:
192,192,40880,128,0,40969:0:0:0:0:
64,192,41057,1,0,0:0:0:0:
320,192,41057,1,0,0:0:0:0:
192,192,41233,1,0,0:0:0:0:
448,192,41233,1,0,0:0:0:0:
64,192,41410,1,0,0:0:0:0:
320,192,41410,1,0,0:0:0:0:
192,192,41586,1,0,0:0:0:0:
448,192,41586,1,0,0:0:0:0:
64,192,41763,1,0,0:0:0:0:
320,192,41763,1,0,0:0:0:0:
192,192,41939,1,0,0:0:0:0:
448,192,41939,1,0,0:0:0:0:
64,192,42027,1,0,0:0:0:0:
320,192,42027,1,0,0:0:0:0:
448,192,42116,1,0,0:0:0:0:
192,192,42116,1,0,0:0:0:0:
192,192,42292,1,0,0:0:0:0:
320,192,42292,1,0,0:0:0:0:
64,192,42469,1,0,0:0:0:0:
448,192,42469,1,0,0:0:0:0:
192,192,42469,1,0,0:0:0:0:
320,192,43351,1,0,0:0:0:0:
192,192,43351,1,0,0:0:0:0:
448,192,43439,1,0,0:0:0:0:
192,192,43527,1,0,0:0:0:0:
64,192,43527,1,0,0:0:0:0:
320,192,43616,1,0,0:0:0:0:
64,192,43704,1,0,0:0:0:0:
192,192,43792,1,0,0:0:0:0:
320,192,43880,1,0,0:0:0:0:
448,192,43880,128,0,44410:0:0:0:0:
64,192,44233,1,0,0:0:0:0:
320,192,44233,1,0,0:0:0:0:
192,192,44410,128,0,44498:0:0:0:0:
320,192,44586,128,0,45116:0:0:0:0:
192,192,44763,1,0,0:0:0:0:
448,192,44763,1,0,0:0:0:0:
64,192,44939,1,0,0:0:0:0:
448,192,44939,1,0,0:0:0:0:
192,192,45116,128,0,45204:0:0:0:0:
64,192,45292,128,0,45822:0:0:0:0:
448,192,45292,1,0,0:0:0:0:
320,192,45292,1,0,0:0:0:0:
192,192,45469,1,0,0:0:0:0:
320,192,45645,1,0,0:0:0:0:
448,192,45645,1,0,0:0:0:0:
192,192,45822,1,0,0:0:0:0:
192,192,45998,1,0,0:0:0:0:
64,192,46175,1,0,0:0:0:0:
192,192,46175,1,0,0:0:0:0:
448,192,46263,1,0,0:0:0:0:
320,192,46351,1,0,0:0:0:0:
192,192,46351,1,0,0:0:0:0:
64,192,46439,1,0,0:0:0:0:
320,192,46527,1,0,0:0:0:0:
448,192,46527,1,0,0:0:0:0:
192,192,46616,1,0,0:0:0:0:
64,192,46704,1,0,0:0:0:0:
448,192,46704,128,0,46792:0:0:0:0:
448,192,46880,128,0,47233:0:0:0:0:
64,192,46880,1,0,0:0:0:0:
320,192,47057,128,0,47145:0:0:0:0:
64,192,47057,128,0,47145:0:0:0:0:
64,192,47233,1,0,0:0:0:0:
320,192,47233,128,0,47322:0:0:0:0:
64,192,47410,128,0,47498:0:0:0:0:
448,192,47410,1,0,0:0:0:0:
448,192,47586,1,0,0:0:0:0:
64,192,47586,128,0,47939:0:0:0:0:
192,192,47763,128,0,47851:0:0:0:0:
448,192,47763,128,0,47851:0:0:0:0:
192,192,47939,128,0,48027:0:0:0:0:
448,192,47939,1,0,0:0:0:0:
192,192,48116,1,0,0:0:0:0:
64,192,48292,1,0,0:0:0:0:
448,192,48292,1,0,0:0:0:0:
320,192,48380,1,0,0:0:0:0:
64,192,48469,1,0,0:0:0:0:
192,192,48469,1,0,0:0:0:0:
448,192,48557,1,0,0:0:0:0:
320,192,48645,1,0,0:0:0:0:
192,192,48733,1,0,0:0:0:0:
64,192,48822,1,0,0:0:0:0:
448,192,48822,1,0,0:0:0:0:
192,192,48998,1,0,0:0:0:0:
320,192,48998,1,0,0:0:0:0:
320,192,49175,1,0,0:0:0:0:
192,192,49175,1,0,0:0:0:0:
64,192,49175,1,0,0:0:0:0:
448,192,49263,1,0,0:0:0:0:
64,192,49351,1,0,0:0:0:0:
192,192,49439,1,0,0:0:0:0:
320,192,49527,1,0,0:0:0:0:
448,192,49527,128,0,50145:0:0:0:0:
192,192,49880,1,0,0:0:0:0:
320,192,49880,1,0,0:0:0:0:
448,192,50233,128,0,50322:0:0:0:0:
64,192,50410,1,0,0:0:0:0:
448,192,50410,1,0,0:0:0:0:
320,192,50586,1,0,0:0:0:0:
192,192,50586,1,0,0:0:0:0:
64,192,50675,1,0,0:0:0:0:
448,192,50763,1,0,0:0:0:0:
320,192,50851,1,0,0:0:0:0:
192,192,50939,1,0,0:0:0:0:
64,192,50939,128,0,51557:0:0:0:0:
320,192,51292,1,0,0:0:0:0:
448,192,51292,1,0,0:0:0:0:
64,192,51645,128,0,51733:0:0:0:0:
64,192,51822,1,0,0:0:0:0:
448,192,51822,1,0,0:0:0:0:
192,192,51998,1,0,0:0:0:0:
320,192,51998,1,0,0:0:0:0:
192,192,52175,1,0,0:0:0:0:
320,192,52175,1,0,0:0:0:0:
64,192,52351,1,0,0:0:0:0:
192,192,52351,1,0,0:0:0:0:
448,192,52439,1,0,0:0:0:0:
320,192,52439,1,0,0:0:0:0:
64,192,52527,1,0,0:0:0:0:
192,192,52527,1,0,0:0:0:0:
320,192,52616,1,0,0:0:0:0:
448,192,52616,1,0,0:0:0:0:
64,192,52704,1,0,0:0:0:0:
448,192,52704,1,0,0:0:0:0:
192,192,52792,1,0,0:0:0:0:
320,192,52792,1,0,0:0:0:0:
448,192,52880,1,0,0:0:0:0:
64,192,52880,1,0,0:0:0:0:
320,192,52969,1,0,0:0:0:0:
192,192,52969,1,0,0:0:0:0:
320,192,53057,1,0,0:0:0:0:
64,192,53057,1,0,0:0:0:0:
192,192,53145,1,0,0:0:0:0:
448,192,53145,1,0,0:0:0:0:
64,192,53233,1,0,0:0:0:0:
320,192,53233,1,0,0:0:0:0:
448,192,53322,1,0,0:0:0:0:
192,192,53322,1,0,0:0:0:0:
64,192,53410,1,0,0:0:0:0:
448,192,53410,1,0,0:0:0:0:
192,192,53498,1,0,0:0:0:0:
320,192,53498,1,0,0:0:0:0:
64,192,53586,1,0,0:0:0:0:
448,192,53586,1,0,0:0:0:0:
192,192,53675,1,0,0:0:0:0:
320,192,53675,1,0,0:0:0:0:
64,192,53763,128,0,54469:0:0:0:0:
448,192,53763,1,0,0:0:0:0:
192,192,53939,1,0,0:0:0:0:
320,192,53939,1,0,0:0:0:0:
320,192,54116,1,0,0:0:0:0:
448,192,54116,1,0,0:0:0:0:
320,192,54292,1,0,0:0:0:0:
448,192,54292,1,0,0:0:0:0:
192,192,54469,1,0,0:0:0:0:
320,192,54469,1,0,0:0:0:0:
64,192,54645,128,0,54822:0:0:0:0:
320,192,54822,1,0,0:0:0:0:
448,192,54822,1,0,0:0:0:0:
192,192,54822,128,0,54998:0:0:0:0:
320,192,54998,128,0,55175:0:0:0:0:
192,192,55175,1,0,0:0:0:0:
64,192,55175,128,0,55351:0:0:0:0:
448,192,55351,128,0,55527:0:0:0:0:
192,192,55527,1,0,0:0:0:0:
320,192,55527,128,0,55704:0:0:0:0:
64,192,55527,1,0,0:0:0:0:
448,192,55704,128,0,55880:0:0:0:0:
64,192,55880,128,0,56057:0:0:0:0:
192,192,55880,1,0,0:0:0:0:
320,192,56057,128,0,56233:0:0:0:0:
192,192,56233,128,0,56410:0:0:0:0:
64,192,56233,1,0,0:0:0:0:
448,192,56233,1,0,0:0:0:0:
320,192,56410,128,0,56586:0:0:0:0:
192,192,56586,128,0,56763:0:0:0:0:
448,192,56586,1,0,0:0:0:0:
320,192,56763,128,0,56939:0:0:0:0:
192,192,56939,128,0,57116:0:0:0:0:
64,192,56939,1,0,0:0:0:0:
448,192,56939,1,0,0:0:0:0:
64,192,57116,128,0,57292:0:0:0:0:
192,192,57292,1,0,0:0:0:0:
448,192,57292,1,0,0:0:0:0:
64,192,57469,1,0,0:0:0:0:
320,192,57469,1,0,0:0:0:0:
192,192,57645,1,0,0:0:0:0:
448,192,57645,1,0,0:0:0:0:
64,192,57822,1,0,0:0:0:0:
320,192,57822,1,0,0:0:0:0:
192,192,57910,1,0,0:0:0:0:
448,192,57910,1,0,0:0:0:0:
448,192,57998,128,0,58175:0:0:0:0:
64,192,57998,1,0,0:0:0:0:
192,192,58175,1,0,0:0:0:0:
64,192,58175,1,0,0:0:0:0:
320,192,58175,128,0,58351:0:0:0:0:
192,192,58351,128,0,58527:0:0:0:0:
448,192,58527,128,0,58704:0:0:0:0:
64,192,58704,1,0,0:0:0:0:
320,192,58704,128,0,58880:0:0:0:0:
64,192,58880,128,0,59057:0:0:0:0:
448,192,59057,1,0,0:0:0:0:
192,192,59057,128,0,59233:0:0:0:0:
320,192,59057,1,0,0:0:0:0:
448,192,59233,128,0,59410:0:0:0:0:
64,192,59410,1,0,0:0:0:0:
192,192,59410,1,0,0:0:0:0:
320,192,59586,128,0,59763:0:0:0:0:
192,192,59763,128,0,59939:0:0:0:0:
448,192,59763,1,0,0:0:0:0:
64,192,59763,1,0,0:0:0:0:
320,192,59939,128,0,60116:0:0:0:0:
64,192,60116,1,0,0:0:0:0:
448,192,60116,1,0,0:0:0:0:
192,192,60204,1,0,0:0:0:0:
320,192,60204,1,0,0:0:0:0:
448,192,60292,1,0,0:0:0:0:
64,192,60292,1,0,0:0:0:0:
320,192,60292,128,0,60469:0:0:0:0:
64,192,60469,1,0,0:0:0:0:
448,192,60469,1,0,0:0:0:0:
192,192,60645,1,0,0:0:0:0:
320,192,60645,1,0,0:0:0:0:
64,192,60733,1,0,0:0:0:0:
448,192,60733,1,0,0:0:0:0:
192,192,60822,1,0,0:0:0:0:
320,192,60822,1,0,0:0:0:0:
448,192,60822,128,0,60998:0:0:0:0:
192,192,60998,128,0,61175:0:0:0:0:
320,192,61175,128,0,61351:0:0:0:0:
448,192,61175,1,0,0:0:0:0:
64,192,61175,1,0,0:0:0:0:
192,192,61351,128,0,61527:0:0:0:0:
64,192,61527,128,0,61704:0:0:0:0:
448,192,61527,1,0,0:0:0:0:
448,192,61880,128,0,62057:0:0:0:0:
192,192,61880,1,0,0:0:0:0:
64,192,61880,1,0,0:0:0:0:
192,192,62233,1,0,0:0:0:0:
448,192,62233,128,0,62410:0:0:0:0:
320,192,62410,128,0,62586:0:0:0:0:
192,192,62586,128,0,62763:0:0:0:0:
64,192,62586,1,0,0:0:0:0:
448,192,62586,1,0,0:0:0:0:
64,192,62763,128,0,62939:0:0:0:0:
320,192,62939,1,0,0:0:0:0:
448,192,62939,1,0,0:0:0:0:
320,192,63116,1,0,0:0:0:0:
192,192,63116,1,0,0:0:0:0:
64,192,63292,1,0,0:0:0:0:
192,192,63292,1,0,0:0:0:0:
320,192,63380,1,0,0:0:0:0:
448,192,63469,1,0,0:0:0:0:
320,192,63557,1,0,0:0:0:0:
64,192,63645,1,0,0:0:0:0:
192,192,63645,128,0,63822:0:0:0:0:
448,192,63822,128,0,63998:0:0:0:0:
192,192,63998,128,0,64175:0:0:0:0:
64,192,63998,1,0,0:0:0:0:
320,192,63998,1,0,0:0:0:0:
448,192,64175,128,0,64351:0:0:0:0:
64,192,64351,1,0,0:0:0:0:
320,192,64351,1,0,0:0:0:0:
192,192,64439,1,0,0:0:0:0:
448,192,64439,1,0,0:0:0:0:
320,192,64527,128,0,64704:0:0:0:0:
64,192,64527,1,0,0:0:0:0:
192,192,64704,1,0,0:0:0:0:
448,192,64704,1,0,0:0:0:0:
64,192,64704,1,0,0:0:0:0:
320,192,64880,1,0,0:0:0:0:
192,192,65057,1,0,0:0:0:0:
448,192,65057,1,0,0:0:0:0:
192,192,65233,1,0,0:0:0:0:
448,192,65233,1,0,0:0:0:0:
192,192,65410,1,0,0:0:0:0:
448,192,65410,1,0,0:0:0:0:
64,192,65498,1,0,0:0:0:0:
320,192,65498,1,0,0:0:0:0:
192,192,65586,1,0,0:0:0:0:
448,192,65586,1,0,0:0:0:0:
64,192,65675,1,0,0:0:0:0:
320,192,65675,1,0,0:0:0:0:
192,192,65763,1,0,0:0:0:0:
448,192,65763,1,0,0:0:0:0:
64,192,65851,1,0,0:0:0:0:
320,192,65851,1,0,0:0:0:0:
192,192,65939,1,0,0:0:0:0:
448,192,65939,1,0,0:0:0:0:
320,192,66027,1,0,0:0:0:0:
64,192,66027,1,0,0:0:0:0:
448,192,66116,1,0,0:0:0:0:
320,192,66160,1,0,0:0:0:0:
192,192,66204,1,0,0:0:0:0:
64,192,66248,1,0,0:0:0:0:
448,192,66292,1,0,0:0:0:0:
320,192,66336,1,0,0:0:0:0:
192,192,66380,1,0,0:0:0:0:
64,192,66425,1,0,0:0:0:0:
320,192,66469,1,0,0:0:0:0:
448,192,66469,128,0,66998:0:0:0:0:
192,192,66822,1,0,0:0:0:0:
64,192,66822,1,0,0:0:0:0:
192,192,66998,1,0,0:0:0:0:
320,192,67086,1,0,0:0:0:0:
448,192,67175,1,0,0:0:0:0:
64,192,67175,1,0,0:0:0:0:
192,192,67351,1,0,0:0:0:0:
320,192,67527,1,0,0:0:0:0:
448,192,67527,1,0,0:0:0:0:
448,192,67880,128,0,67969:0:0:0:0:
448,192,68013,1,0,0:0:0:0:
320,192,68057,128,0,68145:0:0:0:0:
192,192,68233,128,0,68322:0:0:0:0:
448,192,68233,1,0,0:0:0:0:
320,192,68233,1,0,0:0:0:0:
64,192,68410,128,0,68498:0:0:0:0:
192,192,68586,128,0,68675:0:0:0:0:
320,192,68586,1,0,0:0:0:0:
448,192,68586,1,0,0:0:0:0:
192,192,68719,1,0,0:0:0:0:
320,192,68763,128,0,68851:0:0:0:0:
320,192,68895,1,0,0:0:0:0:
448,192,68939,128,0,69292:0:0:0:0:
64,192,69292,1,0,0:0:0:0:
320,192,69292,128,0,69645:0:0:0:0:
192,192,69645,1,0,0:0:0:0:
448,192,69645,1,0,0:0:0:0:
64,192,69645,1,0,0:0:0:0:
320,192,69822,1,0,0:0:0:0:
192,192,69910,1,0,0:0:0:0:
320,192,69998,1,0,0:0:0:0:
448,192,69998,128,0,70086:0:0:0:0:
64,192,70175,128,0,70263:0:0:0:0:
448,192,70351,128,0,70439:0:0:0:0:
64,192,70527,128,0,70616:0:0:0:0:
448,192,70704,1,0,0:0:0:0:
192,192,70704,1,0,0:0:0:0:
448,192,70792,1,0,0:0:0:0:
320,192,70880,1,0,0:0:0:0:
320,192,70969,1,0,0:0:0:0:
192,192,71057,1,0,0:0:0:0:
448,192,71057,1,0,0:0:0:0:
64,192,71057,1,0,0:0:0:0:
192,192,71145,1,0,0:0:0:0:
64,192,71233,1,0,0:0:0:0:
64,192,71322,1,0,0:0:0:0:
320,192,71410,1,0,0:0:0:0:
448,192,71410,1,0,0:0:0:0:
192,192,71586,1,0,0:0:0:0:
64,192,71586,1,0,0:0:0:0:
320,192,71763,128,0,72116:0:0:0:0:
448,192,72116,128,0,72645:0:0:0:0:
64,192,72116,1,0,0:0:0:0:
64,192,72292,1,0,0:0:0:0:
192,192,72469,1,0,0:0:0:0:
320,192,72469,1,0,0:0:0:0:
64,192,72645,1,0,0:0:0:0:
320,192,72733,1,0,0:0:0:0:
192,192,72822,128,0,72910:0:0:0:0:
320,192,72910,128,0,72998:0:0:0:0:
64,192,72998,128,0,73086:0:0:0:0:
448,192,73086,128,0,73175:0:0:0:0:
192,192,73175,128,0,73263:0:0:0:0:
320,192,73263,128,0,73351:0:0:0:0:
64,192,73351,128,0,73439:0:0:0:0:
448,192,73439,128,0,73527:0:0:0:0:
192,192,73527,1,0,0:0:0:0:
64,192,73527,128,0,73616:0:0:0:0:
320,192,73704,128,0,73792:0:0:0:0:
448,192,73792,128,0,73880:0:0:0:0:
192,192,73880,128,0,73969:0:0:0:0:
320,192,73880,1,0,0:0:0:0:
320,192,74057,128,0,74145:0:0:0:0:
192,192,74233,128,0,74322:0:0:0:0:
448,192,74233,1,0,0:0:0:0:
448,192,74410,128,0,74498:0:0:0:0:
320,192,74498,1,0,0:0:0:0:
192,192,74586,128,0,74939:0:0:0:0:
64,192,74939,128,0,75292:0:0:0:0:
448,192,74939,1,0,0:0:0:0:
320,192,75292,1,0,0:0:0:0:
448,192,75292,1,0,0:0:0:0:
192,192,75292,1,0,0:0:0:0:
64,192,75469,1,0,0:0:0:0:
320,192,75557,1,0,0:0:0:0:
64,192,75645,1,0,0:0:0:0:
448,192,75645,128,0,75822:0:0:0:0:
64,192,75822,1,0,0:0:0:0:
192,192,75822,1,0,0:0:0:0:
320,192,75998,1,0,0:0:0:0:
64,192,75998,1,0,0:0:0:0:
448,192,75998,128,0,76175:0:0:0:0:
192,192,76175,1,0,0:0:0:0:
320,192,76175,1,0,0:0:0:0:
64,192,76351,128,0,76439:0:0:0:0:
192,192,76439,128,0,76527:0:0:0:0:
320,192,76527,1,0,0:0:0:0:
448,192,76527,128,0,76704:0:0:0:0:
64,192,76704,128,0,76792:0:0:0:0:
320,192,76704,1,0,0:0:0:0:
192,192,76792,128,0,76880:0:0:0:0:
320,192,76880,128,0,76969:0:0:0:0:
64,192,76880,1,0,0:0:0:0:
448,192,76969,128,0,77057:0:0:0:0:
320,192,77057,128,0,77145:0:0:0:0:
64,192,77057,1,0,0:0:0:0:
192,192,77145,128,0,77233:0:0:0:0:
64,192,77233,128,0,77322:0:0:0:0:
448,192,77233,1,0,0:0:0:0:
448,192,77410,1,0,0:0:0:0:
64,192,77410,1,0,0:0:0:0:
192,192,77410,1,0,0:0:0:0:
320,192,77498,1,0,0:0:0:0:
192,192,77586,1,0,0:0:0:0:
320,192,77675,1,0,0:0:0:0:
448,192,77763,1,0,0:0:0:0:
64,192,77763,1,0,0:0:0:0:
192,192,77851,1,0,0:0:0:0:
320,192,77939,1,0,0:0:0:0:
64,192,78027,1,0,0:0:0:0:
448,192,78116,1,0,0:0:0:0:
192,192,78204,1,0,0:0:0:0:
320,192,78292,1,0,0:0:0:0:
64,192,78380,1,0,0:0:0:0:
448,192,78469,1,0,0:0:0:0:
192,192,78557,1,0,0:0:0:0:
320,192,78645,1,0,0:0:0:0:
64,192,78733,1,0,0:0:0:0:
448,192,78822,1,0,0:0:0:0:
192,192,78910,1,0,0:0:0:0:
320,192,78998,1,0,0:0:0:0:
64,192,79086,1,0,0:0:0:0:
320,192,79175,1,0,0:0:0:0:
448,192,79175,1,0,0:0:0:0:
192,192,79263,1,0,0:0:0:0:
448,192,79351,1,0,0:0:0:0:
64,192,79439,1,0,0:0:0:0:
320,192,79527,1,0,0:0:0:0:
192,192,79616,1,0,0:0:0:0:
448,192,79704,1,0,0:0:0:0:
64,192,79792,1,0,0:0:0:0:
320,192,79880,1,0,0:0:0:0:
192,192,79969,1,0,0:0:0:0:
448,192,80057,1,0,0:0:0:0:
64,192,80145,1,0,0:0:0:0:
320,192,80233,1,0,0:0:0:0:
192,192,80322,1,0,0:0:0:0:
448,192,80410,1,0,0:0:0:0:
320,192,80498,1,0,0:0:0:0:
192,192,80586,1,0,0:0:0:0:
448,192,80586,1,0,0:0:0:0:
64,192,80675,1,0,0:0:0:0:
320,192,80763,1,0,0:0:0:0:
192,192,80851,1,0,0:0:0:0:
448,192,80939,1,0,0:0:0:0:
320,192,81027,1,0,0:0:0:0:
192,192,81116,1,0,0:0:0:0:
64,192,81204,1,0,0:0:0:0:
320,192,81292,1,0,0:0:0:0:
192,192,81380,1,0,0:0:0:0:
448,192,81469,1,0,0:0:0:0:
320,192,81557,1,0,0:0:0:0:
192,192,81645,1,0,0:0:0:0:
64,192,81733,1,0,0:0:0:0:
192,192,81822,1,0,0:0:0:0:
320,192,81910,1,0,0:0:0:0:
448,192,81998,1,0,0:0:0:0:
64,192,81998,1,0,0:0:0:0:
192,192,82086,1,0,0:0:0:0:
448,192,82175,1,0,0:0:0:0:
192,192,82263,1,0,0:0:0:0:
448,192,82351,1,0,0:0:0:0:
320,192,82439,1,0,0:0:0:0:
192,192,82527,1,0,0:0:0:0:
64,192,82616,1,0,0:0:0:0:
320,192,82704,1,0,0:0:0:0:
64,192,82792,1,0,0:0:0:0:
320,192,82880,1,0,0:0:0:0:
64,192,82969,1,0,0:0:0:0:
448,192,83057,1,0,0:0:0:0:
320,192,83145,1,0,0:0:0:0:
192,192,83233,1,0,0:0:0:0:
64,192,83322,1,0,0:0:0:0:
192,192,83410,1,0,0:0:0:0:
320,192,83410,1,0,0:0:0:0:
448,192,83498,1,0,0:0:0:0:
64,192,83586,1,0,0:0:0:0:
320,192,83675,1,0,0:0:0:0:
192,192,83763,1,0,0:0:0:0:
448,192,83851,1,0,0:0:0:0:
64,192,83939,1,0,0:0:0:0:
320,192,84027,1,0,0:0:0:0:
192,192,84116,1,0,0:0:0:0:
448,192,84204,1,0,0:0:0:0:
64,192,84292,1,0,0:0:0:0:
320,192,84380,1,0,0:0:0:0:
192,192,84469,1,0,0:0:0:0:
448,192,84557,1,0,0:0:0:0:
320,192,84645,1,0,0:0:0:0:
192,192,84733,1,0,0:0:0:0:
64,192,84822,1,0,0:0:0:0:
448,192,84822,1,0,0:0:0:0:
320,192,84910,1,0,0:0:0:0:
192,192,84998,1,0,0:0:0:0:
448,192,85086,1,0,0:0:0:0:
64,192,85175,1,0,0:0:0:0:
320,192,85263,1,0,0:0:0:0:
192,192,85351,1,0,0:0:0:0:
448,192,85439,1,0,0:0:0:0:
64,192,85527,1,0,0:0:0:0:
320,192,85616,1,0,0:0:0:0:
192,192,85704,1,0,0:0:0:0:
448,192,85792,1,0,0:0:0:0:
64,192,85880,1,0,0:0:0:0:
320,192,85969,1,0,0:0:0:0:
192,192,86057,1,0,0:0:0:0:
448,192,86145,1,0,0:0:0:0:
64,192,86233,1,0,0:0:0:0:
192,192,86233,1,0,0:0:0:0:
320,192,86322,1,0,0:0:0:0:
64,192,86410,1,0,0:0:0:0:
320,192,86498,1,0,0:0:0:0:
64,192,86586,1,0,0:0:0:0:
192,192,86675,1,0,0:0:0:0:
320,192,86763,1,0,0:0:0:0:
448,192,86851,1,0,0:0:0:0:
64,192,86939,1,0,0:0:0:0:
320,192,87027,1,0,0:0:0:0:
64,192,87116,1,0,0:0:0:0:
320,192,87204,1,0,0:0:0:0:
64,192,87292,1,0,0:0:0:0:
192,192,87380,1,0,0:0:0:0:
320,192,87469,1,0,0:0:0:0:
448,192,87557,1,0,0:0:0:0:
64,192,87645,128,0,87910:0:0:0:0:
192,192,87645,128,0,87910:0:0:0:0:
320,192,87645,1,0,0:0:0:0:
64,192,87998,128,0,88086:0:0:0:0:
192,192,87998,128,0,88086:0:0:0:0:
320,192,87998,1,0,0:0:0:0:
448,192,87998,1,0,0:0:0:0:
320,192,88175,1,0,0:0:0:0:
64,192,88175,128,0,88439:0:0:0:0:
192,192,88175,128,0,88439:0:0:0:0:
448,192,88175,1,0,0:0:0:0:
320,192,88351,128,0,88439:0:0:0:0:
448,192,88351,128,0,88439:0:0:0:0:
192,192,88880,1,0,0:0:0:0:
320,192,89057,1,0,0:0:0:0:
448,192,89057,1,0,0:0:0:0:
64,192,89939,128,0,90027:0:0:0:0:
320,192,89939,1,0,0:0:0:0:
192,192,90116,128,0,90204:0:0:0:0:
448,192,90116,1,0,0:0:0:0:
320,192,90292,128,0,90380:0:0:0:0:
192,192,90292,1,0,0:0:0:0:
64,192,90469,1,0,0:0:0:0:
448,192,90469,128,0,90822:0:0:0:0:
320,192,90469,1,0,0:0:0:0:
192,192,90822,1,0,0:0:0:0:
320,192,90822,1,0,0:0:0:0:
192,192,90998,128,0,91086:0:0:0:0:
64,192,91175,128,0,91527:0:0:0:0:
448,192,91175,1,0,0:0:0:0:
192,192,91351,1,0,0:0:0:0:
320,192,91351,1,0,0:0:0:0:
320,192,91527,1,0,0:0:0:0:
448,192,91527,1,0,0:0:0:0:
320,192,91704,128,0,91792:0:0:0:0:
64,192,91880,1,0,0:0:0:0:
320,192,91880,1,0,0:0:0:0:
64,192,92057,1,0,0:0:0:0:
320,192,92057,1,0,0:0:0:0:
64,192,92410,1,0,0:0:0:0:
320,192,92410,1,0,0:0:0:0:
64,192,92763,1,0,0:0:0:0:
320,192,92763,1,0,0:0:0:0:
64,192,92939,1,0,0:0:0:0:
320,192,92939,1,0,0:0:0:0:
448,192,93027,1,0,0:0:0:0:
64,192,93116,1,0,0:0:0:0:
192,192,93204,1,0,0:0:0:0:
320,192,93292,1,0,0:0:0:0:
448,192,93292,128,0,93469:0:0:0:0:
64,192,93469,128,0,93645:0:0:0:0:
448,192,93645,128,0,93822:0:0:0:0:
192,192,93645,1,0,0:0:0:0:
320,192,93645,1,0,0:0:0:0:
320,192,93822,128,0,93998:0:0:0:0:
64,192,93822,1,0,0:0:0:0:
192,192,93998,128,0,94175:0:0:0:0:
448,192,94175,1,0,0:0:0:0:
320,192,94175,1,0,0:0:0:0:
192,192,94351,1,0,0:0:0:0:
320,192,94351,1,0,0:0:0:0:
64,192,94351,128,0,94527:0:0:0:0:
448,192,94527,1,0,0:0:0:0:
192,192,94527,1,0,0:0:0:0:
448,192,94704,1,0,0:0:0:0:
64,192,94704,1,0,0:0:0:0:
192,192,94792,1,0,0:0:0:0:
320,192,94792,1,0,0:0:0:0:
64,192,94880,1,0,0:0:0:0:
448,192,94880,1,0,0:0:0:0:
192,192,94969,1,0,0:0:0:0:
320,192,94969,1,0,0:0:0:0:
64,192,95057,1,0,0:0:0:0:
448,192,95057,1,0,0:0:0:0:
192,192,95145,1,0,0:0:0:0:
320,192,95145,1,0,0:0:0:0:
64,192,95233,1,0,0:0:0:0:
448,192,95233,1,0,0:0:0:0:
448,192,95586,1,0,0:0:0:0:
64,192,95586,1,0,0:0:0:0:
192,192,95763,128,0,95851:0:0:0:0:
448,192,95763,1,0,0:0:0:0:
64,192,95763,1,0,0:0:0:0:
320,192,95851,128,0,95939:0:0:0:0:
192,192,95939,128,0,96027:0:0:0:0:
320,192,96027,128,0,96116:0:0:0:0:
64,192,96116,1,0,0:0:0:0:
448,192,96116,1,0,0:0:0:0:
64,192,96292,1,0,0:0:0:0:
448,192,96292,1,0,0:0:0:0:
192,192,96645,1,0,0:0:0:0:
320,192,96645,1,0,0:0:0:0:
64,192,96998,1,0,0:0:0:0:
448,192,97175,1,0,0:0:0:0:
64,192,97175,1,0,0:0:0:0:
320,192,97175,128,0,97263:0:0:0:0:
192,192,97263,128,0,97351:0:0:0:0:
320,192,97351,128,0,97439:0:0:0:0:
192,192,97439,128,0,97527:0:0:0:0:
64,192,97527,1,0,0:0:0:0:
448,192,97527,1,0,0:0:0:0:
64,192,97704,1,0,0:0:0:0:
448,192,97704,1,0,0:0:0:0:
192,192,98057,1,0,0:0:0:0:
320,192,98057,1,0,0:0:0:0:
64,192,98410,1,0,0:0:0:0:
64,192,98586,128,0,98763:0:0:0:0:
320,192,98586,1,0,0:0:0:0:
448,192,98586,1,0,0:0:0:0:
192,192,98763,128,0,98939:0:0:0:0:
320,192,98939,1,0,0:0:0:0:
64,192,98939,1,0,0:0:0:0:
64,192,99116,1,0,0:0:0:0:
320,192,99116,1,0,0:0:0:0:
64,192,99292,1,0,0:0:0:0:
320,192,99292,1,0,0:0:0:0:
192,192,99469,1,0,0:0:0:0:
192,192,99557,1,0,0:0:0:0:
320,192,99645,1,0,0:0:0:0:
192,192,99822,1,0,0:0:0:0:
448,192,99822,1,0,0:0:0:0:
64,192,99998,1,0,0:0:0:0:
320,192,99998,1,0,0:0:0:0:
192,192,100175,1,0,0:0:0:0:
448,192,100175,1,0,0:0:0:0:
64,192,100351,1,0,0:0:0:0:
320,192,100351,1,0,0:0:0:0:
320,192,100439,1,0,0:0:0:0:
64,192,100439,1,0,0:0:0:0:
192,192,100527,1,0,0:0:0:0:
448,192,100527,1,0,0:0:0:0:
64,192,100704,1,0,0:0:0:0:
320,192,100704,1,0,0:0:0:0:
64,192,100792,1,0,0:0:0:0:
320,192,100792,1,0,0:0:0:0:
192,192,100880,1,0,0:0:0:0:
448,192,100880,1,0,0:0:0:0:
64,192,101057,1,0,0:0:0:0:
320,192,101057,1,0,0:0:0:0:
64,192,101145,1,0,0:0:0:0:
320,192,101145,1,0,0:0:0:0:
448,192,101233,128,0,101498:0:0:0:0:
320,192,101233,128,0,101498:0:0:0:0:
192,192,101410,128,0,101498:0:0:0:0:
64,192,101410,128,0,101498:0:0:0:0:
320,192,101586,128,0,101675:0:0:0:0:
448,192,101586,128,0,101675:0:0:0:0:
192,192,101675,1,0,0:0:0:0:
64,192,101675,1,0,0:0:0:0:
320,192,101763,128,0,102116:0:0:0:0:
448,192,101763,128,0,102116:0:0:0:0:
192,192,102116,1,0,0:0:0:0:
64,192,102116,1,0,0:0:0:0:
320,192,102292,128,0,102380:0:0:0:0:
448,192,102292,128,0,102380:0:0:0:0:
320,192,102469,128,0,102822:0:0:0:0:
192,192,102469,128,0,102822:0:0:0:0:
64,192,102645,1,0,0:0:0:0:
64,192,102822,1,0,0:0:0:0:
448,192,102822,1,0,0:0:0:0:
192,192,102998,128,0,103086:0:0:0:0:
64,192,102998,128,0,103086:0:0:0:0:
320,192,103175,1,0,0:0:0:0:
448,192,103175,1,0,0:0:0:0:
320,192,103351,1,0,0:0:0:0:
448,192,103351,1,0,0:0:0:0:
320,192,103704,1,0,0:0:0:0:
448,192,103704,1,0,0:0:0:0:
64,192,104057,1,0,0:0:0:0:
448,192,104057,1,0,0:0:0:0:
192,192,104145,1,0,0:0:0:0:
320,192,104233,1,0,0:0:0:0:
448,192,104233,1,0,0:0:0:0:
192,192,104322,1,0,0:0:0:0:
320,192,104410,1,0,0:0:0:0:
448,192,104498,1,0,0:0:0:0:
64,192,104586,1,0,0:0:0:0:
192,192,104586,1,0,0:0:0:0:
320,192,104675,1,0,0:0:0:0:
448,192,104675,1,0,0:0:0:0:
64,192,104851,1,0,0:0:0:0:
192,192,104851,1,0,0:0:0:0:
320,192,104939,1,0,0:0:0:0:
448,192,104939,1,0,0:0:0:0:
64,192,105116,1,0,0:0:0:0:
192,192,105116,1,0,0:0:0:0:
320,192,105204,1,0,0:0:0:0:
448,192,105204,1,0,0:0:0:0:
64,192,105380,1,0,0:0:0:0:
192,192,105380,1,0,0:0:0:0:
320,192,105469,1,0,0:0:0:0:
448,192,105469,1,0,0:0:0:0:
64,192,105645,1,0,0:0:0:0:
192,192,105645,1,0,0:0:0:0:
320,192,105733,1,0,0:0:0:0:
448,192,105733,1,0,0:0:0:0:
64,192,105822,1,0,0:0:0:0:
192,192,105822,1,0,0:0:0:0:
320,192,105910,1,0,0:0:0:0:
448,192,105910,1,0,0:0:0:0:
320,192,105998,1,0,0:0:0:0:
448,192,105998,128,0,106704:0:0:0:0:
192,192,106175,1,0,0:0:0:0:
64,192,106175,1,0,0:0:0:0:
192,192,106351,1,0,0:0:0:0:
320,192,106351,1,0,0:0:0:0:
320,192,106527,1,0,0:0:0:0:
192,192,106704,1,0,0:0:0:0:
448,192,106880,128,0,107057:0:0:0:0:
64,192,106880,1,0,0:0:0:0:
64,192,107057,1,0,0:0:0:0:
320,192,107057,1,0,0:0:0:0:
192,192,107145,1,0,0:0:0:0:
320,192,107233,1,0,0:0:0:0:
192,192,107322,1,0,0:0:0:0:
64,192,107410,1,0,0:0:0:0:
448,192,107410,1,0,0:0:0:0:
64,192,107586,1,0,0:0:0:0:
448,192,107586,1,0,0:0:0:0:
192,192,107939,1,0,0:0:0:0:
320,192,107939,1,0,0:0:0:0:
448,192,108292,1,0,0:0:0:0:
64,192,108469,1,0,0:0:0:0:
448,192,108469,1,0,0:0:0:0:
320,192,108469,1,0,0:0:0:0:
192,192,108557,1,0,0:0:0:0:
320,192,108645,1,0,0:0:0:0:
192,192,108733,1,0,0:0:0:0:
64,192,108822,1,0,0:0:0:0:
448,192,108822,1,0,0:0:0:0:
64,192,108998,1,0,0:0:0:0:
448,192,108998,1,0,0:0:0:0:
192,192,109351,1,0,0:0:0:0:
320,192,109351,1,0,0:0:0:0:
448,192,109704,128,0,109969:0:0:0:0:
320,192,109704,128,0,109969:0:0:0:0:
192,192,109880,128,0,109969:0:0:0:0:
64,192,109880,128,0,109969:0:0:0:0:
448,192,110057,128,0,110145:0:0:0:0:
320,192,110057,128,0,110145:0:0:0:0:
320,192,110233,1,0,0:0:0:0:
448,192,110233,1,0,0:0:0:0:
320,192,110410,1,0,0:0:0:0:
448,192,110410,1,0,0:0:0:0:
320,192,110586,1,0,0:0:0:0:
448,192,110586,1,0,0:0:0:0:
320,192,110763,1,0,0:0:0:0:
448,192,110763,1,0,0:0:0:0:
192,192,110851,1,0,0:0:0:0:
320,192,110851,1,0,0:0:0:0:
64,192,110939,1,0,0:0:0:0:
192,192,110939,1,0,0:0:0:0:
64,192,111116,1,0,0:0:0:0:
192,192,111116,1,0,0:0:0:0:
192,192,111292,1,0,0:0:0:0:
320,192,111292,1,0,0:0:0:0:
448,192,111380,1,0,0:0:0:0:
64,192,111380,1,0,0:0:0:0:
320,192,111469,1,0,0:0:0:0:
192,192,111469,1,0,0:0:0:0:
64,192,111557,1,0,0:0:0:0:
448,192,111557,1,0,0:0:0:0:
192,192,111645,1,0,0:0:0:0:
320,192,111645,1,0,0:0:0:0:
64,192,111822,1,0,0:0:0:0:
192,192,111822,1,0,0:0:0:0:
64,192,111910,1,0,0:0:0:0:
192,192,111910,1,0,0:0:0:0:
320,192,111998,1,0,0:0:0:0:
448,192,111998,1,0,0:0:0:0:
320,192,112086,1,0,0:0:0:0:
448,192,112086,1,0,0:0:0:0:
192,192,112175,1,0,0:0:0:0:
64,192,112175,1,0,0:0:0:0:
192,192,112263,1,0,0:0:0:0:
64,192,112263,1,0,0:0:0:0:
320,192,112351,1,0,0:0:0:0:
448,192,112351,1,0,0:0:0:0:
448,192,112439,1,0,0:0:0:0:
320,192,112439,1,0,0:0:0:0:
192,192,112527,1,0,0:0:0:0:
64,192,112527,1,0,0:0:0:0:
64,192,112616,1,0,0:0:0:0:
192,192,112616,1,0,0:0:0:0:
320,192,112704,1,0,0:0:0:0:
448,192,112704,1,0,0:0:0:0:
192,192,112792,1,0,0:0:0:0:
64,192,112880,1,0,0:0:0:0:
448,192,112880,1,0,0:0:0:0:
320,192,112969,1,0,0:0:0:0:
192,192,113057,1,0,0:0:0:0:
64,192,113057,128,0,113675:0:0:0:0:
320,192,113233,1,0,0:0:0:0:
320,192,113410,1,0,0:0:0:0:
448,192,113410,1,0,0:0:0:0:
448,192,113586,1,0,0:0:0:0:
64,192,113763,128,0,113851:0:0:0:0:
192,192,113939,1,0,0:0:0:0:
448,192,114116,1,0,0:0:0:0:
64,192,114116,1,0,0:0:0:0:
320,192,114116,1,0,0:0:0:0:
192,192,114204,1,0,0:0:0:0:
320,192,114292,1,0,0:0:0:0:
192,192,114380,1,0,0:0:0:0:
64,192,114469,1,0,0:0:0:0:
448,192,114469,128,0,115086:0:0:0:0:
192,192,114645,1,0,0:0:0:0:
192,192,114822,1,0,0:0:0:0:
64,192,114822,1,0,0:0:0:0:
320,192,114998,1,0,0:0:0:0:
448,192,115175,128,0,115263:0:0:0:0:
64,192,115351,1,0,0:0:0:0:
192,192,115351,1,0,0:0:0:0:
320,192,115527,1,0,0:0:0:0:
448,192,115527,128,0,115616:0:0:0:0:
192,192,115527,1,0,0:0:0:0:
320,192,115704,128,0,115792:0:0:0:0:
448,192,115880,1,0,0:0:0:0:
192,192,115880,128,0,116145:0:0:0:0:
192,192,116233,128,0,116322:0:0:0:0:
320,192,116233,1,0,0:0:0:0:
448,192,116233,1,0,0:0:0:0:
192,192,116410,128,0,116498:0:0:0:0:
320,192,116586,128,0,116851:0:0:0:0:
64,192,116763,1,0,0:0:0:0:
448,192,116763,1,0,0:0:0:0:
192,192,116939,128,0,117027:0:0:0:0:
320,192,116939,1,0,0:0:0:0:
448,192,116939,1,0,0:0:0:0:
320,192,117116,128,0,117204:0:0:0:0:
64,192,117292,128,0,117645:0:0:0:0:
448,192,117866,1,0,0:0:0:0:
320,192,117910,1,0,0:0:0:0:
192,192,117954,1,0,0:0:0:0:
64,192,117998,1,0,0:0:0:0:
448,192,118042,1,0,0:0:0:0:
320,192,118086,1,0,0:0:0:0:
64,192,118130,1,0,0:0:0:0:
192,192,118175,1,0,0:0:0:0:
448,192,118219,1,0,0:0:0:0:
320,192,118263,1,0,0:0:0:0:
192,192,118307,1,0,0:0:0:0:
64,192,118351,1,0,0:0:0:0:
448,192,118395,1,0,0:0:0:0:
320,192,118439,1,0,0:0:0:0:
64,192,118483,1,0,0:0:0:0:
192,192,118527,1,0,0:0:0:0:
320,192,118572,1,0,0:0:0:0:
448,192,118616,1,0,0:0:0:0:
320,192,118660,1,0,0:0:0:0:
64,192,118704,1,0,0:0:0:0:
192,192,118704,1,0,0:0:0:0:
64,192,119057,1,0,0:0:0:0:
320,192,119057,1,0,0:0:0:0:
64,192,119410,1,0,0:0:0:0:
192,192,119410,1,0,0:0:0:0:
64,192,119763,1,0,0:0:0:0:
320,192,119763,1,0,0:0:0:0:
320,192,120116,1,0,0:0:0:0:
448,192,120116,1,0,0:0:0:0:
192,192,120292,1,0,0:0:0:0:
448,192,120292,1,0,0:0:0:0:
64,192,120469,1,0,0:0:0:0:
448,192,120469,1,0,0:0:0:0:
192,192,120645,1,0,0:0:0:0:
448,192,120645,1,0,0:0:0:0:
320,192,120822,1,0,0:0:0:0:
448,192,120822,1,0,0:0:0:0:
192,192,120998,1,0,0:0:0:0:
448,192,120998,1,0,0:0:0:0:
64,192,121175,1,0,0:0:0:0:
448,192,121175,1,0,0:0:0:0:
192,192,121351,1,0,0:0:0:0:
448,192,121351,1,0,0:0:0:0:
64,192,121527,1,0,0:0:0:0:
192,192,121527,1,0,0:0:0:0:
448,192,121616,1,0,0:0:0:0:
320,192,121616,1,0,0:0:0:0:
64,192,121704,1,0,0:0:0:0:
192,192,121704,1,0,0:0:0:0:
448,192,121792,1,0,0:0:0:0:
320,192,121792,1,0,0:0:0:0:
64,192,121880,1,0,0:0:0:0:
192,192,121880,1,0,0:0:0:0:
448,192,121969,1,0,0:0:0:0:
320,192,121969,1,0,0:0:0:0:
64,192,122057,1,0,0:0:0:0:
192,192,122057,1,0,0:0:0:0:
448,192,122145,1,0,0:0:0:0:
320,192,122145,1,0,0:0:0:0:
448,192,122233,1,0,0:0:0:0:
192,192,122233,1,0,0:0:0:0:
320,192,122322,1,0,0:0:0:0:
64,192,122322,1,0,0:0:0:0:
448,192,122410,1,0,0:0:0:0:
192,192,122410,1,0,0:0:0:0:
320,192,122498,1,0,0:0:0:0:
64,192,122498,1,0,0:0:0:0:
192,192,122586,1,0,0:0:0:0:
448,192,122586,1,0,0:0:0:0:
320,192,122675,1,0,0:0:0:0:
64,192,122675,1,0,0:0:0:0:
448,192,122763,1,0,0:0:0:0:
192,192,122763,1,0,0:0:0:0:
320,192,122851,1,0,0:0:0:0:
64,192,122851,1,0,0:0:0:0:
192,192,122939,1,0,0:0:0:0:
448,192,122939,1,0,0:0:0:0:
64,192,123204,1,0,0:0:0:0:
448,192,123204,1,0,0:0:0:0:
192,192,123469,1,0,0:0:0:0:
448,192,123469,1,0,0:0:0:0:
64,192,123645,1,0,0:0:0:0:
320,192,123645,1,0,0:0:0:0:
64,192,123822,128,0,123998:0:0:0:0:
192,192,123998,128,0,124175:0:0:0:0:
448,192,123998,1,0,0:0:0:0:
320,192,124175,128,0,124351:0:0:0:0:
448,192,124351,128,0,124704:0:0:0:0:
64,192,124351,1,0,0:0:0:0:
192,192,124527,1,0,0:0:0:0:
320,192,124704,1,0,0:0:0:0:
64,192,124704,1,0,0:0:0:0:
192,192,124880,128,0,124969:0:0:0:0:
64,192,125057,128,0,125410:0:0:0:0:
448,192,125057,1,0,0:0:0:0:
320,192,125233,1,0,0:0:0:0:
192,192,125410,1,0,0:0:0:0:
448,192,125410,1,0,0:0:0:0:
320,192,125586,128,0,125675:0:0:0:0:
448,192,125763,128,0,126469:0:0:0:0:
64,192,125763,1,0,0:0:0:0:
192,192,125939,1,0,0:0:0:0:
320,192,126116,1,0,0:0:0:0:
64,192,126116,1,0,0:0:0:0:
192,192,126292,1,0,0:0:0:0:
320,192,126469,1,0,0:0:0:0:
64,192,126469,1,0,0:0:0:0:
192,192,126645,1,0,0:0:0:0:
64,192,126733,1,0,0:0:0:0:
320,192,126822,1,0,0:0:0:0:
192,192,126910,1,0,0:0:0:0:
448,192,126998,1,0,0:0:0:0:
320,192,127086,1,0,0:0:0:0:
64,192,127175,1,0,0:0:0:0:
192,192,127175,1,0,0:0:0:0:
320,192,127351,1,0,0:0:0:0:
448,192,127351,1,0,0:0:0:0:
64,192,127527,1,0,0:0:0:0:
192,192,127527,1,0,0:0:0:0:
320,192,127704,1,0,0:0:0:0:
448,192,127704,1,0,0:0:0:0:
64,192,127880,1,0,0:0:0:0:
192,192,127880,1,0,0:0:0:0:
448,192,127969,1,0,0:0:0:0:
320,192,127969,1,0,0:0:0:0:
64,192,128057,1,0,0:0:0:0:
192,192,128057,1,0,0:0:0:0:
448,192,128145,1,0,0:0:0:0:
320,192,128145,1,0,0:0:0:0:
64,192,128233,1,0,0:0:0:0:
192,192,128233,1,0,0:0:0:0:
448,192,128322,1,0,0:0:0:0:
320,192,128322,1,0,0:0:0:0:
64,192,128410,1,0,0:0:0:0:
192,192,128410,1,0,0:0:0:0:
448,192,128498,1,0,0:0:0:0:
320,192,128498,1,0,0:0:0:0:
192,192,128586,1,0,0:0:0:0:
448,192,128586,128,0,129292:0:0:0:0:
320,192,128763,1,0,0:0:0:0:
64,192,128939,1,0,0:0:0:0:
192,192,128939,1,0,0:0:0:0:
320,192,129116,1,0,0:0:0:0:
64,192,129292,1,0,0:0:0:0:
192,192,129292,1,0,0:0:0:0:
320,192,129469,1,0,0:0:0:0:
448,192,129645,128,0,129733:0:0:0:0:
64,192,129645,1,0,0:0:0:0:
192,192,129822,128,0,129910:0:0:0:0:
64,192,129998,128,0,130351:0:0:0:0:
448,192,129998,1,0,0:0:0:0:
320,192,130175,1,0,0:0:0:0:
192,192,130351,1,0,0:0:0:0:
448,192,130351,1,0,0:0:0:0:
192,192,130527,1,0,0:0:0:0:
448,192,130527,1,0,0:0:0:0:
64,192,130704,128,0,131057:0:0:0:0:
320,192,130704,1,0,0:0:0:0:
192,192,130880,1,0,0:0:0:0:
320,192,131057,128,0,131145:0:0:0:0:
448,192,131057,1,0,0:0:0:0:
192,192,131233,128,0,131322:0:0:0:0:
448,192,131410,128,0,131763:0:0:0:0:
64,192,131410,1,0,0:0:0:0:
192,192,131586,1,0,0:0:0:0:
320,192,131763,1,0,0:0:0:0:
64,192,131763,1,0,0:0:0:0:
64,192,131939,1,0,0:0:0:0:
320,192,131939,1,0,0:0:0:0:
448,192,132116,128,0,132469:0:0:0:0:
192,192,132116,1,0,0:0:0:0:
320,192,132292,1,0,0:0:0:0:
192,192,132469,1,0,0:0:0:0:
64,192,132469,128,0,132557:0:0:0:0:
320,192,132645,128,0,132733:0:0:0:0:
448,192,132822,128,0,132910:0:0:0:0:
64,192,132822,1,0,0:0:0:0:
64,192,132998,1,0,0:0:0:0:
448,192,132998,128,0,133086:0:0:0:0:
448,192,133175,128,0,133263:0:0:0:0:
64,192,133175,1,0,0:0:0:0:
192,192,133351,1,0,0:0:0:0:
192,192,133439,1,0,0:0:0:0:
320,192,133527,1,0,0:0:0:0:
192,192,133704,1,0,0:0:0:0:
192,192,133792,1,0,0:0:0:0:
64,192,133880,128,0,134233:0:0:0:0:
192,192,134057,128,0,134233:0:0:0:0:
320,192,134233,1,0,0:0:0:0:
448,192,134233,1,0,0:0:0:0:
192,192,134322,1,0,0:0:0:0:
64,192,134322,1,0,0:0:0:0:
320,192,134410,1,0,0:0:0:0:
448,192,134410,1,0,0:0:0:0:
192,192,134498,1,0,0:0:0:0:
64,192,134498,1,0,0:0:0:0:
320,192,134586,1,0,0:0:0:0:
448,192,134586,1,0,0:0:0:0:
192,192,134675,1,0,0:0:0:0:
64,192,134675,1,0,0:0:0:0:
320,192,134763,1,0,0:0:0:0:
448,192,134763,1,0,0:0:0:0:
192,192,134851,1,0,0:0:0:0:
64,192,134851,1,0,0:0:0:0:
320,192,134939,1,0,0:0:0:0:
448,192,134939,1,0,0:0:0:0:
64,192,135116,128,0,135204:0:0:0:0:
448,192,135292,1,0,0:0:0:0:
192,192,135292,128,0,135380:0:0:0:0:
320,192,135469,128,0,135557:0:0:0:0:
448,192,135645,128,0,135998:0:0:0:0:
64,192,135645,1,0,0:0:0:0:
192,192,135822,1,0,0:0:0:0:
320,192,135998,1,0,0:0:0:0:
64,192,135998,128,0,136086:0:0:0:0:
448,192,136175,128,0,136263:0:0:0:0:
64,192,136351,128,0,136704:0:0:0:0:
448,192,136351,1,0,0:0:0:0:
320,192,136527,1,0,0:0:0:0:
192,192,136704,1,0,0:0:0:0:
448,192,136704,1,0,0:0:0:0:
448,192,136880,128,0,136969:0:0:0:0:
64,192,137057,128,0,137410:0:0:0:0:
192,192,137057,1,0,0:0:0:0:
320,192,137057,1,0,0:0:0:0:
448,192,137233,1,0,0:0:0:0:
192,192,137410,1,0,0:0:0:0:
320,192,137410,1,0,0:0:0:0:
64,192,137586,1,0,0:0:0:0:
192,192,137763,1,0,0:0:0:0:
320,192,137763,1,0,0:0:0:0:
448,192,137939,1,0,0:0:0:0:
64,192,138116,128,0,138204:0:0:0:0:
320,192,138204,128,0,138292:0:0:0:0:
192,192,138292,128,0,138380:0:0:0:0:
448,192,138380,128,0,138469:0:0:0:0:
64,192,138469,1,0,0:0:0:0:
320,192,138469,1,0,0:0:0:0:
64,192,138645,1,0,0:0:0:0:
320,192,138645,1,0,0:0:0:0:
192,192,138822,1,0,0:0:0:0:
448,192,138822,1,0,0:0:0:0:
64,192,138910,1,0,0:0:0:0:
320,192,138910,1,0,0:0:0:0:
192,192,138998,1,0,0:0:0:0:
448,192,138998,1,0,0:0:0:0:
64,192,139086,1,0,0:0:0:0:
320,192,139086,1,0,0:0:0:0:
448,192,139175,1,0,0:0:0:0:
320,192,139219,1,0,0:0:0:0:
192,192,139263,1,0,0:0:0:0:
64,192,139307,1,0,0:0:0:0:
320,192,139351,1,0,0:0:0:0:
448,192,139395,1,0,0:0:0:0:
64,192,139439,1,0,0:0:0:0:
192,192,139483,1,0,0:0:0:0:
320,192,139527,1,0,0:0:0:0:
448,192,139572,1,0,0:0:0:0:
192,192,139616,1,0,0:0:0:0:
64,192,139660,1,0,0:0:0:0:
448,192,139704,1,0,0:0:0:0:
320,192,139748,1,0,0:0:0:0:
192,192,139792,1,0,0:0:0:0:
64,192,139836,1,0,0:0:0:0:
448,192,139880,128,0,140586:0:0:0:0:
192,192,139880,1,0,0:0:0:0:
320,192,140057,1,0,0:0:0:0:
192,192,140233,1,0,0:0:0:0:
64,192,140233,1,0,0:0:0:0:
320,192,140410,1,0,0:0:0:0:
192,192,140586,1,0,0:0:0:0:
64,192,140586,1,0,0:0:0:0:
320,192,140763,1,0,0:0:0:0:
192,192,140939,128,0,141027:0:0:0:0:
448,192,140939,1,0,0:0:0:0:
320,192,141116,128,0,141204:0:0:0:0:
448,192,141292,128,0,141645:0:0:0:0:
192,192,141292,1,0,0:0:0:0:
64,192,141469,1,0,0:0:0:0:
192,192,141645,1,0,0:0:0:0:
320,192,141645,1,0,0:0:0:0:
64,192,141733,1,0,0:0:0:0:
448,192,141733,1,0,0:0:0:0:
192,192,141822,1,0,0:0:0:0:
320,192,141822,1,0,0:0:0:0:
64,192,141910,1,0,0:0:0:0:
448,192,141910,1,0,0:0:0:0:
192,192,141998,128,0,142351:0:0:0:0:
320,192,141998,1,0,0:0:0:0:
448,192,142175,1,0,0:0:0:0:
64,192,142351,1,0,0:0:0:0:
448,192,142351,128,0,142439:0:0:0:0:
320,192,142527,128,0,142616:0:0:0:0:
64,192,142704,128,0,143057:0:0:0:0:
192,192,142704,1,0,0:0:0:0:
320,192,142704,1,0,0:0:0:0:
448,192,142880,1,0,0:0:0:0:
192,192,143057,1,0,0:0:0:0:
320,192,143057,1,0,0:0:0:0:
64,192,143145,1,0,0:0:0:0:
448,192,143145,1,0,0:0:0:0:
192,192,143233,1,0,0:0:0:0:
320,192,143233,1,0,0:0:0:0:
64,192,143322,1,0,0:0:0:0:
448,192,143322,1,0,0:0:0:0:
320,192,143410,128,0,143763:0:0:0:0:
192,192,143410,1,0,0:0:0:0:
64,192,143586,1,0,0:0:0:0:
192,192,143763,1,0,0:0:0:0:
448,192,143763,128,0,143851:0:0:0:0:
192,192,143939,128,0,144027:0:0:0:0:
320,192,144116,128,0,144469:0:0:0:0:
64,192,144116,1,0,0:0:0:0:
192,192,144292,1,0,0:0:0:0:
448,192,144292,1,0,0:0:0:0:
64,192,144469,1,0,0:0:0:0:
448,192,144469,1,0,0:0:0:0:
64,192,144645,1,0,0:0:0:0:
192,192,144689,1,0,0:0:0:0:
320,192,144733,1,0,0:0:0:0:
448,192,144777,1,0,0:0:0:0:
64,192,144822,128,0,145175:0:0:0:0:
192,192,144822,1,0,0:0:0:0:
192,192,144998,1,0,0:0:0:0:
320,192,144998,1,0,0:0:0:0:
448,192,145175,1,0,0:0:0:0:
320,192,145175,1,0,0:0:0:0:
192,192,145351,1,0,0:0:0:0:
64,192,145395,1,0,0:0:0:0:
448,192,145439,1,0,0:0:0:0:
320,192,145483,1,0,0:0:0:0:
64,192,145527,1,0,0:0:0:0:
192,192,145527,1,0,0:0:0:0:
320,192,145616,1,0,0:0:0:0:
448,192,145616,1,0,0:0:0:0:
64,192,145704,1,0,0:0:0:0:
192,192,145704,1,0,0:0:0:0:
320,192,145792,1,0,0:0:0:0:
448,192,145792,1,0,0:0:0:0:
64,192,145880,1,0,0:0:0:0:
192,192,145880,1,0,0:0:0:0:
320,192,145969,1,0,0:0:0:0:
448,192,145969,1,0,0:0:0:0:
64,192,146057,1,0,0:0:0:0:
192,192,146057,1,0,0:0:0:0:
320,192,146145,1,0,0:0:0:0:
448,192,146145,1,0,0:0:0:0:
64,192,146233,1,0,0:0:0:0:
192,192,146233,1,0,0:0:0:0:
320,192,146322,1,0,0:0:0:0:
448,192,146322,1,0,0:0:0:0:
64,192,146410,1,0,0:0:0:0:
192,192,146410,1,0,0:0:0:0:
320,192,146498,1,0,0:0:0:0:
448,192,146498,1,0,0:0:0:0:
192,192,146586,128,0,146675:0:0:0:0:
64,192,146763,128,0,146851:0:0:0:0:
192,192,146939,1,0,0:0:0:0:
448,192,146939,1,0,0:0:0:0:
64,192,147027,1,0,0:0:0:0:
320,192,147027,1,0,0:0:0:0:
192,192,147204,1,0,0:0:0:0:
448,192,147204,1,0,0:0:0:0:
64,192,147292,1,0,0:0:0:0:
320,192,147292,1,0,0:0:0:0:
192,192,147469,1,0,0:0:0:0:
448,192,147469,1,0,0:0:0:0:
64,192,147645,128,0,147822:0:0:0:0:
320,192,147645,1,0,0:0:0:0:
320,192,147998,128,0,148086:0:0:0:0:
192,192,147998,1,0,0:0:0:0:
448,192,148175,128,0,148263:0:0:0:0:
64,192,148351,1,0,0:0:0:0:
320,192,148351,1,0,0:0:0:0:
448,192,148439,1,0,0:0:0:0:
192,192,148439,1,0,0:0:0:0:
64,192,148616,1,0,0:0:0:0:
320,192,148616,1,0,0:0:0:0:
448,192,148704,1,0,0:0:0:0:
192,192,148704,1,0,0:0:0:0:
64,192,148880,1,0,0:0:0:0:
320,192,148880,1,0,0:0:0:0:
192,192,149057,1,0,0:0:0:0:
448,192,149057,128,0,149410:0:0:0:0:
320,192,149410,1,0,0:0:0:0:
64,192,149410,128,0,149498:0:0:0:0:
192,192,149586,128,0,149675:0:0:0:0:
320,192,149763,1,0,0:0:0:0:
448,192,149763,128,0,150116:0:0:0:0:
192,192,149939,1,0,0:0:0:0:
320,192,149939,1,0,0:0:0:0:
192,192,150116,1,0,0:0:0:0:
320,192,150116,1,0,0:0:0:0:
64,192,150292,1,0,0:0:0:0:
448,192,150292,1,0,0:0:0:0:
64,192,150380,1,0,0:0:0:0:
448,192,150380,1,0,0:0:0:0:
192,192,150469,1,0,0:0:0:0:
320,192,150469,1,0,0:0:0:0:
64,192,150645,1,0,0:0:0:0:
448,192,150645,1,0,0:0:0:0:
192,192,150822,1,0,0:0:0:0:
320,192,150822,1,0,0:0:0:0:
64,192,150998,1,0,0:0:0:0:
448,192,150998,1,0,0:0:0:0:
64,192,151086,1,0,0:0:0:0:
448,192,151086,1,0,0:0:0:0:
192,192,151175,1,0,0:0:0:0:
320,192,151175,1,0,0:0:0:0:
64,192,151351,1,0,0:0:0:0:
448,192,151351,1,0,0:0:0:0:
192,192,151527,1,0,0:0:0:0:
320,192,151527,1,0,0:0:0:0:
64,192,151704,1,0,0:0:0:0:
448,192,151704,1,0,0:0:0:0:
64,192,151792,1,0,0:0:0:0:
448,192,151792,1,0,0:0:0:0:
192,192,151880,1,0,0:0:0:0:
320,192,151880,1,0,0:0:0:0:
64,192,151969,1,0,0:0:0:0:
448,192,151969,1,0,0:0:0:0:
192,192,152057,1,0,0:0:0:0:
320,192,152057,1,0,0:0:0:0:
64,192,152145,1,0,0:0:0:0:
448,192,152145,1,0,0:0:0:0:
192,192,152233,1,0,0:0:0:0:
320,192,152233,1,0,0:0:0:0:
64,192,152322,1,0,0:0:0:0:
448,192,152322,1,0,0:0:0:0:
192,192,152410,128,0,152586:0:0:0:0:
320,192,152410,128,0,152586:0:0:0:0:
64,192,152586,1,0,0:0:0:0:
448,192,152586,1,0,0:0:0:0:
192,192,152763,1,0,0:0:0:0:
320,192,152763,1,0,0:0:0:0:
64,192,152939,1,0,0:0:0:0:
320,192,152939,1,0,0:0:0:0:
192,192,153027,1,0,0:0:0:0:
448,192,153027,1,0,0:0:0:0:
64,192,153116,1,0,0:0:0:0:
320,192,153116,1,0,0:0:0:0:
192,192,153204,1,0,0:0:0:0:
448,192,153204,1,0,0:0:0:0:
64,192,153292,1,0,0:0:0:0:
320,192,153292,1,0,0:0:0:0:
192,192,153380,1,0,0:0:0:0:
448,192,153380,1,0,0:0:0:0:
320,192,153469,1,0,0:0:0:0:
64,192,153469,1,0,0:0:0:0:
192,192,153557,1,0,0:0:0:0:
448,192,153557,1,0,0:0:0:0:
64,192,153645,1,0,0:0:0:0:
320,192,153645,1,0,0:0:0:0:
192,192,153733,1,0,0:0:0:0:
448,192,153733,1,0,0:0:0:0:
64,192,153822,1,0,0:0:0:0:
320,192,153822,1,0,0:0:0:0:
192,192,153910,1,0,0:0:0:0:
448,192,153910,1,0,0:0:0:0:
320,192,153998,1,0,0:0:0:0:
64,192,153998,1,0,0:0:0:0:
192,192,154086,1,0,0:0:0:0:
448,192,154086,1,0,0:0:0:0:
64,192,154175,1,0,0:0:0:0:
320,192,154175,1,0,0:0:0:0:
192,192,154263,1,0,0:0:0:0:
448,192,154263,1,0,0:0:0:0:
64,192,154351,1,0,0:0:0:0:
320,192,154351,1,0,0:0:0:0:
192,192,154439,1,0,0:0:0:0:
448,192,154439,1,0,0:0:0:0:
320,192,154527,1,0,0:0:0:0:
64,192,154527,1,0,0:0:0:0:
192,192,154616,1,0,0:0:0:0:
448,192,154616,1,0,0:0:0:0:
64,192,154704,1,0,0:0:0:0:
320,192,154704,1,0,0:0:0:0:
192,192,154792,1,0,0:0:0:0:
448,192,154792,1,0,0:0:0:0:
64,192,154880,1,0,0:0:0:0:
320,192,154880,1,0,0:0:0:0:
192,192,154969,1,0,0:0:0:0:
448,192,154969,1,0,0:0:0:0:
64,192,155057,1,0,0:0:0:0:
448,192,155057,1,0,0:0:0:0:
64,192,155145,1,0,0:0:0:0:
448,192,155145,1,0,0:0:0:0:
192,192,155233,1,0,0:0:0:0:
320,192,155233,1,0,0:0:0:0:
192,192,155322,1,0,0:0:0:0:
320,192,155322,1,0,0:0:0:0:
448,192,155410,1,0,0:0:0:0:
64,192,155410,128,0,156116:0:0:0:0:
192,192,155410,128,0,155939:0:0:0:0:
320,192,155410,128,0,155763:0:0:0:0:
