osu file format v14

[General]
AudioFilename: audio.mp3
AudioLeadIn: 0
PreviewTime: 77763
Countdown: 0
SampleSet: Soft
StackLeniency: 0.7
Mode: 3
LetterboxInBreaks: 0
SpecialStyle: 0
WidescreenStoryboard: 0

[Editor]
DistanceSpacing: 0.8
BeatDivisor: 4
GridSize: 16
TimelineZoom: 2.3

[Metadata]
Title:Beethoven Influenza
TitleUnicode:Beethoven Influenza
Artist:BanYa & Warak
ArtistUnicode:BanYa & Warak
Creator:Another Lie
Version:Infection
Source:Pump It Up 2015 PRIME
Tags:beethoven remix influenza virus
BeatmapID:1238978
BeatmapSetID:585131

[Difficulty]
HPDrainRate:8.5
CircleSize:4
OverallDifficulty:8.5
ApproachRate:5
SliderMultiplier:1.4
SliderTickRate:1

[Events]
//Background and Video events
0,0,"5002767893_5d49dd3f5f_b.jpg",0,0
//Break Periods
//Storyboard Layer 0 (Background)
//Storyboard Layer 1 (Fail)
//Storyboard Layer 2 (Pass)
//Storyboard Layer 3 (Foreground)
//Storyboard Sound Samples

[TimingPoints]
1528,352.941176470588,4,2,0,30,1,0
12822,-52.6315789473684,4,2,0,30,0,0
12998,-1000,4,2,0,30,0,0
13175,-100,4,2,0,30,0,0
17410,-399.999999999997,4,2,0,30,0,0
17498,-66.6666666666667,4,2,0,30,0,0
17586,-399.999999999997,4,2,0,30,0,0
17675,-66.6666666666667,4,2,0,30,0,0
17763,-399.999999999997,4,2,0,30,0,0
17851,-66.6666666666667,4,2,0,30,0,0
17939,-399.999999999997,4,2,0,30,0,0
18027,-66.6666666666667,4,2,0,30,0,0
18116,-399.999999999997,4,2,0,30,0,0
18160,-66.6666666666667,4,2,0,30,0,0
18204,-399.999999999997,4,2,0,30,0,0
18248,-66.6666666666667,4,2,0,30,0,0
18292,-399.999999999997,4,2,0,30,0,0
18336,-66.6666666666667,4,2,0,30,0,0
18380,-399.999999999997,4,2,0,30,0,0
18425,-66.6666666666667,4,2,0,30,0,0
18469,-1000,4,2,0,30,0,0
18645,-52.6315789473684,4,2,0,30,0,0
18822,-100,4,2,0,30,0,0
22880,-400,4,2,0,30,0,0
22925,-66.6666666666667,4,2,0,30,0,0
22969,-400,4,2,0,30,0,0
23013,-66.6666666666667,4,2,0,30,0,0
23057,-400,4,2,0,30,0,0
23145,-66.6666666666667,4,2,0,30,0,0
23233,-400,4,2,0,30,0,0
23277,-66.6666666666667,4,2,0,30,0,0
23322,-400,4,2,0,30,0,0
23366,-66.6666666666667,4,2,0,30,0,0
23410,-100,4,2,0,30,0,0
31175,-52.6315789473684,4,2,0,30,0,0
31263,-1000,4,2,0,30,0,0
31351,-769.230769230769,4,2,0,30,0,0
31439,-400,4,2,0,30,0,0
31527,-312.5,4,2,0,30,0,0
31616,-200,4,2,0,30,0,0
31704,-149.253731343284,4,2,0,30,0,0
31792,-133.333333333333,4,2,0,30,0,0
31880,-113.636363636364,4,2,0,30,0,0
31969,-100,4,2,0,30,0,0
35410,-400,4,2,0,30,0,0
35498,-66.6666666666667,4,2,0,30,0,0
35586,-400,4,2,0,30,0,0
35675,-66.6666666666667,4,2,0,30,0,0
35763,-400,4,2,0,30,0,0
35851,-66.6666666666667,4,2,0,30,0,0
35939,-400,4,2,0,30,0,0
36027,-66.6666666666667,4,2,0,30,0,0
36116,-400,4,2,0,30,0,0
36204,-66.6666666666667,4,2,0,30,0,0
36292,-400,4,2,0,30,0,0
36380,-66.6666666666667,4,2,0,30,0,0
36469,-400,4,2,0,30,0,0
36557,-66.6666666666667,4,2,0,30,0,0
36645,-400,4,2,0,30,0,0
36733,-66.6666666666667,4,2,0,30,0,0
36822,-100,4,2,0,30,0,0
41057,-400,4,2,0,30,0,0
41145,-66.6666666666667,4,2,0,30,0,0
41233,-400,4,2,0,30,0,0
41322,-66.6666666666667,4,2,0,30,0,0
41410,-400,4,2,0,30,0,0
41498,-66.6666666666667,4,2,0,30,0,0
41586,-400,4,2,0,30,0,0
41675,-66.6666666666667,4,2,0,30,0,0
41763,-400,4,2,0,30,0,0
41851,-66.6666666666667,4,2,0,30,0,0
41939,-400,4,2,0,30,0,0
41983,-66.6666666666667,4,2,0,30,0,0
42027,-400,4,2,0,30,0,0
42072,-66.6666666666667,4,2,0,30,0,0
42116,-400,4,2,0,30,0,0
42204,-66.6666666666667,4,2,0,30,0,0
42292,-400,4,2,0,30,0,0
42380,-66.6666666666667,4,2,0,30,0,0
42469,-100,4,2,0,30,0,0
42557,-2500,4,2,0,30,0,0
42645,-833.333333333333,4,2,0,30,0,0
42733,-400,4,2,0,30,0,0
42822,-270.27027027027,4,2,0,30,0,0
42910,-200,4,2,0,30,0,0
42998,-149.253731343284,4,2,0,30,0,0
43086,-133.333333333333,4,2,0,30,0,0
43175,-113.636363636364,4,2,0,30,0,0
43263,-100,4,2,0,30,0,0
43880,-133.333333333333,4,2,0,30,0,0
44057,-100,4,2,0,30,0,0
49527,-133.333333333333,4,2,0,30,0,0
49704,-100,4,2,0,30,0,0
50939,-133.333333333333,4,2,0,30,0,0
51116,-100,4,2,0,30,0,0
52351,-400,4,2,0,30,0,0
52395,-66.6666666666667,4,2,0,30,0,0
52439,-400,4,2,0,30,0,0
52483,-66.6666666666667,4,2,0,30,0,0
52527,-400,4,2,0,30,0,0
52572,-66.6666666666667,4,2,0,30,0,0
52616,-400,4,2,0,30,0,0
52660,-66.6666666666667,4,2,0,30,0,0
52704,-400,4,2,0,30,0,0
52748,-66.6666666666667,4,2,0,30,0,0
52792,-400,4,2,0,30,0,0
52836,-66.6666666666667,4,2,0,30,0,0
52880,-400,4,2,0,30,0,0
52925,-66.6666666666667,4,2,0,30,0,0
52969,-400,4,2,0,30,0,0
53013,-66.6666666666667,4,2,0,30,0,0
53057,-400,4,2,0,30,0,0
53101,-66.6666666666667,4,2,0,30,0,0
53145,-400,4,2,0,30,0,0
53189,-66.6666666666667,4,2,0,30,0,0
53233,-400,4,2,0,30,0,0
53277,-66.6666666666667,4,2,0,30,0,0
53322,-400,4,2,0,30,0,0
53366,-66.6666666666667,4,2,0,30,0,0
53410,-400,4,2,0,30,0,0
53454,-66.6666666666667,4,2,0,30,0,0
53498,-400,4,2,0,30,0,0
53542,-66.6666666666667,4,2,0,30,0,0
53586,-400,4,2,0,30,0,0
53630,-66.6666666666667,4,2,0,30,0,0
53675,-400,4,2,0,30,0,0
53719,-66.6666666666667,4,2,0,30,0,0
53763,-400,4,2,0,30,0,0
53851,-66.6666666666667,4,2,0,30,0,0
53939,-400,4,2,0,30,0,0
54027,-66.6666666666667,4,2,0,30,0,0
54116,-400,4,2,0,30,0,0
54204,-66.6666666666667,4,2,0,30,0,0
54292,-400,4,2,0,30,0,0
54380,-66.6666666666667,4,2,0,30,0,0
54469,-400,4,2,0,30,0,0
54557,-66.6666666666667,4,2,0,30,0,0
54645,-100,4,2,0,30,0,0
57292,-400,4,2,0,30,0,0
57380,-66.6666666666667,4,2,0,30,0,0
57469,-400,4,2,0,30,0,0
57557,-66.6666666666667,4,2,0,30,0,0
57645,-400,4,2,0,30,0,0
57733,-66.6666666666667,4,2,0,30,0,0
57822,-400,4,2,0,30,0,0
57866,-66.6666666666667,4,2,0,30,0,0
57910,-400,4,2,0,30,0,0
57954,-66.6666666666667,4,2,0,30,0,0
57998,-100,4,2,0,30,0,0
60116,-400,4,2,0,30,0,0
60160,-66.6666666666667,4,2,0,30,0,0
60204,-400,4,2,0,30,0,0
60248,-66.6666666666667,4,2,0,30,0,0
60292,-100,4,2,0,30,0,0
60469,-400,4,2,0,30,0,0
60557,-66.6666666666667,4,2,0,30,0,0
60645,-400,4,2,0,30,0,0
60689,-66.6666666666667,4,2,0,30,0,0
60733,-400,4,2,0,30,0,0
60777,-66.6666666666667,4,2,0,30,0,0
60822,-100,4,2,0,30,0,0
62939,-400,4,2,0,30,0,0
63027,-66.6666666666667,4,2,0,30,0,0
63116,-400,4,2,0,30,0,0
63204,-66.6666666666667,4,2,0,30,0,0
63292,-100,4,2,0,30,0,0
64351,-400,4,2,0,30,0,0
64395,-66.6666666666667,4,2,0,30,0,0
64439,-400,4,2,0,30,0,0
64483,-66.6666666666667,4,2,0,30,0,0
64527,-100,4,2,0,30,0,0
65057,-400,4,2,0,30,0,0
65145,-66.6666666666667,4,2,0,30,0,0
65233,-400,4,2,0,30,0,0
65322,-66.6666666666667,4,2,0,30,0,0
65410,-400,4,2,0,30,0,0
65454,-66.6666666666667,4,2,0,30,0,0
65498,-400,4,2,0,30,0,0
65542,-66.6666666666667,4,2,0,30,0,0
65586,-400,4,2,0,30,0,0
65630,-66.6666666666667,4,2,0,30,0,0
65675,-400,4,2,0,30,0,0
65719,-66.6666666666667,4,2,0,30,0,0
65763,-400,4,2,0,30,0,0
65807,-66.6666666666667,4,2,0,30,0,0
65851,-400,4,2,0,30,0,0
65895,-66.6666666666667,4,2,0,30,0,0
65939,-400,4,2,0,30,0,0
65983,-66.6666666666667,4,2,0,30,0,0
66027,-400,4,2,0,30,0,0
66072,-66.6666666666667,4,2,0,30,0,0
66116,-100,4,2,0,30,0,0
66469,-133.333333333333,4,2,0,30,0,0
66645,-100,4,2,0,30,0,0
67527,-142.857142857143,4,2,0,30,0,0
67616,-76.923076923077,4,2,0,30,0,0
67880,-100,4,2,0,30,0,0
68939,-400,4,2,0,30,0,0
69204,-66.6666666666667,4,2,0,30,0,0
69292,-100,4,2,0,30,0,0
70704,-400,4,2,0,30,0,0
70748,-66.6666666666667,4,2,0,30,0,0
70792,-400,4,2,0,30,0,0
70836,-66.6666666666667,4,2,0,30,0,0
70880,-400,4,2,0,30,0,0
70925,-66.6666666666667,4,2,0,30,0,0
70969,-400,4,2,0,30,0,0
71013,-66.6666666666667,4,2,0,30,0,0
71057,-400,4,2,0,30,0,0
71101,-66.6666666666667,4,2,0,30,0,0
71145,-400,4,2,0,30,0,0
71189,-66.6666666666667,4,2,0,30,0,0
71233,-400,4,2,0,30,0,0
71277,-66.6666666666667,4,2,0,30,0,0
71322,-400,4,2,0,30,0,0
71366,-66.6666666666667,4,2,0,30,0,0
71410,-400,4,2,0,30,0,0
71498,-66.6666666666667,4,2,0,30,0,0
71586,-400,4,2,0,30,0,0
71675,-66.6666666666667,4,2,0,30,0,0
71763,-400,4,2,0,30,0,0
72027,-66.6666666666667,4,2,0,30,0,0
72116,-100,4,2,0,30,0,0
74586,-400,4,2,0,30,0,0
74851,-66.6666666666667,4,2,0,30,0,0
74939,-100,4,2,0,30,0,0
77763,-100,4,2,0,30,0,1
89057,-303.030303030303,4,2,0,30,0,0
89410,-149.253731343284,4,2,0,30,0,0
89763,-100,4,2,0,30,0,0
90469,-58.8235294117647,4,2,0,30,0,0
90513,-333.333333333333,4,2,0,30,0,0
90645,-100,4,2,0,30,0,0
91880,-400,4,2,0,30,0,0
91969,-66.6666666666667,4,2,0,30,0,0
92057,-400,4,2,0,30,0,0
92322,-66.6666666666667,4,2,0,30,0,0
92410,-400,4,2,0,30,0,0
92675,-66.6666666666667,4,2,0,30,0,0
92763,-400,4,2,0,30,0,0
92851,-66.6666666666667,4,2,0,30,0,0
92939,-100,4,2,0,30,0,0
94704,-400,4,2,0,30,0,0
94748,-66.6666666666667,4,2,0,30,0,0
94792,-400,4,2,0,30,0,0
94836,-66.6666666666667,4,2,0,30,0,0
94880,-400,4,2,0,30,0,0
94925,-66.6666666666667,4,2,0,30,0,0
94969,-400,4,2,0,30,0,0
95013,-66.6666666666667,4,2,0,30,0,0
95057,-400,4,2,0,30,0,0
95101,-66.6666666666667,4,2,0,30,0,0
95145,-400,4,2,0,30,0,0
95189,-66.6666666666667,4,2,0,30,0,0
95233,-400,4,2,0,30,0,0
95498,-66.6666666666667,4,2,0,30,0,0
95586,-400,4,2,0,30,0,0
95675,-66.6666666666667,4,2,0,30,0,0
95763,-100,4,2,0,30,0,0
96116,-400,4,2,0,30,0,0
96204,-66.6666666666667,4,2,0,30,0,0
96292,-400,4,2,0,30,0,0
96557,-66.6666666666667,4,2,0,30,0,0
96645,-400,4,2,0,30,0,0
96910,-66.6666666666667,4,2,0,30,0,0
96998,-100,4,2,0,30,0,0
97527,-400,4,2,0,30,0,0
97616,-66.6666666666667,4,2,0,30,0,0
97704,-400,4,2,0,30,0,0
97969,-66.6666666666667,4,2,0,30,0,0
98057,-400,4,2,0,30,0,0
98322,-66.6666666666667,4,2,0,30,0,0
98410,-100,4,2,0,30,0,0
98939,-400,4,2,0,30,0,0
99027,-66.6666666666667,4,2,0,30,0,0
99116,-400,4,2,0,30,0,0
99204,-66.6666666666667,4,2,0,30,0,0
99292,-400,4,2,0,30,0,0
99380,-66.6666666666667,4,2,0,30,0,0
99469,-400,4,2,0,30,0,0
99513,-66.6666666666667,4,2,0,30,0,0
99557,-400,4,2,0,30,0,0
99601,-66.6666666666667,4,2,0,30,0,0
99645,-100,4,2,0,30,0,0
99822,-400,4,2,0,30,0,0
99910,-66.6666666666667,4,2,0,30,0,0
99998,-400,4,2,0,30,0,0
100086,-66.6666666666667,4,2,0,30,0,0
100175,-400,4,2,0,30,0,0
100263,-66.6666666666667,4,2,0,30,0,0
100351,-400,4,2,0,30,0,0
100395,-66.6666666666667,4,2,0,30,0,0
100439,-400,4,2,0,30,0,0
100483,-66.6666666666667,4,2,0,30,0,0
100527,-400,4,2,0,30,0,0
100616,-66.6666666666667,4,2,0,30,0,0
100704,-400,4,2,0,30,0,0
100748,-66.6666666666667,4,2,0,30,0,0
100792,-400,4,2,0,30,0,0
100836,-66.6666666666667,4,2,0,30,0,0
100880,-400,4,2,0,30,0,0
100969,-66.6666666666667,4,2,0,30,0,0
101057,-400,4,2,0,30,0,0
101101,-66.6666666666667,4,2,0,30,0,0
101145,-400,4,2,0,30,0,0
101189,-66.6666666666667,4,2,0,30,0,0
101233,-100,4,2,0,30,0,0
101763,-58.8235294117647,4,2,0,30,0,0
101807,-333.333333333333,4,2,0,30,0,0
101939,-100,4,2,0,30,0,0
103175,-400,4,2,0,30,0,0
103263,-66.6666666666667,4,2,0,30,0,0
103351,-400,4,2,0,30,0,0
103616,-66.6666666666667,4,2,0,30,0,0
103704,-100,4,2,0,30,0,0
103969,-66.6666666666667,4,2,0,30,0,0
104057,-100,4,2,0,30,0,0
104586,-400,4,2,0,30,0,0
104630,-66.6666666666667,4,2,0,30,0,0
104675,-400,4,2,0,30,0,0
104763,-66.6666666666667,4,2,0,30,0,0
104851,-400,4,2,0,30,0,0
104895,-66.6666666666667,4,2,0,30,0,0
104939,-400,4,2,0,30,0,0
105027,-66.6666666666667,4,2,0,30,0,0
105116,-400,4,2,0,30,0,0
105160,-66.6666666666667,4,2,0,30,0,0
105204,-400,4,2,0,30,0,0
105292,-66.6666666666667,4,2,0,30,0,0
105380,-400,4,2,0,30,0,0
105425,-66.6666666666667,4,2,0,30,0,0
105469,-400,4,2,0,30,0,0
105557,-66.6666666666667,4,2,0,30,0,0
105645,-400,4,2,0,30,0,0
105689,-66.6666666666667,4,2,0,30,0,0
105733,-400,4,2,0,30,0,0
105777,-66.6666666666667,4,2,0,30,0,0
105822,-400,4,2,0,30,0,0
105866,-66.6666666666667,4,2,0,30,0,0
105910,-400,4,2,0,30,0,0
105954,-66.6666666666667,4,2,0,30,0,0
105998,-100,4,2,0,30,0,0
107410,-400,4,2,0,30,0,0
107498,-66.6666666666667,4,2,0,30,0,0
107586,-399.999999999997,4,2,0,30,0,0
107851,-66.6666666666667,4,2,0,30,0,0
107939,-400,4,2,0,30,0,0
108204,-66.6666666666667,4,2,0,30,0,0
108292,-100,4,2,0,30,0,0
108822,-400,4,2,0,30,0,0
108910,-66.6666666666667,4,2,0,30,0,0
108998,-400,4,2,0,30,0,0
109263,-66.6666666666667,4,2,0,30,0,0
109351,-399.999999999997,4,2,0,30,0,0
109616,-66.6666666666667,4,2,0,30,0,0
109704,-100,4,2,0,30,0,0
110233,-399.999999999997,4,2,0,30,0,0
110322,-66.6666666666667,4,2,0,30,0,0
110410,-399.999999999997,4,2,0,30,0,0
110498,-66.6666666666667,4,2,0,30,0,0
110586,-399.999999999997,4,2,0,30,0,0
110675,-66.6666666666667,4,2,0,30,0,0
110763,-399.999999999997,4,2,0,30,0,0
110807,-66.6666666666667,4,2,0,30,0,0
110851,-399.999999999997,4,2,0,30,0,0
110895,-66.6666666666667,4,2,0,30,0,0
110939,-399.999999999997,4,2,0,30,0,0
111027,-66.6666666666667,4,2,0,30,0,0
111116,-399.999999999997,4,2,0,30,0,0
111204,-66.6666666666667,4,2,0,30,0,0
111292,-399.999999999997,4,2,0,30,0,0
111336,-66.6666666666667,4,2,0,30,0,0
111380,-399.999999999997,4,2,0,30,0,0
111425,-66.6666666666667,4,2,0,30,0,0
111469,-399.999999999997,4,2,0,30,0,0
111513,-66.6666666666667,4,2,0,30,0,0
111557,-399.999999999997,4,2,0,30,0,0
111601,-66.6666666666667,4,2,0,30,0,0
111645,-100,4,2,0,30,0,0
111822,-399.999999999997,4,2,0,30,0,0
111866,-66.6666666666667,4,2,0,30,0,0
111910,-399.999999999997,4,2,0,30,0,0
111954,-66.6666666666667,4,2,0,30,0,0
111998,-399.999999999997,4,2,0,30,0,0
112042,-66.6666666666667,4,2,0,30,0,0
112086,-399.999999999997,4,2,0,30,0,0
112130,-66.6666666666667,4,2,0,30,0,0
112175,-399.999999999997,4,2,0,30,0,0
112219,-66.6666666666667,4,2,0,30,0,0
112263,-399.999999999997,4,2,0,30,0,0
112307,-66.6666666666667,4,2,0,30,0,0
112351,-399.999999999997,4,2,0,30,0,0
112395,-66.6666666666667,4,2,0,30,0,0
112439,-399.999999999997,4,2,0,30,0,0
112483,-66.6666666666667,4,2,0,30,0,0
112527,-399.999999999997,4,2,0,30,0,0
112572,-66.6666666666667,4,2,0,30,0,0
112616,-399.999999999997,4,2,0,30,0,0
112660,-66.6666666666667,4,2,0,30,0,0
112704,-100,4,2,0,30,0,0
117292,-133.333333333333,4,2,0,30,0,0
117469,-100,4,2,0,30,0,0
118704,-399.999999999997,4,2,0,30,0,0
118969,-66.6666666666667,4,2,0,30,0,0
119057,-399.999999999997,4,2,0,30,0,0
119322,-66.6666666666667,4,2,0,30,0,0
119410,-399.999999999997,4,2,0,30,0,0
119675,-66.6666666666667,4,2,0,30,0,0
119763,-399.999999999997,4,2,0,30,0,0
120027,-66.6666666666667,4,2,0,30,0,0
120116,-399.999999999997,4,2,0,30,0,0
120204,-79.9999999999999,4,2,0,30,0,0
120292,-399.999999999997,4,2,0,30,0,0
120380,-79.9999999999999,4,2,0,30,0,0
120469,-399.999999999997,4,2,0,30,0,0
120557,-79.9999999999999,4,2,0,30,0,0
120645,-399.999999999997,4,2,0,30,0,0
120733,-79.9999999999999,4,2,0,30,0,0
120822,-399.999999999997,4,2,0,30,0,0
120910,-79.9999999999999,4,2,0,30,0,0
120998,-399.999999999997,4,2,0,30,0,0
121086,-79.9999999999999,4,2,0,30,0,0
121175,-399.999999999997,4,2,0,30,0,0
121263,-79.9999999999999,4,2,0,30,0,0
121351,-399.999999999997,4,2,0,30,0,0
121439,-79.9999999999999,4,2,0,30,0,0
121527,-399.999999999997,4,2,0,30,0,0
121572,-80,4,2,0,30,0,0
121616,-399.999999999997,4,2,0,30,0,0
121660,-80,4,2,0,30,0,0
121704,-399.999999999997,4,2,0,30,0,0
121748,-80,4,2,0,30,0,0
121792,-399.999999999997,4,2,0,30,0,0
121836,-80,4,2,0,30,0,0
121880,-399.999999999997,4,2,0,30,0,0
121925,-80,4,2,0,30,0,0
121969,-399.999999999997,4,2,0,30,0,0
122013,-80,4,2,0,30,0,0
122057,-399.999999999997,4,2,0,30,0,0
122101,-80,4,2,0,30,0,0
122145,-399.999999999997,4,2,0,30,0,0
122189,-80,4,2,0,30,0,0
122233,-399.999999999997,4,2,0,30,0,0
122277,-80,4,2,0,30,0,0
122322,-399.999999999997,4,2,0,30,0,0
122366,-80,4,2,0,30,0,0
122410,-399.999999999997,4,2,0,30,0,0
122454,-80,4,2,0,30,0,0
122498,-399.999999999997,4,2,0,30,0,0
122542,-80,4,2,0,30,0,0
122586,-399.999999999997,4,2,0,30,0,0
122630,-80,4,2,0,30,0,0
122675,-399.999999999997,4,2,0,30,0,0
122719,-80,4,2,0,30,0,0
122763,-399.999999999997,4,2,0,30,0,0
122807,-80,4,2,0,30,0,0
122851,-399.999999999997,4,2,0,30,0,0
122895,-80,4,2,0,30,0,0
122939,-399.999999999997,4,2,0,30,0,0
123116,-66.6666666666667,4,2,0,30,0,0
123204,-399.999999999997,4,2,0,30,0,0
123380,-66.6666666666667,4,2,0,30,0,0
123469,-399.999999999997,4,2,0,30,0,0
123557,-66.6666666666667,4,2,0,30,0,0
123645,-399.999999999997,4,2,0,30,0,0
123733,-66.6666666666667,4,2,0,30,0,0
123822,-100,4,2,0,30,0,0
127175,-399.999999999997,4,2,0,30,0,0
127263,-66.6666666666667,4,2,0,30,0,0
127351,-399.999999999997,4,2,0,30,0,0
127439,-66.6666666666667,4,2,0,30,0,0
127527,-399.999999999997,4,2,0,30,0,0
127616,-66.6666666666667,4,2,0,30,0,0
127704,-399.999999999997,4,2,0,30,0,0
127792,-66.6666666666667,4,2,0,30,0,0
127880,-399.999999999997,4,2,0,30,0,0
127925,-80,4,2,0,30,0,0
127969,-400,4,2,0,30,0,0
128013,-80,4,2,0,30,0,0
128057,-399.999999999997,4,2,0,30,0,0
128101,-80,4,2,0,30,0,0
128145,-399.999999999997,4,2,0,30,0,0
128189,-80,4,2,0,30,0,0
128233,-399.999999999997,4,2,0,30,0,0
128277,-80,4,2,0,30,0,0
128322,-399.999999999997,4,2,0,30,0,0
128366,-80,4,2,0,30,0,0
128410,-399.999999999997,4,2,0,30,0,0
128454,-80,4,2,0,30,0,0
128498,-399.999999999997,4,2,0,30,0,0
128542,-80,4,2,0,30,0,0
128586,-100,4,2,0,30,0,0
133351,-399.999999999997,4,2,0,30,0,0
133395,-80,4,2,0,30,0,0
133439,-399.999999999997,4,2,0,30,0,0
133483,-80,4,2,0,30,0,0
133527,-100,4,2,0,30,0,0
133704,-399.999999999997,4,2,0,30,0,0
133748,-80,4,2,0,30,0,0
133792,-399.999999999997,4,2,0,30,0,0
133836,-80,4,2,0,30,0,0
133880,-100,4,2,0,30,0,0
134233,-400,4,2,0,30,0,0
134277,-66.6666666666667,4,2,0,30,0,0
134322,-400,4,2,0,30,0,0
134366,-66.6666666666667,4,2,0,30,0,0
134410,-400,4,2,0,30,0,0
134454,-66.6666666666667,4,2,0,30,0,0
134498,-400,4,2,0,30,0,0
134542,-66.6666666666667,4,2,0,30,0,0
134586,-400,4,2,0,30,0,0
134630,-66.6666666666667,4,2,0,30,0,0
134675,-400,4,2,0,30,0,0
134719,-66.6666666666667,4,2,0,30,0,0
134763,-400,4,2,0,30,0,0
134807,-66.6666666666667,4,2,0,30,0,0
134851,-400,4,2,0,30,0,0
134895,-66.6666666666667,4,2,0,30,0,0
134939,-400,4,2,0,30,0,0
135027,-66.6666666666667,4,2,0,30,0,0
135116,-100,4,2,0,30,0,0
138469,-400,4,2,0,30,0,0
138557,-66.6666666666667,4,2,0,30,0,0
138645,-400,4,2,0,30,0,0
138733,-66.6666666666667,4,2,0,30,0,0
138822,-400,4,2,0,30,0,0
138866,-66.6666666666667,4,2,0,30,0,0
138910,-400,4,2,0,30,0,0
138954,-66.6666666666667,4,2,0,30,0,0
138998,-400,4,2,0,30,0,0
139042,-66.6666666666667,4,2,0,30,0,0
139086,-400,4,2,0,30,0,0
139130,-66.6666666666667,4,2,0,30,0,0
139175,-400,4,2,0,30,0,0
139197,-66.6666666666667,4,2,0,30,0,0
139219,-400,4,2,0,30,0,0
139241,-66.6666666666667,4,2,0,30,0,0
139263,-400,4,2,0,30,0,0
139285,-66.6666666666667,4,2,0,30,0,0
139307,-400,4,2,0,30,0,0
139329,-66.6666666666667,4,2,0,30,0,0
139351,-400,4,2,0,30,0,0
139373,-66.6666666666667,4,2,0,30,0,0
139395,-400,4,2,0,30,0,0
139417,-66.6666666666667,4,2,0,30,0,0
139439,-400,4,2,0,30,0,0
139461,-66.6666666666667,4,2,0,30,0,0
139483,-400,4,2,0,30,0,0
139505,-66.6666666666667,4,2,0,30,0,0
139527,-400,4,2,0,30,0,0
139550,-66.6666666666667,4,2,0,30,0,0
139572,-400,4,2,0,30,0,0
139594,-66.6666666666667,4,2,0,30,0,0
139616,-400,4,2,0,30,0,0
139638,-66.6666666666667,4,2,0,30,0,0
139660,-400,4,2,0,30,0,0
139682,-66.6666666666667,4,2,0,30,0,0
139704,-400,4,2,0,30,0,0
139726,-66.6666666666667,4,2,0,30,0,0
139748,-400,4,2,0,30,0,0
139770,-66.6666666666667,4,2,0,30,0,0
139792,-400,4,2,0,30,0,0
139814,-66.6666666666667,4,2,0,30,0,0
139836,-400,4,2,0,30,0,0
139858,-66.6666666666667,4,2,0,30,0,0
139880,-100,4,2,0,30,0,0
141645,-400,4,2,0,30,0,0
141689,-79.9999999999999,4,2,0,30,0,0
141733,-400,4,2,0,30,0,0
141777,-79.9999999999999,4,2,0,30,0,0
141822,-400,4,2,0,30,0,0
141866,-79.9999999999999,4,2,0,30,0,0
141910,-400,4,2,0,30,0,0
141954,-79.9999999999999,4,2,0,30,0,0
141998,-100,4,2,0,30,0,0
143057,-400,4,2,0,30,0,0
143101,-79.9999999999999,4,2,0,30,0,0
143145,-400,4,2,0,30,0,0
143189,-79.9999999999999,4,2,0,30,0,0
143233,-400,4,2,0,30,0,0
143277,-79.9999999999999,4,2,0,30,0,0
143322,-400,4,2,0,30,0,0
143366,-79.9999999999999,4,2,0,30,0,0
143410,-100,4,2,0,30,0,0
144645,-400,4,2,0,30,0,0
144667,-50,4,2,0,30,0,0
144689,-400,4,2,0,30,0,0
144711,-50,4,2,0,30,0,0
144733,-400,4,2,0,30,0,0
144755,-50,4,2,0,30,0,0
144777,-400,4,2,0,30,0,0
144800,-50,4,2,0,30,0,0
144822,-100,4,2,0,30,0,0
145351,-400,4,2,0,30,0,0
145373,-50,4,2,0,30,0,0
145395,-400,4,2,0,30,0,0
145417,-50,4,2,0,30,0,0
145439,-400,4,2,0,30,0,0
145461,-50,4,2,0,30,0,0
145483,-400,4,2,0,30,0,0
145505,-50,4,2,0,30,0,0
145527,-399.999999999997,4,2,0,30,0,0
145572,-80,4,2,0,30,0,0
145616,-399.999999999997,4,2,0,30,0,0
145660,-80,4,2,0,30,0,0
145704,-399.999999999997,4,2,0,30,0,0
145748,-80,4,2,0,30,0,0
145792,-399.999999999997,4,2,0,30,0,0
145836,-80,4,2,0,30,0,0
145880,-399.999999999997,4,2,0,30,0,0
145925,-80,4,2,0,30,0,0
145969,-399.999999999997,4,2,0,30,0,0
146013,-80,4,2,0,30,0,0
146057,-399.999999999997,4,2,0,30,0,0
146101,-80,4,2,0,30,0,0
146145,-399.999999999997,4,2,0,30,0,0
146189,-80,4,2,0,30,0,0
146233,-399.999999999997,4,2,0,30,0,0
146277,-80,4,2,0,30,0,0
146322,-399.999999999997,4,2,0,30,0,0
146366,-80,4,2,0,30,0,0
146410,-399.999999999997,4,2,0,30,0,0
146454,-80,4,2,0,30,0,0
146498,-399.999999999997,4,2,0,30,0,0
146542,-80,4,2,0,30,0,0
146586,-100,4,2,0,30,0,0
146939,-399.999999999997,4,2,0,30,0,0
146983,-80,4,2,0,30,0,0
147027,-399.999999999997,4,2,0,30,0,0
147116,-80,4,2,0,30,0,0
147204,-399.999999999997,4,2,0,30,0,0
147248,-80,4,2,0,30,0,0
147292,-399.999999999997,4,2,0,30,0,0
147380,-80,4,2,0,30,0,0
147469,-399.999999999997,4,2,0,30,0,0
147557,-80,4,2,0,30,0,0
147645,-100,4,2,0,30,0,0
148351,-399.999999999997,4,2,0,30,0,0
148395,-80,4,2,0,30,0,0
148439,-399.999999999997,4,2,0,30,0,0
148527,-80,4,2,0,30,0,0
148616,-399.999999999997,4,2,0,30,0,0
148660,-80,4,2,0,30,0,0
148704,-399.999999999997,4,2,0,30,0,0
148792,-80,4,2,0,30,0,0
148880,-399.999999999997,4,2,0,30,0,0
148969,-80,4,2,0,30,0,0
149057,-100,4,2,0,30,0,0
150292,-399.999999999997,4,2,0,30,0,0
150336,-80,4,2,0,30,0,0
150380,-399.999999999997,4,2,0,30,0,0
150425,-80,4,2,0,30,0,0
150469,-399.999999999997,4,2,0,30,0,0
150557,-80,4,2,0,30,0,0
150645,-399.999999999997,4,2,0,30,0,0
150733,-80,4,2,0,30,0,0
150822,-399.999999999997,4,2,0,30,0,0
150910,-80,4,2,0,30,0,0
150998,-399.999999999997,4,2,0,30,0,0
151042,-80,4,2,0,30,0,0
151086,-399.999999999997,4,2,0,30,0,0
151130,-80,4,2,0,30,0,0
151175,-399.999999999997,4,2,0,30,0,0
151263,-80,4,2,0,30,0,0
151351,-399.999999999997,4,2,0,30,0,0
151439,-80,4,2,0,30,0,0
151527,-399.999999999997,4,2,0,30,0,0
151616,-80,4,2,0,30,0,0
151704,-399.999999999997,4,2,0,30,0,0
151748,-80,4,2,0,30,0,0
151792,-399.999999999997,4,2,0,30,0,0
151836,-80,4,2,0,30,0,0
151880,-399.999999999997,4,2,0,30,0,0
151925,-80,4,2,0,30,0,0
151969,-399.999999999997,4,2,0,30,0,0
152013,-80,4,2,0,30,0,0
152057,-399.999999999997,4,2,0,30,0,0
152101,-80,4,2,0,30,0,0
152145,-399.999999999997,4,2,0,30,0,0
152189,-80,4,2,0,30,0,0
152233,-399.999999999997,4,2,0,30,0,0
152277,-80,4,2,0,30,0,0
152322,-399.999999999997,4,2,0,30,0,0
152366,-80,4,2,0,30,0,0
152410,-100,4,2,0,30,0,0
152586,-399.999999999997,4,2,0,30,0,0
152675,-80,4,2,0,30,0,0
152763,-399.999999999997,4,2,0,30,0,0
152851,-80,4,2,0,30,0,0
152939,-399.999999999997,4,2,0,30,0,0
152983,-80,4,2,0,30,0,0
153027,-399.999999999997,4,2,0,30,0,0
153072,-80,4,2,0,30,0,0
153116,-399.999999999997,4,2,0,30,0,0
153160,-80,4,2,0,30,0,0
153204,-399.999999999997,4,2,0,30,0,0
153248,-80,4,2,0,30,0,0
153292,-399.999999999997,4,2,0,30,0,0
153336,-80,4,2,0,30,0,0
153380,-399.999999999997,4,2,0,30,0,0
153425,-80,4,2,0,30,0,0
153469,-399.999999999997,4,2,0,30,0,0
153513,-80,4,2,0,30,0,0
153557,-399.999999999997,4,2,0,30,0,0
153601,-80,4,2,0,30,0,0
153645,-399.999999999997,4,2,0,30,0,0
153689,-80,4,2,0,30,0,0
153733,-399.999999999997,4,2,0,30,0,0
153777,-80,4,2,0,30,0,0
153822,-399.999999999997,4,2,0,30,0,0
153866,-80,4,2,0,30,0,0
153910,-399.999999999997,4,2,0,30,0,0
153954,-80,4,2,0,30,0,0
153998,-399.999999999997,4,2,0,30,0,0
154042,-80,4,2,0,30,0,0
154086,-399.999999999997,4,2,0,30,0,0
154130,-80,4,2,0,30,0,0
154175,-399.999999999997,4,2,0,30,0,0
154219,-80,4,2,0,30,0,0
154263,-399.999999999997,4,2,0,30,0,0
154307,-80,4,2,0,30,0,0
154351,-399.999999999997,4,2,0,30,0,0
154395,-80,4,2,0,30,0,0
154439,-399.999999999997,4,2,0,30,0,0
154483,-80,4,2,0,30,0,0
154527,-399.999999999997,4,2,0,30,0,0
154572,-80,4,2,0,30,0,0
154616,-399.999999999997,4,2,0,30,0,0
154660,-80,4,2,0,30,0,0
154704,-399.999999999997,4,2,0,30,0,0
154748,-80,4,2,0,30,0,0
154792,-399.999999999997,4,2,0,30,0,0
154836,-80,4,2,0,30,0,0
154880,-399.999999999997,4,2,0,30,0,0
154925,-80,4,2,0,30,0,0
154969,-399.999999999997,4,2,0,30,0,0
155013,-80,4,2,0,30,0,0
155057,-399.999999999997,4,2,0,30,0,0
155101,-80,4,2,0,30,0,0
155145,-399.999999999997,4,2,0,30,0,0
155189,-80,4,2,0,30,0,0
155233,-399.999999999997,4,2,0,30,0,0
155277,-80,4,2,0,30,0,0
155322,-399.999999999997,4,2,0,30,0,0
155366,-80,4,2,0,30,0,0
155410,-100,4,2,0,30,0,0

[HitObjects]
64,192,1528,5,0,0:0:0:0:
192,192,1528,1,0,0:0:0:0:
448,192,1528,1,0,0:0:0:0:
192,192,1704,1,0,0:0:0:0:
192,192,1880,1,0,0:0:0:0:
320,192,2057,1,0,0:0:0:0:
448,192,2057,1,0,0:0:0:0:
192,192,2233,1,0,0:0:0:0:
64,192,2233,1,0,0:0:0:0:
192,192,2410,1,0,0:0:0:0:
64,192,2586,1,0,0:0:0:0:
448,192,2586,1,0,0:0:0:0:
192,192,2763,1,0,0:0:0:0:
320,192,2763,1,0,0:0:0:0:
192,192,2939,1,0,0:0:0:0:
64,192,3116,1,0,0:0:0:0:
320,192,3116,1,0,0:0:0:0:
448,192,3292,1,0,0:0:0:0:
448,192,3469,1,0,0:0:0:0:
192,192,3469,1,0,0:0:0:0:
64,192,3645,1,0,0:0:0:0:
320,192,3645,1,0,0:0:0:0:
192,192,3822,1,0,0:0:0:0:
192,192,3998,1,0,0:0:0:0:
448,192,4175,1,0,0:0:0:0:
64,192,4175,1,0,0:0:0:0:
192,192,4351,1,0,0:0:0:0:
320,192,4351,1,0,0:0:0:0:
192,192,4527,1,0,0:0:0:0:
192,192,4704,1,0,0:0:0:0:
64,192,4880,1,0,0:0:0:0:
320,192,4880,1,0,0:0:0:0:
448,192,5057,1,0,0:0:0:0:
448,192,5233,1,0,0:0:0:0:
64,192,5410,1,0,0:0:0:0:
192,192,5410,1,0,0:0:0:0:
448,192,5586,1,0,0:0:0:0:
448,192,5763,1,0,0:0:0:0:
320,192,5939,1,0,0:0:0:0:
192,192,5939,1,0,0:0:0:0:
192,192,6116,1,0,0:0:0:0:
64,192,6292,1,0,0:0:0:0:
64,192,6469,1,0,0:0:0:0:
192,192,6469,1,0,0:0:0:0:
448,192,6645,1,0,0:0:0:0:
320,192,6822,1,0,0:0:0:0:
448,192,6822,1,0,0:0:0:0:
64,192,6998,1,0,0:0:0:0:
64,192,7175,1,0,0:0:0:0:
192,192,7175,1,0,0:0:0:0:
320,192,7175,1,0,0:0:0:0:
320,192,7351,1,0,0:0:0:0:
320,192,7527,1,0,0:0:0:0:
64,192,7704,1,0,0:0:0:0:
448,192,7704,1,0,0:0:0:0:
320,192,7880,1,0,0:0:0:0:
320,192,8057,1,0,0:0:0:0:
64,192,8057,1,0,0:0:0:0:
192,192,8233,1,0,0:0:0:0:
448,192,8233,1,0,0:0:0:0:
320,192,8410,1,0,0:0:0:0:
320,192,8586,1,0,0:0:0:0:
64,192,8763,1,0,0:0:0:0:
448,192,8763,1,0,0:0:0:0:
192,192,8939,1,0,0:0:0:0:
192,192,9116,1,0,0:0:0:0:
320,192,9116,1,0,0:0:0:0:
64,192,9292,1,0,0:0:0:0:
448,192,9292,1,0,0:0:0:0:
192,192,9469,1,0,0:0:0:0:
192,192,9645,1,0,0:0:0:0:
64,192,9822,1,0,0:0:0:0:
448,192,9822,1,0,0:0:0:0:
192,192,9998,1,0,0:0:0:0:
320,192,9998,1,0,0:0:0:0:
64,192,10175,1,0,0:0:0:0:
64,192,10351,1,0,0:0:0:0:
320,192,10527,1,0,0:0:0:0:
448,192,10527,1,0,0:0:0:0:
192,192,10704,1,0,0:0:0:0:
192,192,10880,1,0,0:0:0:0:
64,192,11057,1,0,0:0:0:0:
448,192,11057,1,0,0:0:0:0:
320,192,11233,1,0,0:0:0:0:
192,192,11233,1,0,0:0:0:0:
320,192,11410,1,0,0:0:0:0:
192,192,11586,1,0,0:0:0:0:
64,192,11586,1,0,0:0:0:0:
448,192,11763,1,0,0:0:0:0:
320,192,11763,1,0,0:0:0:0:
448,192,11939,1,0,0:0:0:0:
320,192,12116,1,0,0:0:0:0:
64,192,12116,1,0,0:0:0:0:
192,192,12292,1,0,0:0:0:0:
192,192,12469,1,0,0:0:0:0:
448,192,12469,1,0,0:0:0:0:
320,192,12645,1,0,0:0:0:0:
192,192,12822,1,0,0:0:0:0:
320,192,12822,1,0,0:0:0:0:
448,192,12822,1,0,0:0:0:0:
64,192,12822,1,0,0:0:0:0:
64,192,13351,128,0,13439:0:0:0:0:
320,192,13351,128,0,13439:0:0:0:0:
192,192,13527,128,0,13792:0:0:0:0:
448,192,13527,128,0,13792:0:0:0:0:
64,192,13527,1,0,0:0:0:0:
320,192,13527,1,0,0:0:0:0:
64,192,13704,128,0,13969:0:0:0:0:
320,192,13704,128,0,13969:0:0:0:0:
192,192,13880,128,0,13969:0:0:0:0:
448,192,13880,128,0,13969:0:0:0:0:
64,192,14057,1,0,0:0:0:0:
448,192,14057,1,0,0:0:0:0:
64,192,14233,128,0,14675:0:0:0:0:
448,192,14233,128,0,14675:0:0:0:0:
192,192,14410,128,0,14675:0:0:0:0:
320,192,14410,128,0,14675:0:0:0:0:
320,192,14763,128,0,14851:0:0:0:0:
448,192,14763,128,0,14851:0:0:0:0:
64,192,14939,128,0,15204:0:0:0:0:
192,192,14939,128,0,15204:0:0:0:0:
320,192,14939,1,0,0:0:0:0:
448,192,14939,1,0,0:0:0:0:
448,192,15116,128,0,15380:0:0:0:0:
320,192,15116,128,0,15380:0:0:0:0:
192,192,15292,128,0,15380:0:0:0:0:
64,192,15292,128,0,15380:0:0:0:0:
64,192,15469,1,0,0:0:0:0:
192,192,15469,1,0,0:0:0:0:
64,192,15645,128,0,15998:0:0:0:0:
192,192,15645,128,0,15910:0:0:0:0:
448,192,15645,1,0,0:0:0:0:
320,192,15645,1,0,0:0:0:0:
192,192,15998,128,0,16351:0:0:0:0:
320,192,15998,128,0,16263:0:0:0:0:
320,192,16351,128,0,16704:0:0:0:0:
448,192,16351,128,0,16616:0:0:0:0:
64,192,16351,1,0,0:0:0:0:
448,192,16704,128,0,17057:0:0:0:0:
64,192,16704,128,0,16969:0:0:0:0:
64,192,17057,1,0,0:0:0:0:
192,192,17057,1,0,0:0:0:0:
320,192,17057,1,0,0:0:0:0:
448,192,17233,1,0,0:0:0:0:
448,192,17322,1,0,0:0:0:0:
64,192,17410,1,0,0:0:0:0:
320,192,17410,1,0,0:0:0:0:
64,192,17586,1,0,0:0:0:0:
320,192,17586,1,0,0:0:0:0:
192,192,17763,1,0,0:0:0:0:
448,192,17763,1,0,0:0:0:0:
192,192,17939,1,0,0:0:0:0:
448,192,17939,1,0,0:0:0:0:
192,192,18116,1,0,0:0:0:0:
320,192,18116,1,0,0:0:0:0:
320,192,18204,1,0,0:0:0:0:
192,192,18204,1,0,0:0:0:0:
192,192,18292,1,0,0:0:0:0:
320,192,18292,1,0,0:0:0:0:
320,192,18380,1,0,0:0:0:0:
192,192,18380,1,0,0:0:0:0:
64,192,18469,1,0,0:0:0:0:
192,192,18469,1,0,0:0:0:0:
320,192,18469,1,0,0:0:0:0:
448,192,18469,1,0,0:0:0:0:
192,192,18998,128,0,19086:0:0:0:0:
448,192,18998,128,0,19086:0:0:0:0:
320,192,19175,128,0,19439:0:0:0:0:
64,192,19175,128,0,19439:0:0:0:0:
192,192,19175,1,0,0:0:0:0:
448,192,19175,1,0,0:0:0:0:
448,192,19351,128,0,19616:0:0:0:0:
192,192,19351,128,0,19616:0:0:0:0:
320,192,19527,128,0,19616:0:0:0:0:
64,192,19527,128,0,19616:0:0:0:0:
64,192,19704,1,0,0:0:0:0:
448,192,19704,1,0,0:0:0:0:
448,192,19880,128,0,20322:0:0:0:0:
64,192,19880,128,0,20322:0:0:0:0:
320,192,20057,128,0,20322:0:0:0:0:
192,192,20057,128,0,20322:0:0:0:0:
192,192,20410,128,0,20498:0:0:0:0:
64,192,20410,128,0,20498:0:0:0:0:
448,192,20586,128,0,20851:0:0:0:0:
320,192,20586,128,0,20851:0:0:0:0:
64,192,20586,1,0,0:0:0:0:
192,192,20586,1,0,0:0:0:0:
64,192,20763,128,0,21027:0:0:0:0:
192,192,20763,128,0,21027:0:0:0:0:
320,192,20939,128,0,21027:0:0:0:0:
448,192,20939,128,0,21027:0:0:0:0:
320,192,21116,1,0,0:0:0:0:
448,192,21116,1,0,0:0:0:0:
448,192,21292,128,0,21645:0:0:0:0:
320,192,21292,128,0,21557:0:0:0:0:
64,192,21292,1,0,0:0:0:0:
192,192,21292,1,0,0:0:0:0:
320,192,21645,128,0,21998:0:0:0:0:
192,192,21645,128,0,21910:0:0:0:0:
192,192,21998,128,0,22351:0:0:0:0:
64,192,21998,128,0,22263:0:0:0:0:
448,192,21998,1,0,0:0:0:0:
64,192,22351,128,0,22704:0:0:0:0:
448,192,22351,128,0,22616:0:0:0:0:
448,192,22704,1,0,0:0:0:0:
320,192,22704,1,0,0:0:0:0:
192,192,22704,1,0,0:0:0:0:
448,192,22880,1,0,0:0:0:0:
448,192,22969,1,0,0:0:0:0:
64,192,23057,1,0,0:0:0:0:
320,192,23057,1,0,0:0:0:0:
448,192,23233,1,0,0:0:0:0:
448,192,23322,1,0,0:0:0:0:
320,192,23410,1,0,0:0:0:0:
64,192,23410,1,0,0:0:0:0:
448,192,23645,1,0,0:0:0:0:
192,192,23763,1,0,0:0:0:0:
320,192,23763,1,0,0:0:0:0:
448,192,23998,1,0,0:0:0:0:
64,192,24116,128,0,24204:0:0:0:0:
320,192,24116,1,0,0:0:0:0:
64,192,24292,128,0,24380:0:0:0:0:
192,192,24469,128,0,24557:0:0:0:0:
320,192,24469,1,0,0:0:0:0:
192,192,24645,1,0,0:0:0:0:
448,192,24822,128,0,24910:0:0:0:0:
64,192,24822,1,0,0:0:0:0:
448,192,24998,128,0,25086:0:0:0:0:
64,192,24998,1,0,0:0:0:0:
320,192,25175,128,0,25263:0:0:0:0:
192,192,25175,1,0,0:0:0:0:
320,192,25351,1,0,0:0:0:0:
64,192,25527,1,0,0:0:0:0:
320,192,25616,1,0,0:0:0:0:
192,192,25704,1,0,0:0:0:0:
448,192,25792,1,0,0:0:0:0:
64,192,25880,1,0,0:0:0:0:
320,192,25969,1,0,0:0:0:0:
192,192,26057,1,0,0:0:0:0:
448,192,26145,1,0,0:0:0:0:
64,192,26233,1,0,0:0:0:0:
320,192,26322,1,0,0:0:0:0:
192,192,26410,1,0,0:0:0:0:
448,192,26498,1,0,0:0:0:0:
64,192,26586,1,0,0:0:0:0:
320,192,26675,1,0,0:0:0:0:
192,192,26763,1,0,0:0:0:0:
448,192,26851,1,0,0:0:0:0:
64,192,26939,1,0,0:0:0:0:
320,192,26939,128,0,27027:0:0:0:0:
320,192,27116,128,0,27204:0:0:0:0:
192,192,27292,128,0,27380:0:0:0:0:
64,192,27292,1,0,0:0:0:0:
192,192,27469,1,0,0:0:0:0:
320,192,27645,128,0,27733:0:0:0:0:
448,192,27645,1,0,0:0:0:0:
320,192,27822,128,0,27910:0:0:0:0:
448,192,27822,1,0,0:0:0:0:
192,192,27998,128,0,28086:0:0:0:0:
64,192,27998,1,0,0:0:0:0:
192,192,28175,1,0,0:0:0:0:
448,192,28351,1,0,0:0:0:0:
192,192,28439,1,0,0:0:0:0:
320,192,28527,1,0,0:0:0:0:
64,192,28616,1,0,0:0:0:0:
448,192,28704,1,0,0:0:0:0:
192,192,28792,1,0,0:0:0:0:
320,192,28880,1,0,0:0:0:0:
64,192,28969,1,0,0:0:0:0:
448,192,29057,1,0,0:0:0:0:
192,192,29145,1,0,0:0:0:0:
320,192,29233,1,0,0:0:0:0:
64,192,29322,1,0,0:0:0:0:
448,192,29410,1,0,0:0:0:0:
192,192,29498,1,0,0:0:0:0:
320,192,29586,1,0,0:0:0:0:
64,192,29675,1,0,0:0:0:0:
192,192,29763,1,0,0:0:0:0:
448,192,29763,1,0,0:0:0:0:
64,192,29939,128,0,30027:0:0:0:0:
64,192,30116,128,0,30204:0:0:0:0:
192,192,30292,128,0,30380:0:0:0:0:
192,192,30469,128,0,30557:0:0:0:0:
448,192,30469,1,0,0:0:0:0:
320,192,30645,128,0,30733:0:0:0:0:
64,192,30645,1,0,0:0:0:0:
320,192,30822,128,0,30910:0:0:0:0:
192,192,30822,1,0,0:0:0:0:
448,192,30998,128,0,31086:0:0:0:0:
320,192,30998,1,0,0:0:0:0:
448,192,31175,1,0,0:0:0:0:
64,192,31175,1,0,0:0:0:0:
192,192,31175,1,0,0:0:0:0:
192,192,32057,1,0,0:0:0:0:
320,192,32057,1,0,0:0:0:0:
64,192,32145,1,0,0:0:0:0:
320,192,32233,1,0,0:0:0:0:
448,192,32233,1,0,0:0:0:0:
192,192,32322,1,0,0:0:0:0:
448,192,32410,1,0,0:0:0:0:
320,192,32498,1,0,0:0:0:0:
192,192,32586,1,0,0:0:0:0:
64,192,32586,128,0,32939:0:0:0:0:
320,192,32763,1,0,0:0:0:0:
192,192,32939,1,0,0:0:0:0:
448,192,32939,1,0,0:0:0:0:
64,192,33116,128,0,33204:0:0:0:0:
320,192,33292,128,0,33645:0:0:0:0:
64,192,33292,1,0,0:0:0:0:
448,192,33292,1,0,0:0:0:0:
192,192,33469,1,0,0:0:0:0:
64,192,33645,1,0,0:0:0:0:
448,192,33645,1,0,0:0:0:0:
192,192,33822,128,0,33910:0:0:0:0:
448,192,33998,128,0,34704:0:0:0:0:
320,192,33998,1,0,0:0:0:0:
192,192,33998,1,0,0:0:0:0:
64,192,34175,1,0,0:0:0:0:
192,192,34351,1,0,0:0:0:0:
320,192,34351,1,0,0:0:0:0:
64,192,34527,1,0,0:0:0:0:
192,192,34704,1,0,0:0:0:0:
320,192,34704,1,0,0:0:0:0:
448,192,34880,1,0,0:0:0:0:
192,192,35057,1,0,0:0:0:0:
448,192,35057,1,0,0:0:0:0:
64,192,35145,1,0,0:0:0:0:
320,192,35233,1,0,0:0:0:0:
192,192,35322,1,0,0:0:0:0:
64,192,35410,1,0,0:0:0:0:
448,192,35410,1,0,0:0:0:0:
192,192,35586,1,0,0:0:0:0:
320,192,35586,1,0,0:0:0:0:
192,192,35763,1,0,0:0:0:0:
320,192,35763,1,0,0:0:0:0:
192,192,35939,1,0,0:0:0:0:
320,192,35939,1,0,0:0:0:0:
64,192,36116,1,0,0:0:0:0:
448,192,36116,1,0,0:0:0:0:
192,192,36292,1,0,0:0:0:0:
320,192,36292,1,0,0:0:0:0:
192,192,36469,1,0,0:0:0:0:
320,192,36469,1,0,0:0:0:0:
192,192,36645,1,0,0:0:0:0:
320,192,36645,1,0,0:0:0:0:
64,192,36822,1,0,0:0:0:0:
448,192,36822,1,0,0:0:0:0:
320,192,36822,1,0,0:0:0:0:
192,192,36998,1,0,0:0:0:0:
320,192,37175,1,0,0:0:0:0:
448,192,37175,1,0,0:0:0:0:
64,192,37351,1,0,0:0:0:0:
192,192,37527,1,0,0:0:0:0:
320,192,37527,1,0,0:0:0:0:
448,192,37704,1,0,0:0:0:0:
64,192,37880,1,0,0:0:0:0:
192,192,37880,128,0,37969:0:0:0:0:
320,192,38057,128,0,38145:0:0:0:0:
64,192,38233,1,0,0:0:0:0:
448,192,38233,128,0,38939:0:0:0:0:
192,192,38233,1,0,0:0:0:0:
320,192,38410,1,0,0:0:0:0:
192,192,38586,1,0,0:0:0:0:
64,192,38586,1,0,0:0:0:0:
320,192,38763,1,0,0:0:0:0:
64,192,38939,1,0,0:0:0:0:
192,192,38939,1,0,0:0:0:0:
320,192,39116,1,0,0:0:0:0:
448,192,39292,128,0,39380:0:0:0:0:
64,192,39292,1,0,0:0:0:0:
192,192,39292,1,0,0:0:0:0:
320,192,39469,128,0,39557:0:0:0:0:
192,192,39645,128,0,40351:0:0:0:0:
64,192,39645,1,0,0:0:0:0:
448,192,39645,1,0,0:0:0:0:
320,192,39822,1,0,0:0:0:0:
64,192,39998,1,0,0:0:0:0:
448,192,39998,1,0,0:0:0:0:
320,192,40175,1,0,0:0:0:0:
64,192,40351,1,0,0:0:0:0:
448,192,40351,1,0,0:0:0:0:
192,192,40527,1,0,0:0:0:0:
320,192,40704,1,0,0:0:0:0:
448,192,40704,128,0,40792:0:0:0:0:
192,192,40880,128,0,40969:0:0:0:0:
64,192,41057,1,0,0:0:0:0:
320,192,41057,1,0,0:0:0:0:
64,192,41233,1,0,0:0:0:0:
320,192,41233,1,0,0:0:0:0:
64,192,41410,1,0,0:0:0:0:
320,192,41410,1,0,0:0:0:0:
192,192,41586,1,0,0:0:0:0:
448,192,41586,1,0,0:0:0:0:
64,192,41763,1,0,0:0:0:0:
320,192,41763,1,0,0:0:0:0:
192,192,41939,1,0,0:0:0:0:
448,192,41939,1,0,0:0:0:0:
192,192,42027,1,0,0:0:0:0:
448,192,42027,1,0,0:0:0:0:
448,192,42116,1,0,0:0:0:0:
192,192,42116,1,0,0:0:0:0:
192,192,42292,1,0,0:0:0:0:
320,192,42292,1,0,0:0:0:0:
64,192,42469,1,0,0:0:0:0:
448,192,42469,1,0,0:0:0:0:
192,192,42469,1,0,0:0:0:0:
320,192,43351,1,0,0:0:0:0:
192,192,43351,1,0,0:0:0:0:
448,192,43439,1,0,0:0:0:0:
192,192,43527,1,0,0:0:0:0:
64,192,43527,1,0,0:0:0:0:
320,192,43616,1,0,0:0:0:0:
64,192,43704,1,0,0:0:0:0:
192,192,43792,1,0,0:0:0:0:
320,192,43880,1,0,0:0:0:0:
448,192,43880,128,0,44410:0:0:0:0:
64,192,44233,1,0,0:0:0:0:
320,192,44233,1,0,0:0:0:0:
192,192,44410,128,0,44498:0:0:0:0:
320,192,44586,128,0,45116:0:0:0:0:
192,192,44763,1,0,0:0:0:0:
448,192,44763,1,0,0:0:0:0:
64,192,44939,1,0,0:0:0:0:
448,192,44939,1,0,0:0:0:0:
192,192,45116,128,0,45204:0:0:0:0:
64,192,45292,128,0,45822:0:0:0:0:
448,192,45292,1,0,0:0:0:0:
320,192,45292,1,0,0:0:0:0:
192,192,45469,1,0,0:0:0:0:
320,192,45645,1,0,0:0:0:0:
448,192,45645,1,0,0:0:0:0:
192,192,45822,1,0,0:0:0:0:
192,192,45998,1,0,0:0:0:0:
64,192,46175,1,0,0:0:0:0:
192,192,46175,1,0,0:0:0:0:
448,192,46263,1,0,0:0:0:0:
320,192,46351,1,0,0:0:0:0:
192,192,46351,1,0,0:0:0:0:
64,192,46439,1,0,0:0:0:0:
320,192,46527,1,0,0:0:0:0:
448,192,46527,1,0,0:0:0:0:
192,192,46616,1,0,0:0:0:0:
64,192,46704,1,0,0:0:0:0:
448,192,46704,128,0,46792:0:0:0:0:
448,192,46880,128,0,47233:0:0:0:0:
64,192,46880,1,0,0:0:0:0:
320,192,47057,128,0,47145:0:0:0:0:
64,192,47057,128,0,47145:0:0:0:0:
320,192,47233,128,0,47322:0:0:0:0:
64,192,47233,128,0,47322:0:0:0:0:
64,192,47410,128,0,47498:0:0:0:0:
448,192,47410,1,0,0:0:0:0:
448,192,47586,1,0,0:0:0:0:
64,192,47586,128,0,47939:0:0:0:0:
192,192,47763,128,0,47851:0:0:0:0:
448,192,47763,128,0,47851:0:0:0:0:
192,192,47939,128,0,48027:0:0:0:0:
448,192,47939,128,0,48027:0:0:0:0:
192,192,48116,1,0,0:0:0:0:
320,192,48116,1,0,0:0:0:0:
64,192,48292,1,0,0:0:0:0:
448,192,48292,1,0,0:0:0:0:
320,192,48380,1,0,0:0:0:0:
64,192,48469,1,0,0:0:0:0:
192,192,48469,1,0,0:0:0:0:
448,192,48557,1,0,0:0:0:0:
320,192,48645,1,0,0:0:0:0:
192,192,48733,1,0,0:0:0:0:
64,192,48822,1,0,0:0:0:0:
448,192,48822,1,0,0:0:0:0:
192,192,48998,1,0,0:0:0:0:
320,192,48998,1,0,0:0:0:0:
320,192,49175,1,0,0:0:0:0:
192,192,49175,1,0,0:0:0:0:
64,192,49175,1,0,0:0:0:0:
448,192,49263,1,0,0:0:0:0:
64,192,49351,1,0,0:0:0:0:
192,192,49439,1,0,0:0:0:0:
320,192,49527,1,0,0:0:0:0:
448,192,49527,128,0,50145:0:0:0:0:
192,192,49880,1,0,0:0:0:0:
320,192,49880,1,0,0:0:0:0:
448,192,50233,128,0,50322:0:0:0:0:
320,192,50233,128,0,50322:0:0:0:0:
64,192,50410,1,0,0:0:0:0:
448,192,50410,1,0,0:0:0:0:
320,192,50586,1,0,0:0:0:0:
192,192,50586,1,0,0:0:0:0:
64,192,50675,1,0,0:0:0:0:
448,192,50763,1,0,0:0:0:0:
320,192,50851,1,0,0:0:0:0:
192,192,50939,1,0,0:0:0:0:
64,192,50939,128,0,51557:0:0:0:0:
320,192,51292,1,0,0:0:0:0:
448,192,51292,1,0,0:0:0:0:
64,192,51645,128,0,51733:0:0:0:0:
192,192,51645,128,0,51733:0:0:0:0:
64,192,51822,1,0,0:0:0:0:
448,192,51822,1,0,0:0:0:0:
192,192,51998,1,0,0:0:0:0:
320,192,51998,1,0,0:0:0:0:
192,192,52175,1,0,0:0:0:0:
320,192,52175,1,0,0:0:0:0:
64,192,52351,1,0,0:0:0:0:
192,192,52351,1,0,0:0:0:0:
64,192,52439,1,0,0:0:0:0:
192,192,52439,1,0,0:0:0:0:
64,192,52527,1,0,0:0:0:0:
192,192,52527,1,0,0:0:0:0:
192,192,52616,1,0,0:0:0:0:
64,192,52616,1,0,0:0:0:0:
320,192,52704,1,0,0:0:0:0:
448,192,52704,1,0,0:0:0:0:
320,192,52792,1,0,0:0:0:0:
448,192,52792,1,0,0:0:0:0:
448,192,52880,1,0,0:0:0:0:
320,192,52880,1,0,0:0:0:0:
448,192,52969,1,0,0:0:0:0:
320,192,52969,1,0,0:0:0:0:
320,192,53057,1,0,0:0:0:0:
192,192,53057,1,0,0:0:0:0:
192,192,53145,1,0,0:0:0:0:
320,192,53145,1,0,0:0:0:0:
192,192,53233,1,0,0:0:0:0:
320,192,53233,1,0,0:0:0:0:
320,192,53322,1,0,0:0:0:0:
192,192,53322,1,0,0:0:0:0:
64,192,53410,1,0,0:0:0:0:
448,192,53410,1,0,0:0:0:0:
64,192,53498,1,0,0:0:0:0:
448,192,53498,1,0,0:0:0:0:
64,192,53586,1,0,0:0:0:0:
448,192,53586,1,0,0:0:0:0:
64,192,53675,1,0,0:0:0:0:
448,192,53675,1,0,0:0:0:0:
64,192,53763,128,0,54469:0:0:0:0:
448,192,53763,1,0,0:0:0:0:
192,192,53939,1,0,0:0:0:0:
320,192,53939,1,0,0:0:0:0:
320,192,54116,1,0,0:0:0:0:
448,192,54116,1,0,0:0:0:0:
320,192,54292,1,0,0:0:0:0:
448,192,54292,1,0,0:0:0:0:
192,192,54469,1,0,0:0:0:0:
320,192,54469,1,0,0:0:0:0:
64,192,54645,128,0,54822:0:0:0:0:
320,192,54822,1,0,0:0:0:0:
448,192,54822,1,0,0:0:0:0:
192,192,54822,128,0,54998:0:0:0:0:
320,192,54998,128,0,55175:0:0:0:0:
192,192,55175,1,0,0:0:0:0:
64,192,55175,128,0,55351:0:0:0:0:
448,192,55351,128,0,55527:0:0:0:0:
192,192,55527,1,0,0:0:0:0:
320,192,55527,128,0,55704:0:0:0:0:
64,192,55527,1,0,0:0:0:0:
448,192,55704,128,0,55880:0:0:0:0:
64,192,55880,128,0,56057:0:0:0:0:
192,192,55880,1,0,0:0:0:0:
320,192,56057,128,0,56233:0:0:0:0:
192,192,56233,128,0,56410:0:0:0:0:
64,192,56233,1,0,0:0:0:0:
448,192,56233,1,0,0:0:0:0:
320,192,56410,128,0,56586:0:0:0:0:
192,192,56586,128,0,56763:0:0:0:0:
448,192,56586,1,0,0:0:0:0:
320,192,56763,128,0,56939:0:0:0:0:
192,192,56939,128,0,57116:0:0:0:0:
64,192,56939,1,0,0:0:0:0:
448,192,56939,1,0,0:0:0:0:
64,192,57116,128,0,57292:0:0:0:0:
192,192,57292,1,0,0:0:0:0:
448,192,57292,1,0,0:0:0:0:
192,192,57469,1,0,0:0:0:0:
448,192,57469,1,0,0:0:0:0:
192,192,57645,1,0,0:0:0:0:
448,192,57645,1,0,0:0:0:0:
192,192,57822,1,0,0:0:0:0:
448,192,57822,1,0,0:0:0:0:
192,192,57910,1,0,0:0:0:0:
448,192,57910,1,0,0:0:0:0:
448,192,57998,128,0,58175:0:0:0:0:
64,192,57998,1,0,0:0:0:0:
192,192,58175,1,0,0:0:0:0:
64,192,58175,1,0,0:0:0:0:
320,192,58175,128,0,58351:0:0:0:0:
192,192,58351,128,0,58527:0:0:0:0:
320,192,58527,128,0,58704:0:0:0:0:
64,192,58704,1,0,0:0:0:0:
448,192,58704,128,0,58880:0:0:0:0:
64,192,58880,128,0,59057:0:0:0:0:
448,192,59057,1,0,0:0:0:0:
192,192,59057,128,0,59233:0:0:0:0:
320,192,59057,1,0,0:0:0:0:
448,192,59233,128,0,59410:0:0:0:0:
64,192,59410,1,0,0:0:0:0:
192,192,59410,128,0,59586:0:0:0:0:
320,192,59586,128,0,59763:0:0:0:0:
192,192,59763,128,0,59939:0:0:0:0:
448,192,59763,1,0,0:0:0:0:
64,192,59763,1,0,0:0:0:0:
320,192,59939,128,0,60116:0:0:0:0:
64,192,60116,1,0,0:0:0:0:
448,192,60116,1,0,0:0:0:0:
64,192,60204,1,0,0:0:0:0:
448,192,60204,1,0,0:0:0:0:
448,192,60292,1,0,0:0:0:0:
64,192,60292,1,0,0:0:0:0:
64,192,60469,1,0,0:0:0:0:
448,192,60469,1,0,0:0:0:0:
192,192,60645,1,0,0:0:0:0:
320,192,60645,1,0,0:0:0:0:
192,192,60733,1,0,0:0:0:0:
320,192,60733,1,0,0:0:0:0:
192,192,60822,1,0,0:0:0:0:
320,192,60822,1,0,0:0:0:0:
448,192,60822,128,0,60998:0:0:0:0:
192,192,60998,128,0,61175:0:0:0:0:
64,192,61175,1,0,0:0:0:0:
320,192,61175,1,0,0:0:0:0:
448,192,61175,128,0,61351:0:0:0:0:
192,192,61351,128,0,61527:0:0:0:0:
320,192,61527,128,0,61704:0:0:0:0:
64,192,61527,1,0,0:0:0:0:
448,192,61880,128,0,62057:0:0:0:0:
192,192,61880,1,0,0:0:0:0:
64,192,61880,1,0,0:0:0:0:
192,192,62233,1,0,0:0:0:0:
448,192,62233,128,0,62410:0:0:0:0:
320,192,62410,128,0,62586:0:0:0:0:
192,192,62586,128,0,62763:0:0:0:0:
64,192,62586,1,0,0:0:0:0:
448,192,62586,1,0,0:0:0:0:
64,192,62763,128,0,62939:0:0:0:0:
320,192,62939,1,0,0:0:0:0:
448,192,62939,1,0,0:0:0:0:
320,192,63116,1,0,0:0:0:0:
192,192,63116,1,0,0:0:0:0:
64,192,63292,1,0,0:0:0:0:
192,192,63292,1,0,0:0:0:0:
320,192,63380,1,0,0:0:0:0:
448,192,63469,1,0,0:0:0:0:
64,192,63469,1,0,0:0:0:0:
320,192,63557,1,0,0:0:0:0:
64,192,63645,1,0,0:0:0:0:
192,192,63645,128,0,63822:0:0:0:0:
448,192,63822,128,0,63998:0:0:0:0:
192,192,63998,128,0,64175:0:0:0:0:
64,192,63998,1,0,0:0:0:0:
320,192,63998,1,0,0:0:0:0:
448,192,64175,128,0,64351:0:0:0:0:
64,192,64351,1,0,0:0:0:0:
320,192,64351,1,0,0:0:0:0:
64,192,64439,1,0,0:0:0:0:
320,192,64439,1,0,0:0:0:0:
64,192,64527,1,0,0:0:0:0:
320,192,64527,1,0,0:0:0:0:
192,192,64704,1,0,0:0:0:0:
448,192,64704,1,0,0:0:0:0:
64,192,64704,1,0,0:0:0:0:
320,192,64880,1,0,0:0:0:0:
192,192,65057,1,0,0:0:0:0:
448,192,65057,1,0,0:0:0:0:
192,192,65233,1,0,0:0:0:0:
448,192,65233,1,0,0:0:0:0:
192,192,65410,1,0,0:0:0:0:
448,192,65410,1,0,0:0:0:0:
64,192,65498,1,0,0:0:0:0:
320,192,65498,1,0,0:0:0:0:
64,192,65586,1,0,0:0:0:0:
320,192,65586,1,0,0:0:0:0:
64,192,65675,1,0,0:0:0:0:
320,192,65675,1,0,0:0:0:0:
192,192,65763,1,0,0:0:0:0:
448,192,65763,1,0,0:0:0:0:
64,192,65851,1,0,0:0:0:0:
320,192,65851,1,0,0:0:0:0:
192,192,65939,1,0,0:0:0:0:
448,192,65939,1,0,0:0:0:0:
320,192,66027,1,0,0:0:0:0:
64,192,66027,1,0,0:0:0:0:
448,192,66116,1,0,0:0:0:0:
320,192,66160,1,0,0:0:0:0:
192,192,66204,1,0,0:0:0:0:
64,192,66248,1,0,0:0:0:0:
320,192,66292,1,0,0:0:0:0:
192,192,66336,1,0,0:0:0:0:
448,192,66380,1,0,0:0:0:0:
320,192,66425,1,0,0:0:0:0:
64,192,66469,128,0,66998:0:0:0:0:
192,192,66469,1,0,0:0:0:0:
320,192,66822,1,0,0:0:0:0:
448,192,66822,1,0,0:0:0:0:
192,192,66998,1,0,0:0:0:0:
320,192,67086,1,0,0:0:0:0:
448,192,67175,1,0,0:0:0:0:
64,192,67175,1,0,0:0:0:0:
192,192,67351,1,0,0:0:0:0:
320,192,67527,1,0,0:0:0:0:
448,192,67527,1,0,0:0:0:0:
192,192,67704,1,0,0:0:0:0:
448,192,67880,128,0,67969:0:0:0:0:
64,192,67880,1,0,0:0:0:0:
448,192,68013,1,0,0:0:0:0:
320,192,68057,128,0,68145:0:0:0:0:
192,192,68233,128,0,68322:0:0:0:0:
448,192,68233,1,0,0:0:0:0:
320,192,68233,1,0,0:0:0:0:
64,192,68410,128,0,68498:0:0:0:0:
192,192,68586,128,0,68675:0:0:0:0:
320,192,68586,1,0,0:0:0:0:
448,192,68586,1,0,0:0:0:0:
192,192,68719,1,0,0:0:0:0:
320,192,68763,128,0,68851:0:0:0:0:
320,192,68895,1,0,0:0:0:0:
448,192,68939,128,0,69292:0:0:0:0:
64,192,69292,1,0,0:0:0:0:
320,192,69292,128,0,69645:0:0:0:0:
192,192,69645,1,0,0:0:0:0:
448,192,69645,1,0,0:0:0:0:
64,192,69645,1,0,0:0:0:0:
320,192,69822,1,0,0:0:0:0:
192,192,69910,1,0,0:0:0:0:
320,192,69998,1,0,0:0:0:0:
448,192,69998,128,0,70086:0:0:0:0:
64,192,70175,128,0,70263:0:0:0:0:
448,192,70351,128,0,70439:0:0:0:0:
192,192,70527,128,0,70616:0:0:0:0:
448,192,70704,1,0,0:0:0:0:
64,192,70704,1,0,0:0:0:0:
448,192,70792,1,0,0:0:0:0:
320,192,70880,1,0,0:0:0:0:
320,192,70969,1,0,0:0:0:0:
192,192,71057,1,0,0:0:0:0:
448,192,71057,1,0,0:0:0:0:
64,192,71057,1,0,0:0:0:0:
192,192,71145,1,0,0:0:0:0:
64,192,71233,1,0,0:0:0:0:
64,192,71322,1,0,0:0:0:0:
448,192,71410,1,0,0:0:0:0:
192,192,71586,1,0,0:0:0:0:
64,192,71586,1,0,0:0:0:0:
320,192,71763,128,0,72116:0:0:0:0:
448,192,72116,128,0,72645:0:0:0:0:
64,192,72116,1,0,0:0:0:0:
64,192,72292,1,0,0:0:0:0:
192,192,72469,1,0,0:0:0:0:
320,192,72469,1,0,0:0:0:0:
64,192,72645,1,0,0:0:0:0:
320,192,72733,1,0,0:0:0:0:
192,192,72822,128,0,72910:0:0:0:0:
320,192,72910,128,0,72998:0:0:0:0:
64,192,72998,128,0,73086:0:0:0:0:
448,192,73086,128,0,73175:0:0:0:0:
192,192,73175,128,0,73263:0:0:0:0:
320,192,73263,128,0,73351:0:0:0:0:
64,192,73351,128,0,73439:0:0:0:0:
448,192,73439,128,0,73527:0:0:0:0:
192,192,73527,1,0,0:0:0:0:
64,192,73527,128,0,73616:0:0:0:0:
320,192,73704,128,0,73792:0:0:0:0:
448,192,73792,128,0,73880:0:0:0:0:
192,192,73880,128,0,73969:0:0:0:0:
320,192,73880,1,0,0:0:0:0:
320,192,74057,128,0,74145:0:0:0:0:
192,192,74233,128,0,74322:0:0:0:0:
448,192,74233,1,0,0:0:0:0:
448,192,74410,128,0,74498:0:0:0:0:
320,192,74498,1,0,0:0:0:0:
192,192,74586,128,0,74939:0:0:0:0:
64,192,74939,128,0,75292:0:0:0:0:
448,192,74939,1,0,0:0:0:0:
320,192,75292,1,0,0:0:0:0:
448,192,75292,1,0,0:0:0:0:
192,192,75292,1,0,0:0:0:0:
64,192,75469,1,0,0:0:0:0:
320,192,75557,1,0,0:0:0:0:
64,192,75645,1,0,0:0:0:0:
448,192,75645,128,0,75822:0:0:0:0:
64,192,75822,1,0,0:0:0:0:
192,192,75822,1,0,0:0:0:0:
320,192,75998,1,0,0:0:0:0:
64,192,75998,1,0,0:0:0:0:
448,192,75998,128,0,76175:0:0:0:0:
192,192,76175,1,0,0:0:0:0:
320,192,76175,1,0,0:0:0:0:
64,192,76351,128,0,76439:0:0:0:0:
192,192,76439,128,0,76527:0:0:0:0:
320,192,76527,1,0,0:0:0:0:
448,192,76527,128,0,76704:0:0:0:0:
64,192,76704,128,0,76792:0:0:0:0:
320,192,76704,1,0,0:0:0:0:
192,192,76792,128,0,76880:0:0:0:0:
320,192,76880,128,0,76969:0:0:0:0:
64,192,76880,1,0,0:0:0:0:
448,192,76969,128,0,77057:0:0:0:0:
320,192,77057,128,0,77145:0:0:0:0:
64,192,77057,1,0,0:0:0:0:
192,192,77145,128,0,77233:0:0:0:0:
64,192,77233,128,0,77322:0:0:0:0:
448,192,77233,1,0,0:0:0:0:
448,192,77410,1,0,0:0:0:0:
64,192,77410,1,0,0:0:0:0:
192,192,77410,128,0,77498:0:0:0:0:
320,192,77498,128,0,77586:0:0:0:0:
192,192,77586,128,0,77675:0:0:0:0:
320,192,77675,128,0,77763:0:0:0:0:
448,192,77763,1,0,0:0:0:0:
64,192,77763,1,0,0:0:0:0:
192,192,77851,1,0,0:0:0:0:
320,192,77939,1,0,0:0:0:0:
64,192,78027,1,0,0:0:0:0:
448,192,78116,1,0,0:0:0:0:
192,192,78204,1,0,0:0:0:0:
320,192,78292,1,0,0:0:0:0:
64,192,78380,1,0,0:0:0:0:
448,192,78469,1,0,0:0:0:0:
192,192,78557,1,0,0:0:0:0:
320,192,78645,1,0,0:0:0:0:
64,192,78733,1,0,0:0:0:0:
448,192,78822,1,0,0:0:0:0:
192,192,78910,1,0,0:0:0:0:
320,192,78998,1,0,0:0:0:0:
64,192,79086,1,0,0:0:0:0:
320,192,79175,1,0,0:0:0:0:
448,192,79175,1,0,0:0:0:0:
192,192,79263,1,0,0:0:0:0:
448,192,79351,1,0,0:0:0:0:
64,192,79439,1,0,0:0:0:0:
320,192,79527,1,0,0:0:0:0:
192,192,79616,1,0,0:0:0:0:
448,192,79704,1,0,0:0:0:0:
64,192,79792,1,0,0:0:0:0:
320,192,79880,1,0,0:0:0:0:
192,192,79969,1,0,0:0:0:0:
448,192,80057,1,0,0:0:0:0:
64,192,80145,1,0,0:0:0:0:
320,192,80233,1,0,0:0:0:0:
192,192,80322,1,0,0:0:0:0:
448,192,80410,1,0,0:0:0:0:
320,192,80498,1,0,0:0:0:0:
192,192,80586,1,0,0:0:0:0:
448,192,80586,1,0,0:0:0:0:
64,192,80675,1,0,0:0:0:0:
320,192,80763,1,0,0:0:0:0:
192,192,80851,1,0,0:0:0:0:
448,192,80939,1,0,0:0:0:0:
64,192,81027,1,0,0:0:0:0:
320,192,81116,1,0,0:0:0:0:
192,192,81204,1,0,0:0:0:0:
448,192,81292,1,0,0:0:0:0:
64,192,81380,1,0,0:0:0:0:
320,192,81469,1,0,0:0:0:0:
192,192,81557,1,0,0:0:0:0:
448,192,81645,1,0,0:0:0:0:
64,192,81733,1,0,0:0:0:0:
320,192,81822,1,0,0:0:0:0:
192,192,81910,1,0,0:0:0:0:
448,192,81998,1,0,0:0:0:0:
64,192,81998,1,0,0:0:0:0:
192,192,82086,1,0,0:0:0:0:
448,192,82175,1,0,0:0:0:0:
192,192,82263,1,0,0:0:0:0:
448,192,82351,1,0,0:0:0:0:
320,192,82439,1,0,0:0:0:0:
192,192,82527,1,0,0:0:0:0:
64,192,82616,1,0,0:0:0:0:
320,192,82704,1,0,0:0:0:0:
64,192,82792,1,0,0:0:0:0:
320,192,82880,1,0,0:0:0:0:
64,192,82969,1,0,0:0:0:0:
448,192,83057,1,0,0:0:0:0:
320,192,83145,1,0,0:0:0:0:
192,192,83233,1,0,0:0:0:0:
64,192,83322,1,0,0:0:0:0:
192,192,83410,1,0,0:0:0:0:
320,192,83410,1,0,0:0:0:0:
448,192,83498,1,0,0:0:0:0:
64,192,83586,1,0,0:0:0:0:
320,192,83675,1,0,0:0:0:0:
192,192,83763,1,0,0:0:0:0:
448,192,83851,1,0,0:0:0:0:
64,192,83939,1,0,0:0:0:0:
320,192,84027,1,0,0:0:0:0:
192,192,84116,1,0,0:0:0:0:
448,192,84204,1,0,0:0:0:0:
64,192,84292,1,0,0:0:0:0:
320,192,84380,1,0,0:0:0:0:
192,192,84469,1,0,0:0:0:0:
448,192,84557,1,0,0:0:0:0:
320,192,84645,1,0,0:0:0:0:
192,192,84733,1,0,0:0:0:0:
64,192,84822,1,0,0:0:0:0:
448,192,84822,1,0,0:0:0:0:
320,192,84910,1,0,0:0:0:0:
192,192,84998,1,0,0:0:0:0:
448,192,85086,1,0,0:0:0:0:
64,192,85175,1,0,0:0:0:0:
320,192,85263,1,0,0:0:0:0:
192,192,85351,1,0,0:0:0:0:
448,192,85439,1,0,0:0:0:0:
64,192,85527,1,0,0:0:0:0:
320,192,85616,1,0,0:0:0:0:
192,192,85704,1,0,0:0:0:0:
448,192,85792,1,0,0:0:0:0:
64,192,85880,1,0,0:0:0:0:
320,192,85969,1,0,0:0:0:0:
192,192,86057,1,0,0:0:0:0:
448,192,86145,1,0,0:0:0:0:
64,192,86233,1,0,0:0:0:0:
192,192,86233,1,0,0:0:0:0:
320,192,86322,1,0,0:0:0:0:
64,192,86410,1,0,0:0:0:0:
320,192,86498,1,0,0:0:0:0:
64,192,86586,1,0,0:0:0:0:
192,192,86675,1,0,0:0:0:0:
320,192,86763,1,0,0:0:0:0:
448,192,86851,1,0,0:0:0:0:
64,192,86939,1,0,0:0:0:0:
320,192,87027,1,0,0:0:0:0:
64,192,87116,1,0,0:0:0:0:
320,192,87204,1,0,0:0:0:0:
64,192,87292,1,0,0:0:0:0:
192,192,87380,1,0,0:0:0:0:
320,192,87469,1,0,0:0:0:0:
448,192,87557,1,0,0:0:0:0:
64,192,87645,128,0,87910:0:0:0:0:
192,192,87645,128,0,87910:0:0:0:0:
64,192,87998,128,0,88086:0:0:0:0:
192,192,87998,128,0,88086:0:0:0:0:
320,192,87998,1,0,0:0:0:0:
448,192,87998,1,0,0:0:0:0:
320,192,88175,1,0,0:0:0:0:
64,192,88175,128,0,88263:0:0:0:0:
192,192,88175,128,0,88263:0:0:0:0:
448,192,88175,1,0,0:0:0:0:
320,192,88351,128,0,88439:0:0:0:0:
448,192,88351,128,0,88439:0:0:0:0:
64,192,88351,1,0,0:0:0:0:
192,192,88351,1,0,0:0:0:0:
192,192,88880,1,0,0:0:0:0:
320,192,89057,1,0,0:0:0:0:
448,192,89057,1,0,0:0:0:0:
64,192,89939,128,0,90027:0:0:0:0:
320,192,89939,1,0,0:0:0:0:
192,192,90116,128,0,90204:0:0:0:0:
448,192,90116,1,0,0:0:0:0:
320,192,90292,128,0,90380:0:0:0:0:
192,192,90292,1,0,0:0:0:0:
64,192,90469,1,0,0:0:0:0:
448,192,90469,128,0,90822:0:0:0:0:
320,192,90469,1,0,0:0:0:0:
192,192,90822,1,0,0:0:0:0:
320,192,90822,1,0,0:0:0:0:
192,192,90998,128,0,91086:0:0:0:0:
64,192,91175,128,0,91527:0:0:0:0:
448,192,91175,1,0,0:0:0:0:
192,192,91351,1,0,0:0:0:0:
320,192,91351,1,0,0:0:0:0:
320,192,91527,1,0,0:0:0:0:
448,192,91527,1,0,0:0:0:0:
320,192,91704,128,0,91792:0:0:0:0:
64,192,91880,1,0,0:0:0:0:
320,192,91880,1,0,0:0:0:0:
64,192,92057,1,0,0:0:0:0:
320,192,92057,1,0,0:0:0:0:
64,192,92410,1,0,0:0:0:0:
320,192,92410,1,0,0:0:0:0:
64,192,92763,1,0,0:0:0:0:
320,192,92763,1,0,0:0:0:0:
64,192,92939,1,0,0:0:0:0:
320,192,92939,1,0,0:0:0:0:
448,192,93027,1,0,0:0:0:0:
64,192,93116,1,0,0:0:0:0:
192,192,93204,1,0,0:0:0:0:
320,192,93292,1,0,0:0:0:0:
448,192,93292,128,0,93469:0:0:0:0:
64,192,93469,128,0,93645:0:0:0:0:
448,192,93645,128,0,93822:0:0:0:0:
192,192,93645,1,0,0:0:0:0:
320,192,93645,1,0,0:0:0:0:
320,192,93822,128,0,93998:0:0:0:0:
64,192,93822,1,0,0:0:0:0:
192,192,93998,128,0,94175:0:0:0:0:
448,192,94175,1,0,0:0:0:0:
320,192,94175,1,0,0:0:0:0:
320,192,94351,1,0,0:0:0:0:
192,192,94351,128,0,94527:0:0:0:0:
64,192,94351,1,0,0:0:0:0:
448,192,94527,1,0,0:0:0:0:
64,192,94527,1,0,0:0:0:0:
448,192,94704,1,0,0:0:0:0:
64,192,94704,1,0,0:0:0:0:
64,192,94792,1,0,0:0:0:0:
448,192,94792,1,0,0:0:0:0:
64,192,94880,1,0,0:0:0:0:
448,192,94880,1,0,0:0:0:0:
64,192,94969,1,0,0:0:0:0:
448,192,94969,1,0,0:0:0:0:
64,192,95057,1,0,0:0:0:0:
448,192,95057,1,0,0:0:0:0:
64,192,95145,1,0,0:0:0:0:
448,192,95145,1,0,0:0:0:0:
192,192,95233,1,0,0:0:0:0:
320,192,95233,1,0,0:0:0:0:
448,192,95586,1,0,0:0:0:0:
64,192,95586,1,0,0:0:0:0:
192,192,95763,128,0,95851:0:0:0:0:
448,192,95763,1,0,0:0:0:0:
64,192,95763,1,0,0:0:0:0:
320,192,95851,128,0,95939:0:0:0:0:
192,192,95939,128,0,96027:0:0:0:0:
320,192,96027,128,0,96116:0:0:0:0:
64,192,96116,1,0,0:0:0:0:
448,192,96116,1,0,0:0:0:0:
64,192,96292,1,0,0:0:0:0:
448,192,96292,1,0,0:0:0:0:
192,192,96645,1,0,0:0:0:0:
320,192,96645,1,0,0:0:0:0:
64,192,96998,1,0,0:0:0:0:
448,192,97175,1,0,0:0:0:0:
64,192,97175,1,0,0:0:0:0:
320,192,97175,128,0,97263:0:0:0:0:
192,192,97263,128,0,97351:0:0:0:0:
320,192,97351,128,0,97439:0:0:0:0:
192,192,97439,128,0,97527:0:0:0:0:
64,192,97527,1,0,0:0:0:0:
448,192,97527,1,0,0:0:0:0:
64,192,97704,1,0,0:0:0:0:
448,192,97704,1,0,0:0:0:0:
192,192,98057,1,0,0:0:0:0:
320,192,98057,1,0,0:0:0:0:
64,192,98410,1,0,0:0:0:0:
64,192,98586,128,0,98763:0:0:0:0:
320,192,98586,1,0,0:0:0:0:
448,192,98586,1,0,0:0:0:0:
192,192,98763,128,0,98939:0:0:0:0:
320,192,98939,1,0,0:0:0:0:
64,192,98939,1,0,0:0:0:0:
64,192,99116,1,0,0:0:0:0:
320,192,99116,1,0,0:0:0:0:
64,192,99292,1,0,0:0:0:0:
320,192,99292,1,0,0:0:0:0:
192,192,99469,1,0,0:0:0:0:
192,192,99557,1,0,0:0:0:0:
320,192,99645,1,0,0:0:0:0:
192,192,99822,1,0,0:0:0:0:
448,192,99822,1,0,0:0:0:0:
64,192,99998,1,0,0:0:0:0:
320,192,99998,1,0,0:0:0:0:
192,192,100175,1,0,0:0:0:0:
448,192,100175,1,0,0:0:0:0:
64,192,100351,1,0,0:0:0:0:
320,192,100351,1,0,0:0:0:0:
320,192,100439,1,0,0:0:0:0:
64,192,100439,1,0,0:0:0:0:
192,192,100527,1,0,0:0:0:0:
448,192,100527,1,0,0:0:0:0:
64,192,100704,1,0,0:0:0:0:
320,192,100704,1,0,0:0:0:0:
64,192,100792,1,0,0:0:0:0:
320,192,100792,1,0,0:0:0:0:
192,192,100880,1,0,0:0:0:0:
448,192,100880,1,0,0:0:0:0:
64,192,101057,1,0,0:0:0:0:
320,192,101057,1,0,0:0:0:0:
64,192,101145,1,0,0:0:0:0:
320,192,101145,1,0,0:0:0:0:
448,192,101233,128,0,101322:0:0:0:0:
320,192,101233,128,0,101322:0:0:0:0:
192,192,101410,128,0,101498:0:0:0:0:
64,192,101410,128,0,101498:0:0:0:0:
320,192,101410,1,0,0:0:0:0:
448,192,101410,1,0,0:0:0:0:
320,192,101586,128,0,101675:0:0:0:0:
448,192,101586,128,0,101675:0:0:0:0:
192,192,101675,1,0,0:0:0:0:
64,192,101675,1,0,0:0:0:0:
320,192,101763,128,0,102116:0:0:0:0:
448,192,101763,128,0,102116:0:0:0:0:
192,192,102116,1,0,0:0:0:0:
64,192,102116,1,0,0:0:0:0:
320,192,102292,128,0,102380:0:0:0:0:
448,192,102292,128,0,102380:0:0:0:0:
320,192,102469,128,0,102557:0:0:0:0:
192,192,102469,128,0,102557:0:0:0:0:
64,192,102645,1,0,0:0:0:0:
448,192,102645,1,0,0:0:0:0:
192,192,102822,1,0,0:0:0:0:
64,192,102822,1,0,0:0:0:0:
320,192,102822,128,0,102910:0:0:0:0:
448,192,102822,128,0,102910:0:0:0:0:
192,192,102998,128,0,103086:0:0:0:0:
64,192,102998,128,0,103086:0:0:0:0:
320,192,103175,1,0,0:0:0:0:
448,192,103175,1,0,0:0:0:0:
320,192,103351,1,0,0:0:0:0:
448,192,103351,1,0,0:0:0:0:
320,192,103704,1,0,0:0:0:0:
448,192,103704,1,0,0:0:0:0:
64,192,104057,1,0,0:0:0:0:
448,192,104057,1,0,0:0:0:0:
192,192,104145,1,0,0:0:0:0:
320,192,104233,1,0,0:0:0:0:
448,192,104233,1,0,0:0:0:0:
192,192,104322,1,0,0:0:0:0:
320,192,104410,1,0,0:0:0:0:
448,192,104498,1,0,0:0:0:0:
64,192,104586,1,0,0:0:0:0:
192,192,104586,1,0,0:0:0:0:
64,192,104675,1,0,0:0:0:0:
192,192,104675,1,0,0:0:0:0:
64,192,104851,1,0,0:0:0:0:
192,192,104851,1,0,0:0:0:0:
64,192,104939,1,0,0:0:0:0:
192,192,104939,1,0,0:0:0:0:
64,192,105116,1,0,0:0:0:0:
192,192,105116,1,0,0:0:0:0:
64,192,105204,1,0,0:0:0:0:
192,192,105204,1,0,0:0:0:0:
64,192,105380,1,0,0:0:0:0:
192,192,105380,1,0,0:0:0:0:
64,192,105469,1,0,0:0:0:0:
192,192,105469,1,0,0:0:0:0:
320,192,105645,1,0,0:0:0:0:
448,192,105645,1,0,0:0:0:0:
320,192,105733,1,0,0:0:0:0:
448,192,105733,1,0,0:0:0:0:
320,192,105822,1,0,0:0:0:0:
448,192,105822,1,0,0:0:0:0:
320,192,105910,1,0,0:0:0:0:
448,192,105910,1,0,0:0:0:0:
320,192,105998,1,0,0:0:0:0:
448,192,105998,128,0,106704:0:0:0:0:
192,192,106175,1,0,0:0:0:0:
64,192,106175,1,0,0:0:0:0:
192,192,106351,1,0,0:0:0:0:
320,192,106351,1,0,0:0:0:0:
320,192,106527,1,0,0:0:0:0:
192,192,106704,1,0,0:0:0:0:
448,192,106880,128,0,107057:0:0:0:0:
64,192,106880,1,0,0:0:0:0:
64,192,107057,1,0,0:0:0:0:
320,192,107057,1,0,0:0:0:0:
192,192,107145,1,0,0:0:0:0:
320,192,107233,1,0,0:0:0:0:
192,192,107322,1,0,0:0:0:0:
64,192,107410,1,0,0:0:0:0:
448,192,107410,1,0,0:0:0:0:
64,192,107586,1,0,0:0:0:0:
448,192,107586,1,0,0:0:0:0:
192,192,107939,1,0,0:0:0:0:
320,192,107939,1,0,0:0:0:0:
448,192,108292,1,0,0:0:0:0:
64,192,108469,1,0,0:0:0:0:
448,192,108469,1,0,0:0:0:0:
320,192,108469,1,0,0:0:0:0:
192,192,108557,1,0,0:0:0:0:
320,192,108645,1,0,0:0:0:0:
192,192,108733,1,0,0:0:0:0:
64,192,108822,1,0,0:0:0:0:
448,192,108822,1,0,0:0:0:0:
64,192,108998,1,0,0:0:0:0:
448,192,108998,1,0,0:0:0:0:
192,192,109351,1,0,0:0:0:0:
320,192,109351,1,0,0:0:0:0:
448,192,109704,128,0,109792:0:0:0:0:
320,192,109704,128,0,109792:0:0:0:0:
320,192,109880,128,0,109969:0:0:0:0:
448,192,109880,128,0,109969:0:0:0:0:
64,192,109880,1,0,0:0:0:0:
192,192,109880,1,0,0:0:0:0:
192,192,110057,128,0,110145:0:0:0:0:
64,192,110057,128,0,110145:0:0:0:0:
320,192,110233,1,0,0:0:0:0:
448,192,110233,1,0,0:0:0:0:
320,192,110410,1,0,0:0:0:0:
448,192,110410,1,0,0:0:0:0:
320,192,110586,1,0,0:0:0:0:
448,192,110586,1,0,0:0:0:0:
192,192,110763,1,0,0:0:0:0:
320,192,110763,1,0,0:0:0:0:
192,192,110851,1,0,0:0:0:0:
320,192,110851,1,0,0:0:0:0:
64,192,110939,1,0,0:0:0:0:
192,192,110939,1,0,0:0:0:0:
64,192,111116,1,0,0:0:0:0:
192,192,111116,1,0,0:0:0:0:
192,192,111292,1,0,0:0:0:0:
320,192,111292,1,0,0:0:0:0:
192,192,111380,1,0,0:0:0:0:
320,192,111380,1,0,0:0:0:0:
64,192,111469,1,0,0:0:0:0:
448,192,111469,1,0,0:0:0:0:
64,192,111557,1,0,0:0:0:0:
448,192,111557,1,0,0:0:0:0:
192,192,111645,1,0,0:0:0:0:
320,192,111645,1,0,0:0:0:0:
64,192,111822,1,0,0:0:0:0:
192,192,111822,1,0,0:0:0:0:
64,192,111910,1,0,0:0:0:0:
192,192,111910,1,0,0:0:0:0:
320,192,111998,1,0,0:0:0:0:
448,192,111998,1,0,0:0:0:0:
320,192,112086,1,0,0:0:0:0:
448,192,112086,1,0,0:0:0:0:
192,192,112175,1,0,0:0:0:0:
64,192,112175,1,0,0:0:0:0:
192,192,112263,1,0,0:0:0:0:
64,192,112263,1,0,0:0:0:0:
320,192,112351,1,0,0:0:0:0:
448,192,112351,1,0,0:0:0:0:
448,192,112439,1,0,0:0:0:0:
320,192,112439,1,0,0:0:0:0:
192,192,112527,1,0,0:0:0:0:
64,192,112527,1,0,0:0:0:0:
64,192,112616,1,0,0:0:0:0:
192,192,112616,1,0,0:0:0:0:
320,192,112704,1,0,0:0:0:0:
448,192,112704,1,0,0:0:0:0:
192,192,112792,1,0,0:0:0:0:
64,192,112880,1,0,0:0:0:0:
448,192,112880,1,0,0:0:0:0:
320,192,112969,1,0,0:0:0:0:
192,192,113057,1,0,0:0:0:0:
64,192,113057,128,0,113675:0:0:0:0:
320,192,113233,1,0,0:0:0:0:
320,192,113410,1,0,0:0:0:0:
448,192,113410,1,0,0:0:0:0:
448,192,113586,1,0,0:0:0:0:
64,192,113763,128,0,113851:0:0:0:0:
192,192,113939,1,0,0:0:0:0:
448,192,114116,1,0,0:0:0:0:
64,192,114116,1,0,0:0:0:0:
320,192,114116,1,0,0:0:0:0:
192,192,114204,1,0,0:0:0:0:
320,192,114292,1,0,0:0:0:0:
192,192,114380,1,0,0:0:0:0:
64,192,114469,1,0,0:0:0:0:
448,192,114469,128,0,115086:0:0:0:0:
192,192,114645,1,0,0:0:0:0:
192,192,114822,1,0,0:0:0:0:
320,192,114822,1,0,0:0:0:0:
320,192,114998,1,0,0:0:0:0:
448,192,115175,128,0,115263:0:0:0:0:
64,192,115351,1,0,0:0:0:0:
192,192,115351,1,0,0:0:0:0:
320,192,115527,1,0,0:0:0:0:
448,192,115527,128,0,115616:0:0:0:0:
192,192,115527,1,0,0:0:0:0:
320,192,115704,128,0,115792:0:0:0:0:
448,192,115880,1,0,0:0:0:0:
192,192,115880,128,0,116145:0:0:0:0:
192,192,116233,128,0,116322:0:0:0:0:
320,192,116233,1,0,0:0:0:0:
448,192,116233,1,0,0:0:0:0:
192,192,116410,128,0,116498:0:0:0:0:
320,192,116586,128,0,116851:0:0:0:0:
64,192,116763,1,0,0:0:0:0:
448,192,116763,1,0,0:0:0:0:
192,192,116939,128,0,117027:0:0:0:0:
320,192,116939,1,0,0:0:0:0:
448,192,116939,1,0,0:0:0:0:
320,192,117116,128,0,117204:0:0:0:0:
64,192,117292,128,0,117645:0:0:0:0:
64,192,117866,1,0,0:0:0:0:
192,192,117910,1,0,0:0:0:0:
320,192,117954,1,0,0:0:0:0:
448,192,117998,1,0,0:0:0:0:
192,192,118042,1,0,0:0:0:0:
64,192,118086,1,0,0:0:0:0:
448,192,118130,1,0,0:0:0:0:
320,192,118175,1,0,0:0:0:0:
192,192,118219,1,0,0:0:0:0:
64,192,118263,1,0,0:0:0:0:
320,192,118307,1,0,0:0:0:0:
448,192,118351,1,0,0:0:0:0:
64,192,118395,1,0,0:0:0:0:
192,192,118439,1,0,0:0:0:0:
320,192,118483,1,0,0:0:0:0:
448,192,118527,1,0,0:0:0:0:
192,192,118572,1,0,0:0:0:0:
64,192,118616,1,0,0:0:0:0:
448,192,118660,1,0,0:0:0:0:
320,192,118704,1,0,0:0:0:0:
192,192,118704,1,0,0:0:0:0:
320,192,119057,1,0,0:0:0:0:
192,192,119057,1,0,0:0:0:0:
320,192,119410,1,0,0:0:0:0:
192,192,119410,1,0,0:0:0:0:
192,192,119763,1,0,0:0:0:0:
320,192,119763,1,0,0:0:0:0:
192,192,120116,1,0,0:0:0:0:
448,192,120116,1,0,0:0:0:0:
192,192,120292,1,0,0:0:0:0:
448,192,120292,1,0,0:0:0:0:
192,192,120469,1,0,0:0:0:0:
448,192,120469,1,0,0:0:0:0:
192,192,120645,1,0,0:0:0:0:
448,192,120645,1,0,0:0:0:0:
192,192,120822,1,0,0:0:0:0:
448,192,120822,1,0,0:0:0:0:
192,192,120998,1,0,0:0:0:0:
448,192,120998,1,0,0:0:0:0:
192,192,121175,1,0,0:0:0:0:
448,192,121175,1,0,0:0:0:0:
192,192,121351,1,0,0:0:0:0:
448,192,121351,1,0,0:0:0:0:
64,192,121527,1,0,0:0:0:0:
320,192,121527,1,0,0:0:0:0:
64,192,121616,1,0,0:0:0:0:
320,192,121616,1,0,0:0:0:0:
64,192,121704,1,0,0:0:0:0:
320,192,121704,1,0,0:0:0:0:
64,192,121792,1,0,0:0:0:0:
320,192,121792,1,0,0:0:0:0:
64,192,121880,1,0,0:0:0:0:
320,192,121880,1,0,0:0:0:0:
64,192,121969,1,0,0:0:0:0:
320,192,121969,1,0,0:0:0:0:
64,192,122057,1,0,0:0:0:0:
320,192,122057,1,0,0:0:0:0:
64,192,122145,1,0,0:0:0:0:
320,192,122145,1,0,0:0:0:0:
448,192,122233,1,0,0:0:0:0:
192,192,122233,1,0,0:0:0:0:
448,192,122322,1,0,0:0:0:0:
192,192,122322,1,0,0:0:0:0:
448,192,122410,1,0,0:0:0:0:
192,192,122410,1,0,0:0:0:0:
448,192,122498,1,0,0:0:0:0:
192,192,122498,1,0,0:0:0:0:
320,192,122586,1,0,0:0:0:0:
64,192,122586,1,0,0:0:0:0:
320,192,122675,1,0,0:0:0:0:
64,192,122675,1,0,0:0:0:0:
320,192,122763,1,0,0:0:0:0:
64,192,122763,1,0,0:0:0:0:
320,192,122851,1,0,0:0:0:0:
64,192,122851,1,0,0:0:0:0:
192,192,122939,1,0,0:0:0:0:
448,192,122939,1,0,0:0:0:0:
192,192,123204,1,0,0:0:0:0:
448,192,123204,1,0,0:0:0:0:
192,192,123469,1,0,0:0:0:0:
448,192,123469,1,0,0:0:0:0:
64,192,123645,1,0,0:0:0:0:
320,192,123645,1,0,0:0:0:0:
64,192,123822,128,0,123998:0:0:0:0:
192,192,123998,128,0,124175:0:0:0:0:
448,192,123998,1,0,0:0:0:0:
320,192,124175,128,0,124351:0:0:0:0:
448,192,124351,128,0,124704:0:0:0:0:
64,192,124351,1,0,0:0:0:0:
192,192,124527,1,0,0:0:0:0:
320,192,124704,1,0,0:0:0:0:
64,192,124704,1,0,0:0:0:0:
192,192,124880,128,0,124969:0:0:0:0:
64,192,125057,128,0,125410:0:0:0:0:
448,192,125057,1,0,0:0:0:0:
320,192,125233,1,0,0:0:0:0:
192,192,125410,1,0,0:0:0:0:
448,192,125410,1,0,0:0:0:0:
320,192,125586,128,0,125675:0:0:0:0:
448,192,125763,128,0,126469:0:0:0:0:
64,192,125763,1,0,0:0:0:0:
192,192,125939,1,0,0:0:0:0:
320,192,126116,1,0,0:0:0:0:
64,192,126116,1,0,0:0:0:0:
192,192,126292,1,0,0:0:0:0:
320,192,126469,1,0,0:0:0:0:
64,192,126469,1,0,0:0:0:0:
192,192,126645,1,0,0:0:0:0:
64,192,126733,1,0,0:0:0:0:
320,192,126822,1,0,0:0:0:0:
192,192,126910,1,0,0:0:0:0:
448,192,126998,1,0,0:0:0:0:
320,192,127086,1,0,0:0:0:0:
64,192,127175,1,0,0:0:0:0:
192,192,127175,1,0,0:0:0:0:
320,192,127351,1,0,0:0:0:0:
448,192,127351,1,0,0:0:0:0:
64,192,127527,1,0,0:0:0:0:
192,192,127527,1,0,0:0:0:0:
320,192,127704,1,0,0:0:0:0:
448,192,127704,1,0,0:0:0:0:
64,192,127880,1,0,0:0:0:0:
320,192,127880,1,0,0:0:0:0:
64,192,127969,1,0,0:0:0:0:
320,192,127969,1,0,0:0:0:0:
64,192,128057,1,0,0:0:0:0:
320,192,128057,1,0,0:0:0:0:
64,192,128145,1,0,0:0:0:0:
320,192,128145,1,0,0:0:0:0:
64,192,128233,1,0,0:0:0:0:
320,192,128233,1,0,0:0:0:0:
64,192,128322,1,0,0:0:0:0:
320,192,128322,1,0,0:0:0:0:
64,192,128410,1,0,0:0:0:0:
320,192,128410,1,0,0:0:0:0:
64,192,128498,1,0,0:0:0:0:
320,192,128498,1,0,0:0:0:0:
192,192,128586,1,0,0:0:0:0:
448,192,128586,128,0,129292:0:0:0:0:
320,192,128763,1,0,0:0:0:0:
64,192,128939,1,0,0:0:0:0:
192,192,128939,1,0,0:0:0:0:
320,192,129116,1,0,0:0:0:0:
64,192,129292,1,0,0:0:0:0:
192,192,129292,1,0,0:0:0:0:
320,192,129469,1,0,0:0:0:0:
448,192,129645,128,0,129733:0:0:0:0:
64,192,129645,1,0,0:0:0:0:
192,192,129822,128,0,129910:0:0:0:0:
64,192,129998,128,0,130351:0:0:0:0:
448,192,129998,1,0,0:0:0:0:
320,192,130175,1,0,0:0:0:0:
192,192,130351,1,0,0:0:0:0:
448,192,130351,1,0,0:0:0:0:
192,192,130527,1,0,0:0:0:0:
448,192,130527,1,0,0:0:0:0:
64,192,130704,128,0,131057:0:0:0:0:
320,192,130704,1,0,0:0:0:0:
192,192,130880,1,0,0:0:0:0:
320,192,131057,128,0,131145:0:0:0:0:
448,192,131057,1,0,0:0:0:0:
192,192,131233,128,0,131322:0:0:0:0:
448,192,131410,128,0,131763:0:0:0:0:
64,192,131410,1,0,0:0:0:0:
192,192,131586,1,0,0:0:0:0:
320,192,131763,1,0,0:0:0:0:
64,192,131763,1,0,0:0:0:0:
64,192,131939,1,0,0:0:0:0:
320,192,131939,1,0,0:0:0:0:
448,192,132116,128,0,132469:0:0:0:0:
192,192,132116,1,0,0:0:0:0:
320,192,132292,1,0,0:0:0:0:
192,192,132469,1,0,0:0:0:0:
64,192,132469,128,0,132557:0:0:0:0:
320,192,132645,128,0,132733:0:0:0:0:
448,192,132822,128,0,132910:0:0:0:0:
64,192,132822,1,0,0:0:0:0:
64,192,132998,1,0,0:0:0:0:
448,192,132998,128,0,133086:0:0:0:0:
448,192,133175,128,0,133263:0:0:0:0:
64,192,133175,1,0,0:0:0:0:
192,192,133351,1,0,0:0:0:0:
192,192,133439,1,0,0:0:0:0:
320,192,133527,1,0,0:0:0:0:
448,192,133527,1,0,0:0:0:0:
192,192,133704,1,0,0:0:0:0:
192,192,133792,1,0,0:0:0:0:
448,192,133880,1,0,0:0:0:0:
320,192,133925,1,0,0:0:0:0:
192,192,133969,1,0,0:0:0:0:
64,192,134013,1,0,0:0:0:0:
320,192,134057,1,0,0:0:0:0:
448,192,134101,1,0,0:0:0:0:
64,192,134145,1,0,0:0:0:0:
192,192,134189,1,0,0:0:0:0:
320,192,134233,1,0,0:0:0:0:
448,192,134233,1,0,0:0:0:0:
320,192,134322,1,0,0:0:0:0:
448,192,134322,1,0,0:0:0:0:
320,192,134410,1,0,0:0:0:0:
448,192,134410,1,0,0:0:0:0:
320,192,134498,1,0,0:0:0:0:
448,192,134498,1,0,0:0:0:0:
320,192,134586,1,0,0:0:0:0:
448,192,134586,1,0,0:0:0:0:
320,192,134675,1,0,0:0:0:0:
448,192,134675,1,0,0:0:0:0:
320,192,134763,1,0,0:0:0:0:
448,192,134763,1,0,0:0:0:0:
320,192,134851,1,0,0:0:0:0:
448,192,134851,1,0,0:0:0:0:
320,192,134939,1,0,0:0:0:0:
448,192,134939,1,0,0:0:0:0:
64,192,135116,128,0,135204:0:0:0:0:
448,192,135292,1,0,0:0:0:0:
192,192,135292,128,0,135380:0:0:0:0:
320,192,135469,128,0,135557:0:0:0:0:
448,192,135645,128,0,135998:0:0:0:0:
64,192,135645,1,0,0:0:0:0:
192,192,135822,1,0,0:0:0:0:
320,192,135998,1,0,0:0:0:0:
64,192,135998,1,0,0:0:0:0:
448,192,136175,128,0,136263:0:0:0:0:
64,192,136351,128,0,136704:0:0:0:0:
448,192,136351,1,0,0:0:0:0:
320,192,136527,1,0,0:0:0:0:
192,192,136704,1,0,0:0:0:0:
448,192,136704,1,0,0:0:0:0:
64,192,136880,128,0,136969:0:0:0:0:
448,192,137057,128,0,137410:0:0:0:0:
320,192,137057,1,0,0:0:0:0:
192,192,137057,1,0,0:0:0:0:
64,192,137233,1,0,0:0:0:0:
320,192,137410,1,0,0:0:0:0:
192,192,137410,1,0,0:0:0:0:
448,192,137586,1,0,0:0:0:0:
192,192,137763,1,0,0:0:0:0:
320,192,137763,1,0,0:0:0:0:
64,192,137939,1,0,0:0:0:0:
320,192,138116,128,0,138204:0:0:0:0:
448,192,138204,128,0,138292:0:0:0:0:
64,192,138292,128,0,138380:0:0:0:0:
192,192,138380,128,0,138469:0:0:0:0:
64,192,138469,1,0,0:0:0:0:
320,192,138469,1,0,0:0:0:0:
64,192,138645,1,0,0:0:0:0:
320,192,138645,1,0,0:0:0:0:
192,192,138822,1,0,0:0:0:0:
448,192,138822,1,0,0:0:0:0:
192,192,138910,1,0,0:0:0:0:
448,192,138910,1,0,0:0:0:0:
192,192,138998,1,0,0:0:0:0:
448,192,138998,1,0,0:0:0:0:
192,192,139086,1,0,0:0:0:0:
448,192,139086,1,0,0:0:0:0:
64,192,139175,1,0,0:0:0:0:
192,192,139219,1,0,0:0:0:0:
320,192,139263,1,0,0:0:0:0:
448,192,139307,1,0,0:0:0:0:
192,192,139351,1,0,0:0:0:0:
64,192,139395,1,0,0:0:0:0:
448,192,139439,1,0,0:0:0:0:
320,192,139483,1,0,0:0:0:0:
192,192,139527,1,0,0:0:0:0:
64,192,139572,1,0,0:0:0:0:
320,192,139616,1,0,0:0:0:0:
448,192,139660,1,0,0:0:0:0:
64,192,139704,1,0,0:0:0:0:
192,192,139748,1,0,0:0:0:0:
320,192,139792,1,0,0:0:0:0:
448,192,139836,1,0,0:0:0:0:
64,192,139880,128,0,140586:0:0:0:0:
192,192,139880,1,0,0:0:0:0:
320,192,140057,1,0,0:0:0:0:
448,192,140233,1,0,0:0:0:0:
192,192,140233,1,0,0:0:0:0:
320,192,140410,1,0,0:0:0:0:
448,192,140586,1,0,0:0:0:0:
192,192,140586,1,0,0:0:0:0:
64,192,140763,1,0,0:0:0:0:
192,192,140939,128,0,141027:0:0:0:0:
448,192,140939,1,0,0:0:0:0:
320,192,141116,128,0,141204:0:0:0:0:
448,192,141292,128,0,141645:0:0:0:0:
192,192,141292,1,0,0:0:0:0:
64,192,141469,1,0,0:0:0:0:
192,192,141645,1,0,0:0:0:0:
320,192,141645,1,0,0:0:0:0:
192,192,141733,1,0,0:0:0:0:
320,192,141733,1,0,0:0:0:0:
192,192,141822,1,0,0:0:0:0:
320,192,141822,1,0,0:0:0:0:
192,192,141910,1,0,0:0:0:0:
320,192,141910,1,0,0:0:0:0:
64,192,141998,128,0,142351:0:0:0:0:
448,192,141998,1,0,0:0:0:0:
320,192,142175,1,0,0:0:0:0:
192,192,142351,1,0,0:0:0:0:
448,192,142351,128,0,142439:0:0:0:0:
320,192,142527,128,0,142616:0:0:0:0:
64,192,142704,128,0,143057:0:0:0:0:
192,192,142704,1,0,0:0:0:0:
320,192,142704,1,0,0:0:0:0:
448,192,142880,1,0,0:0:0:0:
192,192,143057,1,0,0:0:0:0:
320,192,143057,1,0,0:0:0:0:
192,192,143145,1,0,0:0:0:0:
320,192,143145,1,0,0:0:0:0:
192,192,143233,1,0,0:0:0:0:
320,192,143233,1,0,0:0:0:0:
192,192,143322,1,0,0:0:0:0:
320,192,143322,1,0,0:0:0:0:
448,192,143410,128,0,143763:0:0:0:0:
64,192,143410,1,0,0:0:0:0:
192,192,143586,1,0,0:0:0:0:
64,192,143763,1,0,0:0:0:0:
320,192,143763,128,0,143851:0:0:0:0:
192,192,143939,128,0,144027:0:0:0:0:
320,192,144116,128,0,144469:0:0:0:0:
64,192,144116,1,0,0:0:0:0:
192,192,144292,1,0,0:0:0:0:
448,192,144292,1,0,0:0:0:0:
64,192,144469,1,0,0:0:0:0:
448,192,144469,1,0,0:0:0:0:
320,192,144645,1,0,0:0:0:0:
448,192,144689,1,0,0:0:0:0:
192,192,144733,1,0,0:0:0:0:
320,192,144777,1,0,0:0:0:0:
64,192,144822,128,0,145175:0:0:0:0:
448,192,144822,1,0,0:0:0:0:
192,192,144998,1,0,0:0:0:0:
320,192,144998,1,0,0:0:0:0:
448,192,145175,1,0,0:0:0:0:
320,192,145175,1,0,0:0:0:0:
192,192,145351,1,0,0:0:0:0:
64,192,145395,1,0,0:0:0:0:
320,192,145439,1,0,0:0:0:0:
192,192,145483,1,0,0:0:0:0:
64,192,145527,1,0,0:0:0:0:
448,192,145527,1,0,0:0:0:0:
64,192,145616,1,0,0:0:0:0:
448,192,145616,1,0,0:0:0:0:
64,192,145704,1,0,0:0:0:0:
448,192,145704,1,0,0:0:0:0:
64,192,145792,1,0,0:0:0:0:
448,192,145792,1,0,0:0:0:0:
64,192,145880,1,0,0:0:0:0:
448,192,145880,1,0,0:0:0:0:
64,192,145969,1,0,0:0:0:0:
448,192,145969,1,0,0:0:0:0:
64,192,146057,1,0,0:0:0:0:
448,192,146057,1,0,0:0:0:0:
64,192,146145,1,0,0:0:0:0:
448,192,146145,1,0,0:0:0:0:
64,192,146233,1,0,0:0:0:0:
448,192,146233,1,0,0:0:0:0:
64,192,146322,1,0,0:0:0:0:
448,192,146322,1,0,0:0:0:0:
64,192,146410,1,0,0:0:0:0:
448,192,146410,1,0,0:0:0:0:
64,192,146498,1,0,0:0:0:0:
448,192,146498,1,0,0:0:0:0:
192,192,146586,128,0,146675:0:0:0:0:
64,192,146763,128,0,146851:0:0:0:0:
192,192,146939,1,0,0:0:0:0:
448,192,146939,1,0,0:0:0:0:
192,192,147027,1,0,0:0:0:0:
448,192,147027,1,0,0:0:0:0:
192,192,147204,1,0,0:0:0:0:
448,192,147204,1,0,0:0:0:0:
192,192,147292,1,0,0:0:0:0:
448,192,147292,1,0,0:0:0:0:
192,192,147469,1,0,0:0:0:0:
448,192,147469,1,0,0:0:0:0:
64,192,147645,128,0,147822:0:0:0:0:
320,192,147645,1,0,0:0:0:0:
320,192,147998,128,0,148086:0:0:0:0:
192,192,147998,1,0,0:0:0:0:
448,192,148175,128,0,148263:0:0:0:0:
64,192,148351,1,0,0:0:0:0:
320,192,148351,1,0,0:0:0:0:
64,192,148439,1,0,0:0:0:0:
320,192,148439,1,0,0:0:0:0:
64,192,148616,1,0,0:0:0:0:
320,192,148616,1,0,0:0:0:0:
64,192,148704,1,0,0:0:0:0:
320,192,148704,1,0,0:0:0:0:
64,192,148880,1,0,0:0:0:0:
320,192,148880,1,0,0:0:0:0:
192,192,149057,1,0,0:0:0:0:
448,192,149057,128,0,149410:0:0:0:0:
320,192,149410,1,0,0:0:0:0:
64,192,149410,128,0,149498:0:0:0:0:
192,192,149586,128,0,149675:0:0:0:0:
320,192,149763,1,0,0:0:0:0:
448,192,149763,128,0,150116:0:0:0:0:
192,192,149939,1,0,0:0:0:0:
320,192,149939,1,0,0:0:0:0:
192,192,150116,1,0,0:0:0:0:
320,192,150116,1,0,0:0:0:0:
64,192,150292,1,0,0:0:0:0:
448,192,150292,1,0,0:0:0:0:
64,192,150380,1,0,0:0:0:0:
448,192,150380,1,0,0:0:0:0:
192,192,150469,1,0,0:0:0:0:
320,192,150469,1,0,0:0:0:0:
64,192,150645,1,0,0:0:0:0:
448,192,150645,1,0,0:0:0:0:
192,192,150822,1,0,0:0:0:0:
320,192,150822,1,0,0:0:0:0:
64,192,150998,1,0,0:0:0:0:
448,192,150998,1,0,0:0:0:0:
64,192,151086,1,0,0:0:0:0:
448,192,151086,1,0,0:0:0:0:
192,192,151175,1,0,0:0:0:0:
320,192,151175,1,0,0:0:0:0:
64,192,151351,1,0,0:0:0:0:
448,192,151351,1,0,0:0:0:0:
192,192,151527,1,0,0:0:0:0:
320,192,151527,1,0,0:0:0:0:
64,192,151704,1,0,0:0:0:0:
448,192,151704,1,0,0:0:0:0:
64,192,151792,1,0,0:0:0:0:
448,192,151792,1,0,0:0:0:0:
192,192,151880,1,0,0:0:0:0:
320,192,151880,1,0,0:0:0:0:
192,192,151969,1,0,0:0:0:0:
320,192,151969,1,0,0:0:0:0:
192,192,152057,1,0,0:0:0:0:
320,192,152057,1,0,0:0:0:0:
192,192,152145,1,0,0:0:0:0:
320,192,152145,1,0,0:0:0:0:
192,192,152233,1,0,0:0:0:0:
320,192,152233,1,0,0:0:0:0:
192,192,152322,1,0,0:0:0:0:
320,192,152322,1,0,0:0:0:0:
64,192,152410,128,0,152586:0:0:0:0:
448,192,152410,128,0,152586:0:0:0:0:
192,192,152586,1,0,0:0:0:0:
320,192,152586,1,0,0:0:0:0:
192,192,152763,1,0,0:0:0:0:
320,192,152763,1,0,0:0:0:0:
64,192,152939,1,0,0:0:0:0:
448,192,152939,1,0,0:0:0:0:
64,192,153027,1,0,0:0:0:0:
448,192,153027,1,0,0:0:0:0:
64,192,153116,1,0,0:0:0:0:
448,192,153116,1,0,0:0:0:0:
64,192,153204,1,0,0:0:0:0:
448,192,153204,1,0,0:0:0:0:
64,192,153292,1,0,0:0:0:0:
448,192,153292,1,0,0:0:0:0:
64,192,153380,1,0,0:0:0:0:
448,192,153380,1,0,0:0:0:0:
448,192,153469,1,0,0:0:0:0:
64,192,153469,1,0,0:0:0:0:
64,192,153557,1,0,0:0:0:0:
448,192,153557,1,0,0:0:0:0:
64,192,153645,1,0,0:0:0:0:
448,192,153645,1,0,0:0:0:0:
64,192,153733,1,0,0:0:0:0:
448,192,153733,1,0,0:0:0:0:
64,192,153822,1,0,0:0:0:0:
448,192,153822,1,0,0:0:0:0:
64,192,153910,1,0,0:0:0:0:
448,192,153910,1,0,0:0:0:0:
448,192,153998,1,0,0:0:0:0:
64,192,153998,1,0,0:0:0:0:
64,192,154086,1,0,0:0:0:0:
448,192,154086,1,0,0:0:0:0:
64,192,154175,1,0,0:0:0:0:
448,192,154175,1,0,0:0:0:0:
64,192,154263,1,0,0:0:0:0:
448,192,154263,1,0,0:0:0:0:
64,192,154351,1,0,0:0:0:0:
448,192,154351,1,0,0:0:0:0:
64,192,154439,1,0,0:0:0:0:
448,192,154439,1,0,0:0:0:0:
448,192,154527,1,0,0:0:0:0:
64,192,154527,1,0,0:0:0:0:
64,192,154616,1,0,0:0:0:0:
448,192,154616,1,0,0:0:0:0:
64,192,154704,1,0,0:0:0:0:
448,192,154704,1,0,0:0:0:0:
64,192,154792,1,0,0:0:0:0:
448,192,154792,1,0,0:0:0:0:
64,192,154880,1,0,0:0:0:0:
448,192,154880,1,0,0:0:0:0:
64,192,154969,1,0,0:0:0:0:
448,192,154969,1,0,0:0:0:0:
192,192,155057,1,0,0:0:0:0:
320,192,155057,1,0,0:0:0:0:
192,192,155145,1,0,0:0:0:0:
320,192,155145,1,0,0:0:0:0:
64,192,155233,1,0,0:0:0:0:
448,192,155233,1,0,0:0:0:0:
64,192,155322,1,0,0:0:0:0:
448,192,155322,1,0,0:0:0:0:
448,192,155410,1,0,0:0:0:0:
64,192,155410,128,0,156116:0:0:0:0:
192,192,155410,128,0,155939:0:0:0:0:
320,192,155410,128,0,155763:0:0:0:0:
