osu file format v14

[General]
AudioFilename: audio.mp3
AudioLeadIn: 0
PreviewTime: 40021
Countdown: 1
SampleSet: Soft
StackLeniency: 0.7
Mode: 0
LetterboxInBreaks: 0
WidescreenStoryboard: 1

[Editor]
Bookmarks: 25021,41021,73104,89021,105604,121521,141021,154521,165021,173021,181021
DistanceSpacing: 0.3
BeatDivisor: 6
GridSize: 4
TimelineZoom: 1.8

[Metadata]
Title:Mabel
TitleUnicode:メーベル
Artist:Balloon
ArtistUnicode:バルーン
Creator:[Mahua]
Version:GoodNight
Source:
Tags:Japanese Pop 須田景凪 Suda Keina Vocaloid flower v-flower ボーカロイド フラワ ブイフラワ spboxer3 Flask
BeatmapID:2129676
BeatmapSetID:1017565

[Difficulty]
HPDrainRate:6.3
CircleSize:4.3
OverallDifficulty:8
ApproachRate:9.3
SliderMultiplier:2.8
SliderTickRate:1

[Events]
//Background and Video events
0,0,"60376627_p0_master1200.jpg",0,0
Video,-240,"mabel.avi"
//Break Periods
2,57221,71717
2,158021,164467
//Storyboard Layer 0 (Background)
//Storyboard Layer 1 (Fail)
//Storyboard Layer 2 (Pass)
//Storyboard Layer 3 (Foreground)
//Storyboard Layer 4 (Overlay)
//Storyboard Sound Samples

[TimingPoints]
-979,500,4,2,1,15,1,0
771,-200,4,2,1,15,0,0
1021,-133.333333333333,4,2,1,30,0,0
8937,-50,4,2,1,40,0,0
9021,-100,4,2,1,60,0,0
24271,-133.333333333333,4,2,1,40,0,0
24521,-133.333333333333,4,2,1,60,0,0
24771,-200,4,2,1,80,0,0
25521,-133.333333333333,4,2,2,60,0,0
27021,-100,4,2,2,60,0,0
32021,-100,4,2,2,60,0,0
32271,-80,4,2,2,60,0,0
32521,-66.6666666666667,4,2,2,60,0,0
33021,-100,4,2,1,60,0,0
36521,-166.666666666667,4,2,1,60,0,0
37021,-100,4,2,1,60,0,0
40271,-100,4,1,1,35,0,0
41021,-100,4,2,1,80,0,1
56271,-133.333333333333,4,2,1,80,0,1
56521,-200,4,2,1,80,0,1
57021,-100,4,2,1,80,0,0
73021,-400,4,2,1,80,0,0
73521,-200,4,2,1,80,0,0
73771,-100,4,2,1,80,0,0
89021,-100,4,2,1,80,0,1
103771,-66.6666666666667,4,2,1,80,0,1
104021,-100,4,2,1,80,0,1
104521,-200,4,2,1,80,0,1
105021,-153.846153846154,4,2,2,80,0,0
105104,-153.846153846154,4,2,2,40,0,0
109021,-153.846153846154,4,2,2,50,0,0
113021,-153.846153846154,4,2,2,60,0,0
117021,-153.846153846154,4,2,2,70,0,0
119771,-153.846153846154,4,1,1,50,0,0
120271,-153.846153846154,4,1,1,50,0,0
120521,-95.2380952380952,4,1,1,50,0,0
120771,-54.054054054054,4,1,1,50,0,0
121021,-100,4,2,2,65,0,0
134521,-400,4,1,1,30,0,0
135021,-100,4,1,1,30,0,0
139021,-100,4,1,1,30,0,0
141021,-80,4,2,1,80,0,1
157021,-100,4,2,1,80,0,0
165021,-100,4,2,1,65,0,0
173021,-100,4,2,1,45,0,0
180771,-133.333333333333,4,2,1,45,0,0
187021,-133.333333333333,4,2,1,30,0,0

[Colours]
Combo1 : 255,192,0
Combo2 : 255,0,128
Combo3 : 255,143,32
Combo4 : 245,97,119

[HitObjects]
250,342,771,6,0,L|253:293,1,46.6666666666667,0|0,0:0|0:0,0:0:0:0:
233,135,1021,6,0,B|208:163|208:163|225:236,1,105.000004005432,0|0,0:0|0:0,0:0:0:0:
324,277,1437,1,2,0:0:0:0:
324,277,1687,1,2,0:0:0:0:
324,277,1937,1,2,0:0:0:0:
426,244,2187,1,0,0:0:0:0:
426,244,2271,2,0,P|425:215|397:179,1,70.0000026702882,2|0,0:0|0:0,0:0:0:0:
348,135,2521,6,0,L|480:146,1,105.000004005432,2|2,0:0|0:0,0:0:0:0:
280,37,2937,1,0,0:0:0:0:
280,37,3021,6,0,P|247:62|172:45,1,105.000004005432,0|2,0:0|0:0,0:0:0:0:
88,28,3437,1,2,0:0:0:0:
88,28,3687,1,2,0:0:0:0:
88,28,3937,1,2,0:0:0:0:
13,101,4187,1,0,0:0:0:0:
10,115,4271,2,0,L|19:197,1,70.0000026702882,2|2,0:0|0:0,0:0:0:0:
3,252,4521,6,0,P|36:227|111:244,1,105.000004005432,2|2,0:0|0:0,0:0:0:0:
187,341,4937,1,2,0:0:0:0:
187,341,5021,6,0,P|227:366|296:342,1,105.000004005432,0|2,0:0|0:0,0:0:0:0:
370,291,5437,1,2,0:0:0:0:
370,291,5687,1,2,0:0:0:0:
370,291,5937,1,2,0:0:0:0:
464,109,6187,1,0,0:0:0:0:
495,177,6271,2,0,P|464:200|417:197,1,70.0000026702882,2|0,0:0|0:0,0:0:0:0:
376,107,6521,6,0,P|419:69|484:83,1,105.000004005432,2|0,0:0|0:0,0:0:0:0:
362,185,6854,5,0,0:0:0:0:
355,201,6937,1,0,0:0:0:0:
347,216,7021,6,0,L|262:208,1,70.0000026702882,8|8,0:0|0:0,0:0:0:0:
224,255,7271,5,2,3:0:0:0:
224,255,7354,2,0,L|165:265,1,35.0000013351441,0|0,0:0|0:0,0:0:0:0:
22,172,7521,6,0,L|107:180,1,70.0000026702882,0|8,0:0|0:0,0:0:0:0:
145,133,7771,5,2,3:0:0:0:
214,118,7854,2,0,L|273:108,1,35.0000013351441,0|0,0:0|0:0,0:0:0:0:
298,52,8021,5,0,0:0:0:0:
429,336,8187,2,0,L|476:347,1,35.0000013351441,0|8,0:0|0:0,0:0:0:0:
365,284,8353,6,0,L|307:295,1,35.0000013351441,8|2,3:0|3:0,0:0:0:0:
439,256,8521,6,0,B|437:223|409:194|409:194|423:161|457:145,1,140.000005340576,2|0,0:1|0:0,0:0:0:0:
472,135,9021,6,2,P|423:133|387:97,1,93.3333333333333,6|2,0:0|0:0,0:0:0:0:
396,55,9271,2,0,P|352:89|295:71,1,93.3333333333333,2|0,0:0|0:0,0:0:0:0:
248,29,9521,1,0,0:0:0:0:
183,134,9687,2,0,P|138:175|77:175,1,93.3333333333333,2|0,0:0|0:0,0:0:0:0:
25,69,9937,1,2,0:0:0:0:
79,17,10021,6,0,P|110:45|108:115,1,93.3333333333333,0|0,0:0|0:0,0:0:0:0:
31,180,10271,2,0,P|35:225|68:257,1,93.3333333333333,0|0,0:0|0:0,0:0:0:0:
156,353,10521,2,0,P|175:297|255:264,1,140,2|0,0:0|0:0,0:0:0:0:
301,307,10854,5,0,0:0:0:0:
311,323,10937,1,0,0:0:0:0:
322,343,11021,6,0,P|367:368|409:358,1,93.3333333333333,2|0,0:0|0:0,0:0:0:0:
407,278,11271,2,0,P|452:285|490:261,1,93.3333333333333,2|0,0:0|0:0,0:0:0:0:
479,160,11521,1,0,0:0:0:0:
324,149,11687,2,0,P|282:186|215:173,1,93.3333333333333,2|0,0:0|0:0,0:0:0:0:
200,87,11937,1,2,0:0:0:0:
250,29,12021,6,0,P|234:75|258:115,1,93.3333333333333,0|0,0:0|0:0,0:0:0:0:
378,84,12271,2,0,P|394:38|370:-2,1,93.3333333333333,0|0,0:0|0:0,0:0:0:0:
479,160,12521,2,0,P|437:210|451:292,1,140,2|0,0:0|0:0,0:0:0:0:
489,337,12854,1,0,0:0:0:0:
480,351,12937,1,0,0:0:0:0:
470,367,13021,6,0,L|361:346,1,93.3333333333333,2|0,0:0|0:0,0:0:0:0:
308,364,13271,2,0,P|330:330|310:264,1,93.3333333333333,2|0,0:0|0:0,0:0:0:0:
250,233,13521,1,0,0:0:0:0:
70,149,13687,2,0,P|48:183|68:249,1,93.3333333333333,2|0,0:0|0:0,0:0:0:0:
112,280,13937,1,2,0:0:0:0:
185,260,14021,6,0,P|207:226|187:160,1,93.3333333333333,0|0,0:0|0:0,0:0:0:0:
324,195,14271,2,0,P|315:150|338:110,1,93.3333333333333,2|0,0:0|0:0,0:0:0:0:
446,143,14521,2,0,P|466:92|430:20,1,140,2|0,0:0|0:0,0:0:0:0:
416,28,15021,6,0,L|314:35,1,93.3333333333333,2|0,1:2|0:0,0:0:0:0:
270,85,15271,2,0,P|289:43|273:-4,1,93.3333333333333,2|0,1:2|0:0,0:0:0:0:
34,157,15521,6,0,L|136:164,1,93.3333333333333,2|0,0:0|0:0,0:0:0:0:
174,128,15771,2,0,P|161:172|180:214,1,93.3333333333333,2|0,1:2|0:0,0:0:0:0:
150,281,16021,6,0,P|204:248|249:257,1,93.3333333333333,0|0,0:0|0:0,0:0:0:0:
254,340,16271,2,0,P|294:361|346:349,1,93.3333333333333,0|0,1:0|0:0,0:0:0:0:
492,218,16521,5,6,0:0:0:0:
492,218,16771,1,0,1:0:0:0:
358,257,16937,1,0,1:0:0:0:
301,210,17021,6,0,P|285:166|298:122,1,93.3333333333333,2|0,0:0|0:0,0:0:0:0:
469,109,17271,2,0,P|482:63|462:16,1,93.3333333333333,2|0,0:0|0:0,0:0:0:0:
377,16,17521,1,0,0:0:0:0:
377,16,17687,2,0,P|321:52|237:28,1,140,2|2,0:0|0:0,0:0:0:0:
186,11,18021,6,0,L|77:20,1,93.3333333333333,0|0,0:0|0:0,0:0:0:0:
23,187,18271,2,0,L|132:178,1,93.3333333333333,2|0,0:0|0:0,0:0:0:0:
142,161,18521,2,0,P|101:219|126:295,1,140,2|0,0:0|0:0,0:0:0:0:
171,371,18937,1,0,0:0:0:0:
188,364,19021,6,0,P|208:329|184:261,1,93.3333333333333,2|0,0:0|0:0,0:0:0:0:
11,272,19271,2,0,P|1:227|22:186,1,93.3333333333333,2|0,0:0|0:0,0:0:0:0:
142,161,19521,1,0,0:0:0:0:
142,161,19687,2,0,P|195:202|283:173,1,140,2|2,0:0|0:0,0:0:0:0:
325,235,20021,6,0,L|430:242,1,93.3333333333333,0|0,0:0|0:0,0:0:0:0:
502,68,20271,2,0,L|397:61,1,93.3333333333333,2|0,0:0|0:0,0:0:0:0:
387,40,20521,2,0,P|365:95|410:163,1,140,2|0,0:0|0:0,0:0:0:0:
504,298,20937,1,0,0:0:0:0:
424,327,21021,6,0,P|406:289|429:228,1,93.3333333333333,2|0,0:0|0:0,0:0:0:0:
264,298,21271,2,0,P|282:336|259:397,1,93.3333333333333,2|0,0:0|0:0,0:0:0:0:
120,333,21521,1,0,0:0:0:0:
54,286,21687,2,0,P|32:229|78:155,1,140,2|2,0:0|0:0,0:0:0:0:
173,76,22021,6,0,P|174:120|137:171,1,93.3333333333333,0|0,0:0|0:0,0:0:0:0:
7,109,22271,2,0,P|6:65|43:14,1,93.3333333333333,2|0,0:0|0:0,0:0:0:0:
150,161,22521,2,0,P|197:129|293:149,1,140,2|0,0:0|0:0,0:0:0:0:
328,193,22854,5,0,0:0:0:0:
334,208,22937,5,0,0:0:0:0:
341,225,23021,6,0,L|459:240,1,93.3333333333333,0|0,1:0|0:0,0:0:0:0:
488,182,23271,2,0,P|494:151|486:128,1,46.6666666666667,0|0,1:0|0:0,0:0:0:0:
270,319,23437,5,0,0:0:0:0:
263,336,23521,6,0,L|145:351,1,93.3333333333333,0|0,1:0|0:0,0:0:0:0:
116,293,23771,2,0,P|108:264|118:235,1,46.6666666666667,0|0,1:0|0:0,0:0:0:0:
188,23,24021,5,4,0:0:0:0:
310,192,24271,5,4,0:1:0:0:
387,171,24521,1,4,0:1:0:0:
465,146,24771,1,4,0:1:0:0:
230,217,25021,6,0,P|218:153|260:74,1,140,4|2,0:0|0:0,0:0:0:0:
480,330,25937,1,0,0:0:0:0:
471,348,26021,2,0,L|392:341,1,70.0000026702882,2|0,0:0|0:0,0:0:0:0:
341,293,26271,1,0,0:0:0:0:
249,362,26437,1,0,0:0:0:0:
147,237,26687,1,0,0:0:0:0:
34,354,26937,1,0,0:0:0:0:
56,359,27021,6,0,P|83:311|57:260,1,93.3333333333333,2|0,0:0|0:0,0:0:0:0:
17,228,27271,1,0,0:0:0:0:
238,207,27437,1,0,0:0:0:0:
216,202,27521,6,0,P|189:250|215:301,1,93.3333333333333,2|0,0:0|0:0,0:0:0:0:
251,337,27771,1,0,0:0:0:0:
343,282,27937,1,0,0:0:0:0:
389,342,28021,2,0,L|495:352,1,93.3333333333333,2|0,0:0|0:0,0:0:0:0:
483,333,28271,2,0,P|472:273|500:237,1,93.3333333333333,0|0,0:0|0:0,0:0:0:0:
477,224,28521,2,0,P|498:184|483:80,1,140,2|0,0:0|0:0,0:0:0:0:
206,10,29021,6,0,P|185:50|200:154,1,140,2|0,0:0|0:0,0:0:0:0:
322,208,29521,1,2,0:0:0:0:
376,271,29771,2,0,L|476:276,1,93.3333333333333,0|0,0:0|0:0,0:0:0:0:
317,322,30021,6,0,L|211:329,1,93.3333333333333,2|0,0:0|0:0,0:0:0:0:
25,256,30271,2,0,L|131:249,1,93.3333333333333,0|0,0:0|0:0,0:0:0:0:
141,222,30521,6,0,P|150:277|128:318,1,93.3333333333333,2|0,0:0|0:0,0:0:0:0:
57,180,30771,2,0,P|48:125|70:84,1,93.3333333333333,0|0,0:0|0:0,0:0:0:0:
117,27,31021,5,2,0:0:0:0:
227,108,31187,1,0,0:0:0:0:
223,122,31271,1,0,0:0:0:0:
346,56,31437,1,0,0:0:0:0:
353,39,31521,1,2,0:0:0:0:
457,131,31687,1,0,0:0:0:0:
454,144,31771,6,0,L|470:207,1,46.6666666666667,0|0,1:0|1:0,0:0:0:0:
410,238,31937,1,0,1:0:0:0:
336,221,32021,6,0,P|323:175|346:135,1,93.3333333333333,2|0,0:0|0:0,0:0:0:0:
498,254,32271,6,0,P|511:297|469:367,1,116.666666666667,0|0,0:1|0:1,0:0:0:0:
411,337,32521,6,0,L|249:322,1,140.000005340576,2|2,1:2|0:2,0:0:0:0:
195,357,32771,1,0,1:0:0:0:
195,357,32854,1,0,1:0:0:0:
195,357,32937,1,0,1:0:0:0:
118,337,33021,6,0,P|81:291|102:196,1,140,4|2,0:0|0:0,0:0:0:0:
177,20,33521,1,0,1:0:0:0:
177,20,33771,1,2,0:0:0:0:
235,89,33937,1,0,0:0:0:0:
245,102,34021,2,0,P|300:108|352:64,1,93.3333333333333,0|0,0:0|0:0,0:0:0:0:
170,131,34271,5,2,0:0:0:0:
142,135,34354,1,0,0:0:0:0:
114,140,34437,1,0,0:0:0:0:
86,147,34521,2,0,L|-4:95,1,93.3333333333333,0|0,1:0|0:0,0:0:0:0:
238,179,34771,2,0,L|328:231,1,93.3333333333333,2|0,0:0|0:0,0:0:0:0:
414,302,35021,5,0,0:0:0:0:
472,188,35187,1,0,0:0:0:0:
482,169,35271,1,2,0:0:0:0:
381,175,35437,1,0,0:0:0:0:
377,154,35521,1,0,1:0:0:0:
299,229,35687,1,0,0:0:0:0:
279,213,35771,1,2,0:0:0:0:
260,323,35937,1,0,0:0:0:0:
239,331,36021,2,0,L|130:340,1,93.3333333333333,0|0,0:0|0:0,0:0:0:0:
5,189,36271,2,0,L|114:180,1,93.3333333333333,2|2,0:0|0:0,0:0:0:0:
170,203,36521,6,0,L|152:284,1,55.9999982910157,0|2,1:0|0:0,0:0:0:0:
70,312,36771,2,0,L|88:231,1,55.9999982910157,0|2,1:0|0:0,0:0:0:0:
154,115,37021,6,0,L|296:131,1,140,4|2,0:0|0:0,0:0:0:0:
479,97,37521,2,0,L|466:1,1,93.3333333333333,0|0,1:0|0:0,0:0:0:0:
390,113,37771,2,0,L|403:209,1,93.3333333333333,2|0,0:0|0:0,0:0:0:0:
414,300,38021,5,0,0:0:0:0:
484,233,38187,1,2,0:0:0:0:
494,214,38271,1,2,0:0:0:0:
414,300,38437,1,0,0:0:0:0:
414,300,38521,2,0,L|305:311,1,93.3333333333333,0|0,1:0|1:0,0:0:0:0:
262,353,38771,5,0,1:0:0:0:
185,334,38854,5,0,1:0:0:0:
108,314,38937,5,0,1:0:0:0:
30,295,39021,6,0,L|19:192,1,93.3333333333333,4|0,0:0|0:0,0:0:0:0:
33,185,39271,1,0,0:0:0:0:
404,70,39437,5,0,0:0:0:0:
482,89,39521,6,0,L|493:192,1,93.3333333333333,4|0,0:0|0:0,0:0:0:0:
479,199,39771,1,0,0:0:0:0:
175,216,39937,5,0,0:0:0:0:
175,216,40021,6,0,L|192:115,1,93.3333333333333,4|2,0:0|0:0,0:0:0:0:
337,168,40271,6,0,L|320:269,1,93.3333333333333,2|0,0:2|2:0,0:0:0:0:
255,192,40521,5,0,0:0:0:0:
255,192,40771,1,0,0:0:0:0:
255,192,41021,6,0,L|237:29,1,140,4|2,0:0|0:0,0:0:0:0:
383,11,41437,1,0,0:0:0:0:
454,43,41521,2,0,P|463:80|436:137,1,93.3333333333333,0|0,1:0|0:0,0:0:0:0:
375,171,41771,2,0,P|355:212|364:257,1,93.3333333333333,2|0,0:0|0:0,0:0:0:0:
463,348,42021,6,0,L|445:185,1,140,0|10,0:0|0:0,0:0:0:0:
359,213,42354,5,0,0:0:0:0:
272,223,42437,5,0,0:0:0:0:
202,262,42521,6,0,P|198:312|231:350,1,93.3333333333333,0|0,1:0|0:0,0:0:0:0:
294,366,42771,2,0,L|351:369,2,46.6666666666667,2|0|0,0:0|0:0|0:0,0:0:0:0:
122,268,43021,6,0,L|19:256,1,93.3333333333333,0|0,1:0|0:0,0:0:0:0:
254,199,43271,2,0,L|357:211,1,93.3333333333333,0|0,0:0|0:0,0:0:0:0:
92,184,43521,6,0,L|-11:172,1,93.3333333333333,0|0,1:0|0:0,0:0:0:0:
224,115,43771,2,0,L|327:127,1,93.3333333333333,0|0,1:0|1:0,0:0:0:0:
512,43,44021,6,0,L|361:64,1,140,2|2,0:0|0:0,0:0:0:0:
224,115,44437,1,0,0:0:0:0:
151,125,44521,2,0,P|138:79|167:31,1,93.3333333333333,0|0,1:0|0:0,0:0:0:0:
280,56,44771,2,0,L|390:63,1,93.3333333333333,2|0,1:2|1:0,0:0:0:0:
446,80,45021,6,0,L|504:2,1,93.3333333333333,4|0,0:0|0:0,0:0:0:0:
453,157,45271,2,0,L|350:177,1,93.3333333333333,2|0,0:0|0:0,0:0:0:0:
293,150,45521,2,0,L|183:167,1,93.3333333333333,0|0,1:0|0:0,0:0:0:0:
407,316,45771,2,0,L|509:324,1,93.3333333333333,2|0,0:0|0:0,0:0:0:0:
428,384,46021,6,0,L|382:235,1,140,8|10,0:0|0:2,0:0:0:0:
241,293,46437,1,0,0:0:0:0:
263,364,46521,1,0,1:0:0:0:
141,247,46687,1,0,0:0:0:0:
76,276,46771,2,0,L|45:364,1,93.3333333333333,2|0,0:0|0:0,0:0:0:0:
18,154,47021,6,0,P|73:176|123:158,1,93.3333333333333,0|0,1:0|0:0,0:0:0:0:
117,150,47271,2,0,P|162:144|203:165,1,93.3333333333333,0|0,1:0|0:0,0:0:0:0:
210,192,47521,2,0,P|265:214|315:196,1,93.3333333333333,0|0,1:0|0:0,0:0:0:0:
309,188,47771,2,0,P|354:182|395:203,1,93.3333333333333,0|8,1:0|0:0,0:0:0:0:
459,258,48021,5,0,1:0:0:0:
357,346,48187,1,8,0:0:0:0:
288,380,48271,2,0,L|170:361,1,93.3333333333333,0|0,1:0|1:0,0:0:0:0:
82,192,48521,5,4,1:2:0:0:
82,192,48771,5,0,1:0:0:0:
111,263,48937,1,0,1:0:0:0:
118,278,49021,6,0,L|276:253,1,140,4|2,0:0|0:0,0:0:0:0:
293,78,49437,1,0,0:0:0:0:
310,98,49521,2,0,P|366:117|410:102,1,93.3333333333333,0|0,1:0|0:0,0:0:0:0:
478,204,49771,2,0,L|364:186,1,93.3333333333333,2|0,0:0|0:0,0:0:0:0:
283,293,50021,6,0,L|381:269,1,93.3333333333333,0|8,0:0|0:0,0:0:0:0:
401,295,50271,5,10,0:0:0:0:
430,318,50354,5,0,0:0:0:0:
458,342,50437,5,0,0:0:0:0:
487,364,50521,6,0,L|508:269,1,93.3333333333333,0|0,1:0|0:0,0:0:0:0:
417,17,50771,2,0,L|396:112,1,93.3333333333333,2|0,0:0|0:0,0:0:0:0:
350,169,51021,6,0,P|364:209|354:276,1,93.3333333333333,0|0,0:0|0:0,0:0:0:0:
162,215,51271,2,0,P|148:175|158:108,1,93.3333333333333,2|0,0:0|0:0,0:0:0:0:
278,286,51521,6,0,P|234:300|188:296,1,93.3333333333333,0|0,1:0|0:0,0:0:0:0:
233,97,51771,2,0,P|277:83|323:87,1,93.3333333333333,2|0,0:0|0:0,0:0:0:0:
115,275,52021,6,0,L|95:367,1,93.3333333333333,0|0,1:0|0:0,0:0:0:0:
57,149,52271,2,0,L|37:241,1,93.3333333333333,0|0,1:0|0:0,0:0:0:0:
20,36,52521,1,0,1:0:0:0:
47,40,52604,1,0,0:0:0:0:
74,44,52687,1,0,0:0:0:0:
138,87,52771,1,0,1:0:0:0:
165,84,52854,1,0,0:0:0:0:
192,80,52937,1,0,0:0:0:0:
264,34,53021,6,0,P|237:83|248:176,1,140,4|2,0:0|0:0,0:0:0:0:
425,223,53437,1,0,0:0:0:0:
452,215,53521,1,0,1:0:0:0:
375,288,53687,1,0,0:0:0:0:
347,282,53771,2,0,L|247:260,1,93.3333333333333,2|0,0:0|0:0,0:0:0:0:
340,120,54021,6,0,L|458:149,1,93.3333333333333,0|8,0:0|0:0,0:0:0:0:
497,101,54271,1,10,0:0:0:0:
418,357,54521,1,0,1:0:0:0:
205,168,54771,2,0,L|139:180,2,46.6666666666667,2|0|0,0:0|0:0|0:0,0:0:0:0:
242,164,55021,5,0,1:0:0:0:
171,364,55271,1,0,0:0:0:0:
17,216,55521,1,0,1:0:0:0:
79,164,55771,5,0,0:0:0:0:
106,168,55854,1,0,0:0:0:0:
133,172,55937,1,0,0:0:0:0:
160,177,56021,6,0,L|271:194,1,93.3333333333333,0|0,1:0|0:0,0:0:0:0:
345,278,56271,6,0,L|260:265,1,70.0000026702882,0|0,1:0|0:0,0:0:0:0:
383,351,56521,6,0,L|528:371,1,140,0|4,1:0|0:0,0:0:0:0:
495,371,72271,5,0,0:0:0:0:
491,351,72521,1,0,0:0:0:0:
487,331,72771,1,0,0:0:0:0:
414,237,73021,6,0,L|318:228,1,93.3333333333333,4|0,0:0|0:0,0:0:0:0:
276,174,73771,5,8,0:0:0:0:
270,157,73854,5,8,0:0:0:0:
263,139,73937,5,8,0:0:0:0:
256,120,74021,5,8,0:0:0:0:
366,64,74187,1,8,0:0:0:0:
407,275,74437,1,8,0:0:0:0:
191,357,74687,1,8,0:0:0:0:
22,185,74937,6,0,L|193:172,1,140,4|0,0:0|0:0,0:0:0:0:
223,221,75271,1,8,0:0:0:0:
295,339,75437,1,0,0:0:0:0:
371,344,75521,1,8,0:0:0:0:
413,176,75687,1,0,0:0:0:0:
488,160,75771,1,8,0:0:0:0:
309,16,75937,5,0,0:0:0:0:
234,0,76021,2,0,P|228:65|257:100,1,93.3333333333333,0|0,1:0|0:0,0:0:0:0:
344,193,76271,2,0,P|350:128|321:93,1,93.3333333333333,0|0,1:0|0:0,0:0:0:0:
225,330,76521,1,4,0:0:0:0:
231,333,77021,6,0,L|390:345,1,140,8|0,0:0|0:0,0:0:0:0:
475,274,77437,1,0,0:0:0:0:
453,200,77521,2,0,L|301:186,1,140,0|0,1:0|0:0,0:0:0:0:
162,280,77937,1,0,0:0:0:0:
151,306,78021,1,8,0:0:0:0:
108,188,78187,1,0,0:0:0:0:
92,211,78271,2,0,L|44:109,1,93.3333333333333,0|0,0:0|0:0,0:0:0:0:
25,117,78521,1,0,1:0:0:0:
0,335,78687,1,0,0:0:0:0:
0,335,78771,6,0,L|96:360,1,93.3333333333333,0|0,0:0|0:0,0:0:0:0:
253,263,79021,6,0,L|136:284,1,93.3333333333333,8|0,0:0|0:0,0:0:0:0:
295,168,79271,6,0,L|178:189,1,93.3333333333333,8|0,0:0|0:0,0:0:0:0:
331,76,79521,6,0,L|214:97,1,93.3333333333333,0|0,1:0|0:0,0:0:0:0:
175,46,79771,1,0,0:0:0:0:
403,20,79937,2,0,P|384:68|406:159,1,140,8|0,0:0|0:0,0:0:0:0:
483,267,80271,5,0,0:0:0:0:
474,286,80521,6,0,L|357:264,1,93.3333333333333,0|0,1:0|0:0,0:0:0:0:
234,355,80771,2,0,L|336:329,1,93.3333333333333,0|0,0:0|0:0,0:0:0:0:
271,224,81021,6,0,P|224:194|125:218,1,140,12|0,0:0|0:0,0:0:0:0:
14,279,81437,1,0,0:0:0:0:
37,351,81521,2,0,P|84:381|183:357,1,140,0|0,1:0|0:0,0:0:0:0:
336,320,82021,6,0,P|397:331|484:284,1,140,8|0,0:0|0:0,0:0:0:0:
344,146,82521,2,0,P|283:135|196:182,1,140,0|0,1:0|0:0,0:0:0:0:
162,226,82854,1,0,0:0:0:0:
23,70,83021,6,0,L|29:166,1,93.3333333333333,8|0,0:0|0:0,0:0:0:0:
25,181,83271,1,0,0:0:0:0:
148,308,83437,1,0,0:0:0:0:
173,320,83521,1,0,1:0:0:0:
236,214,83687,1,0,0:0:0:0:
247,237,83771,1,0,0:0:0:0:
367,209,83937,1,0,0:0:0:0:
361,241,84021,2,0,L|370:351,1,93.3333333333333,8|0,0:0|0:0,0:0:0:0:
443,363,84271,6,0,L|434:264,1,93.3333333333333,0|0,0:0|0:0,0:0:0:0:
230,310,84521,6,0,L|409:340,1,140,0|0,1:0|0:0,0:0:0:0:
435,271,85021,6,0,L|510:217,1,93.3333333333333,12|0,0:0|0:0,0:0:0:0:
506,244,85271,1,0,0:0:0:0:
213,172,85521,6,0,L|306:184,1,93.3333333333333,0|0,1:0|0:0,0:0:0:0:
379,206,85771,2,0,L|466:142,1,93.3333333333333,0|0,0:0|0:0,0:0:0:0:
463,129,86021,1,8,0:0:0:0:
306,183,86187,1,0,0:0:0:0:
324,260,86271,2,0,L|303:368,1,93.3333333333333,0|0,0:0|0:0,0:0:0:0:
173,103,86521,2,0,L|194:-5,1,93.3333333333333,0|0,1:0|0:0,0:0:0:0:
3,230,86771,5,0,0:0:0:0:
21,234,86854,5,0,0:0:0:0:
38,238,86937,5,0,0:0:0:0:
56,242,87021,6,0,L|148:219,1,93.3333333333333,4|0,0:0|0:0,0:0:0:0:
3,230,87271,5,0,0:0:0:0:
23,249,87354,5,0,0:0:0:0:
42,269,87437,5,0,0:0:0:0:
64,286,87521,6,0,L|156:263,1,93.3333333333333,4|0,0:0|0:0,0:0:0:0:
3,230,87771,5,0,0:0:0:0:
15,269,87854,5,0,0:0:0:0:
28,308,87937,5,0,0:0:0:0:
47,345,88021,6,0,L|139:322,1,93.3333333333333,4|0,0:0|0:0,0:0:0:0:
303,190,88271,6,0,L|211:213,1,93.3333333333333,4|0,0:0|0:0,0:0:0:0:
364,357,88521,6,0,L|487:326,1,93.3333333333333,4|0,0:0|0:0,0:0:0:0:
469,348,89021,6,0,P|497:298|481:217,1,140,4|2,0:0|0:0,0:0:0:0:
387,104,89437,1,0,0:0:0:0:
387,104,89521,2,0,L|282:92,1,93.3333333333333,0|0,1:0|0:0,0:0:0:0:
303,190,89771,2,0,L|211:213,1,93.3333333333333,2|0,0:0|0:0,0:0:0:0:
273,298,90021,6,0,P|232:364|150:351,1,140,0|10,0:0|0:2,0:0:0:0:
111,328,90354,5,0,0:0:0:0:
58,262,90437,5,0,0:0:0:0:
34,183,90521,6,0,P|88:150|134:178,1,93.3333333333333,0|0,1:0|0:0,0:0:0:0:
273,298,90771,2,0,P|227:302|194:272,1,93.3333333333333,2|0,0:0|0:0,0:0:0:0:
408,232,91021,6,0,L|527:248,1,93.3333333333333,0|0,0:0|0:0,0:0:0:0:
276,186,91271,2,0,L|157:170,1,93.3333333333333,2|0,0:0|0:0,0:0:0:0:
394,139,91521,6,0,L|513:155,1,93.3333333333333,0|0,1:0|0:0,0:0:0:0:
262,93,91771,2,0,L|143:77,1,93.3333333333333,2|0,0:0|0:0,0:0:0:0:
327,42,92021,6,0,L|485:19,1,140,0|2,0:0|0:0,0:0:0:0:
333,239,92437,1,0,0:0:0:0:
333,239,92521,2,0,L|307:348,1,93.3333333333333,0|0,1:0|0:0,0:0:0:0:
408,232,92771,2,0,L|434:123,1,93.3333333333333,2|0,0:0|0:0,0:0:0:0:
327,42,93021,6,0,P|293:31|227:43,1,93.3333333333333,4|0,0:0|0:0,0:0:0:0:
169,80,93271,2,0,L|54:95,1,93.3333333333333,2|0,0:0|0:0,0:0:0:0:
131,167,93521,2,0,L|16:182,1,93.3333333333333,0|0,1:0|0:0,0:0:0:0:
9,255,93771,1,2,0:0:0:0:
150,322,93937,1,0,0:0:0:0:
204,374,94021,6,0,L|363:382,1,140,0|10,0:0|0:0,0:0:0:0:
404,248,94437,1,0,0:0:0:0:
482,231,94521,1,0,1:0:0:0:
362,93,94687,1,0,0:0:0:0:
284,81,94771,2,0,L|188:96,1,93.3333333333333,2|0,0:0|0:0,0:0:0:0:
18,230,95021,6,0,P|73:208|123:226,1,93.3333333333333,0|0,0:0|0:0,0:0:0:0:
117,234,95271,2,0,P|162:240|203:219,1,93.3333333333333,2|0,0:0|0:0,0:0:0:0:
210,192,95521,2,0,P|265:170|315:188,1,93.3333333333333,0|0,1:0|0:0,0:0:0:0:
309,196,95771,2,0,P|354:202|395:181,1,93.3333333333333,2|0,0:0|0:0,0:0:0:0:
450,112,96021,1,0,1:0:0:0:
468,276,96271,5,0,1:0:0:0:
407,339,96437,1,0,0:0:0:0:
401,352,96521,2,0,L|283:374,1,93.3333333333333,0|0,1:0|0:0,0:0:0:0:
243,336,96771,5,0,1:0:0:0:
101,376,96937,1,0,0:0:0:0:
42,324,97021,6,0,P|16:267|41:194,1,140,4|2,0:0|0:0,0:0:0:0:
147,55,97437,1,0,0:0:0:0:
147,55,97521,2,0,L|261:39,1,93.3333333333333,0|0,1:0|0:0,0:0:0:0:
95,122,97771,2,0,L|1:106,1,93.3333333333333,2|0,0:0|0:0,0:0:0:0:
143,193,98021,2,0,P|205:211|248:200,1,93.3333333333333,0|8,0:0|0:0,0:0:0:0:
245,225,98271,5,2,0:0:0:0:
258,244,98354,5,0,0:0:0:0:
271,262,98437,5,0,0:0:0:0:
284,281,98521,6,0,L|392:297,1,93.3333333333333,0|0,1:0|0:0,0:0:0:0:
512,123,98771,2,0,L|404:107,1,93.3333333333333,2|0,0:0|0:0,0:0:0:0:
350,51,99021,6,0,P|293:51|250:79,1,93.3333333333333,0|0,1:0|0:0,0:0:0:0:
162,333,99271,2,0,P|219:333|262:305,1,93.3333333333333,0|0,0:0|0:0,0:0:0:0:
131,186,99521,6,0,P|112:144|115:98,1,93.3333333333333,0|0,1:0|0:0,0:0:0:0:
380,197,99771,2,0,P|399:239|397:286,1,93.3333333333333,0|0,1:0|0:0,0:0:0:0:
92,274,100021,6,0,L|0:261,1,93.3333333333333,0|0,1:0|1:0,0:0:0:0:
247,240,100271,2,0,L|154:226,1,93.3333333333333,0|0,1:0|0:0,0:0:0:0:
288,314,100521,5,0,1:0:0:0:
315,319,100604,1,0,0:0:0:0:
342,324,100687,1,0,0:0:0:0:
397,285,100771,1,0,1:0:0:0:
424,281,100854,1,0,1:0:0:0:
451,277,100937,1,0,1:0:0:0:
501,338,101021,5,4,0:0:0:0:
431,120,101271,1,2,0:0:0:0:
256,294,101521,2,0,L|268:386,1,93.3333333333333,0|0,1:0|0:0,0:0:0:0:
505,260,101771,2,0,L|493:168,1,93.3333333333333,2|0,0:0|0:0,0:0:0:0:
431,120,102021,6,0,P|384:158|292:128,1,140,4|2,0:0|0:0,0:0:0:0:
81,264,102521,2,0,P|128:226|220:256,1,140,0|2,1:0|0:0,0:0:0:0:
256,294,102937,1,2,0:0:0:0:
299,358,103021,6,0,L|359:372,1,46.6666666666667,4|0,0:0|0:0,0:0:0:0:
411,326,103187,1,0,0:0:0:0:
378,250,103271,2,0,L|318:236,1,46.6666666666667,0|0,1:0|0:0,0:0:0:0:
293,173,103437,1,0,0:0:0:0:
361,132,103521,2,0,L|421:146,1,46.6666666666667,0|0,0:0|0:0,0:0:0:0:
473,100,103687,1,0,0:0:0:0:
432,31,103771,6,0,B|384:23|384:23|344:39|344:39|263:27,1,140.000005340576,0|0,1:0|0:0,0:0:0:0:
226,8,104021,5,0,1:0:0:0:
153,209,104271,1,0,1:0:0:0:
8,37,104521,6,0,L|27:166,1,116.666666666667,0|0,1:0|0:0,0:0:0:0:
54,233,105021,5,6,0:0:0:0:
141,245,105271,1,0,0:0:0:0:
128,333,105521,1,8,0:0:0:0:
40,320,105771,1,0,0:0:0:0:
70,224,106021,5,2,0:0:0:0:
149,261,106271,1,0,0:0:0:0:
111,341,106521,1,8,0:0:0:0:
31,303,106771,1,0,0:0:0:0:
88,220,107021,5,2,0:0:0:0:
153,279,107271,1,2,0:0:0:0:
93,345,107521,1,8,0:0:0:0:
27,285,107771,1,0,0:0:0:0:
106,222,107937,1,0,0:0:0:0:
106,222,108021,5,2,0:0:0:0:
236,347,108187,1,0,3:0:0:0:
230,360,108271,1,0,0:0:0:0:
308,289,108437,1,0,0:0:0:0:
315,304,108520,2,0,L|401:318,1,60.6666638895672,8|0,0:0|0:0,0:0:0:0:
442,286,108770,1,0,0:0:0:0:
465,131,108937,1,2,0:0:0:0:
465,131,109021,5,2,0:0:0:0:
378,143,109271,1,0,0:0:0:0:
391,231,109521,1,8,0:0:0:0:
479,218,109771,1,0,0:0:0:0:
449,122,110021,5,2,0:0:0:0:
370,159,110271,1,0,0:0:0:0:
408,239,110521,1,8,0:0:0:0:
488,201,110771,1,0,0:0:0:0:
431,118,111021,5,2,0:0:0:0:
366,177,111271,1,2,0:0:0:0:
492,183,111521,1,8,0:0:0:0:
426,243,111771,1,0,0:0:0:0:
413,120,111937,1,2,0:0:0:0:
413,120,112021,5,8,0:0:0:0:
315,248,112187,1,0,3:0:0:0:
197,149,112354,1,0,0:0:0:0:
207,140,112437,2,0,P|222:178|206:228,1,90.9999958343508,0|2,3:0|0:0,0:0:0:0:
138,253,112771,1,0,0:0:0:0:
45,34,112937,1,0,3:0:0:0:
45,34,113021,5,6,0:0:0:0:
132,46,113271,1,0,0:0:0:0:
119,134,113521,1,8,0:0:0:0:
31,121,113771,1,0,0:0:0:0:
61,25,114021,5,2,0:0:0:0:
140,62,114271,1,0,0:0:0:0:
102,142,114521,1,8,0:0:0:0:
22,104,114771,1,0,0:0:0:0:
79,21,115021,5,2,0:0:0:0:
144,80,115271,1,2,0:0:0:0:
84,146,115521,1,8,0:0:0:0:
18,86,115771,1,0,3:0:0:0:
97,23,115937,1,0,3:0:0:0:
97,23,116021,5,0,3:0:0:0:
227,148,116187,1,0,3:0:0:0:
232,162,116271,1,0,0:0:0:0:
299,90,116437,1,0,0:0:0:0:
306,105,116520,2,0,L|385:89,1,60.6666638895672,8|0,3:2|0:0,0:0:0:0:
465,131,116771,1,2,0:0:0:0:
465,131,116854,1,0,0:0:0:0:
465,131,116937,1,0,3:0:0:0:
465,131,117021,5,2,0:0:0:0:
378,143,117271,1,0,0:0:0:0:
391,231,117521,1,8,0:0:0:0:
479,218,117771,1,0,0:0:0:0:
449,122,118021,5,2,0:0:0:0:
370,159,118271,1,2,0:0:0:0:
408,239,118521,1,8,0:0:0:0:
488,201,118771,1,0,0:0:0:0:
431,118,119021,5,8,0:3:0:0:
366,177,119271,1,0,0:0:0:0:
492,183,119521,1,8,0:0:0:0:
426,243,119771,1,0,0:0:0:0:
417,262,119854,5,0,0:0:0:0:
408,281,119937,5,0,0:0:0:0:
400,300,120021,6,0,L|334:310,1,60.6666638895672,0|0,0:0|0:0,0:0:0:0:
446,361,120271,6,0,L|519:351,1,60.6666638895672,0|0,0:0|0:0,0:0:0:0:
477,283,120521,6,0,L|490:180,1,97.9999970092774,0|0,0:0|0:0,0:0:0:0:
271,272,120771,6,0,L|257:367,2,86.3333330039978,0|0|0,0:0|0:0|0:0,0:0:0:0:
224,206,121021,5,6,0:0:0:0:
181,55,121271,1,2,0:0:0:0:
332,11,121521,1,0,1:0:0:0:
377,158,121771,1,0,0:0:0:0:
224,206,121937,1,0,3:0:0:0:
215,220,122021,6,0,L|101:199,1,93.3333333333333,0|0,0:0|3:0,0:0:0:0:
52,229,122271,1,0,0:0:0:0:
68,381,122437,1,0,0:0:0:0:
55,367,122521,2,0,L|159:386,1,93.3333333333333,0|0,1:0|0:0,0:0:0:0:
225,375,122771,1,0,0:0:0:0:
268,303,122937,1,0,0:0:0:0:
268,303,123021,5,2,0:0:0:0:
431,340,123271,1,0,0:0:0:0:
469,180,123521,1,0,1:0:0:0:
312,139,123687,1,0,0:0:0:0:
324,146,123771,2,0,L|339:251,1,93.3333333333333,2|0,0:0|3:0,0:0:0:0:
279,291,124021,6,0,L|275:385,1,93.3333333333333,0|0,0:0|0:0,0:0:0:0:
75,314,124271,2,0,L|79:220,1,93.3333333333333,0|0,0:0|0:0,0:0:0:0:
271,373,124521,6,0,L|275:279,1,93.3333333333333,0|0,1:0|0:0,0:0:0:0:
75,208,124771,2,0,L|71:302,1,93.3333333333333,0|0,0:0|0:0,0:0:0:0:
103,378,125021,5,2,0:0:0:0:
272,352,125271,1,2,0:0:0:0:
252,186,125521,1,0,1:0:0:0:
75,208,125771,1,0,0:0:0:0:
145,241,125937,1,0,0:0:0:0:
140,253,126021,6,0,L|243:262,1,93.3333333333333,0|0,0:0|3:0,0:0:0:0:
319,233,126271,1,2,0:0:0:0:
298,48,126437,1,0,0:0:0:0:
287,39,126521,2,0,L|184:30,1,93.3333333333333,0|0,1:0|0:0,0:0:0:0:
119,68,126771,1,0,0:0:0:0:
188,120,126937,1,0,0:0:0:0:
194,131,127021,5,2,0:0:0:0:
374,166,127271,1,2,0:0:0:0:
337,338,127521,1,0,1:0:0:0:
156,307,127687,1,0,0:0:0:0:
164,296,127771,2,0,L|141:193,1,93.3333333333333,0|0,0:0|3:0,0:0:0:0:
194,131,128021,6,0,L|337:101,1,140,0|0,0:0|3:0,0:0:0:0:
355,123,128354,5,0,0:0:0:0:
379,144,128437,5,0,3:0:0:0:
402,167,128521,6,0,L|447:73,1,93.3333333333333,0|0,1:0|0:0,0:0:0:0:
465,237,128771,2,0,L|510:143,1,93.3333333333333,0|0,1:0|0:0,0:0:0:0:
427,369,129021,5,6,0:0:0:0:
259,340,129270,1,2,0:0:0:0:
292,172,129520,1,0,1:0:0:0:
456,204,129770,1,0,0:0:0:0:
475,282,129937,1,0,3:0:0:0:
458,295,130020,6,0,L|365:282,1,93.3333333333333,0|0,0:0|3:0,0:0:0:0:
297,314,130270,1,2,0:0:0:0:
258,162,130437,1,0,0:0:0:0:
269,145,130520,2,0,L|362:158,1,93.3333333333333,0|0,1:0|0:0,0:0:0:0:
430,126,130770,1,0,3:0:0:0:
335,28,130937,1,0,3:0:0:0:
323,17,131020,6,0,L|216:28,1,93.3333333333333,0|0,3:0|0:0,0:0:0:0:
174,73,131271,1,0,1:0:0:0:
120,244,131437,1,0,0:0:0:0:
132,259,131521,2,0,L|239:248,1,93.3333333333333,0|0,0:0|0:0,0:0:0:0:
281,203,131772,1,0,1:0:0:0:
186,151,131937,1,0,0:0:0:0:
177,142,132021,6,0,L|73:129,1,93.3333333333333,0|0,1:0|0:0,0:0:0:0:
49,342,132271,2,0,L|153:355,1,93.3333333333333,0|0,3:0|3:0,0:0:0:0:
15,175,132521,6,0,L|2:279,1,93.3333333333333,0|0,1:0|0:0,0:0:0:0:
215,303,132771,2,0,L|228:199,1,93.3333333333333,0|0,1:0|0:0,0:0:0:0:
140,28,133021,5,4,0:0:0:0:
140,28,134521,6,0,L|146:92,1,58.3333333333333,2|0,0:0|0:0,0:0:0:0:
155,157,135021,5,4,0:0:0:0:
181,146,135271,1,0,0:0:0:0:
223,90,135521,1,0,0:0:0:0:
177,19,135771,1,0,0:0:0:0:
65,23,136021,1,0,0:0:0:0:
6,134,136271,1,0,0:0:0:0:
52,266,136521,1,0,0:0:0:0:
192,328,136771,1,6,0:0:0:0:
346,261,137021,5,6,0:0:0:0:
415,92,137271,1,0,0:0:0:0:
236,12,137521,1,0,0:0:0:0:
92,165,137771,1,0,0:0:0:0:
227,343,138021,1,0,0:0:0:0:
456,281,138271,1,0,0:0:0:0:
476,29,138521,1,0,0:0:0:0:
215,0,138771,1,0,0:0:0:0:
102,33,138937,5,0,0:0:0:0:
37,74,139021,6,0,L|28:182,1,93.3333333333333,12|0,0:2|0:0,0:0:0:0:
475,310,139271,6,0,L|484:202,1,93.3333333333333,0|0,0:0|0:0,0:0:0:0:
37,74,139521,6,0,L|28:182,1,93.3333333333333,4|0,0:2|0:0,0:0:0:0:
475,310,139771,6,0,L|484:202,1,93.3333333333333,0|0,0:0|0:0,0:0:0:0:
143,197,140021,6,0,L|165:296,1,93.3333333333333,4|0,2:0|0:0,0:0:0:0:
369,187,140271,6,0,L|347:88,1,93.3333333333333,4|0,2:0|0:0,0:0:0:0:
255,191,140521,5,4,2:0:0:0:
255,191,141021,6,0,L|243:373,1,175,4|2,0:0|0:0,0:0:0:0:
490,197,141437,1,0,0:0:0:0:
434,144,141521,2,0,P|382:162|350:223,1,116.666666666667,0|0,1:0|0:0,0:0:0:0:
295,264,141771,2,0,P|266:313|212:332,1,116.666666666667,2|0,0:0|0:0,0:0:0:0:
29,263,142021,6,0,L|152:278,1,116.666666666667,0|8,0:0|0:0,0:0:0:0:
202,226,142271,1,2,0:0:0:0:
306,70,142437,1,0,0:0:0:0:
368,114,142521,2,0,L|489:77,1,116.666666666667,0|0,1:0|0:0,0:0:0:0:
313,191,142771,2,0,L|192:228,1,116.666666666667,2|0,0:0|0:0,0:0:0:0:
68,184,143021,6,0,P|23:123|33:60,1,116.666666666667,0|0,1:0|0:0,0:0:0:0:
153,27,143271,2,0,P|198:88|188:151,1,116.666666666667,2|0,0:0|0:0,0:0:0:0:
80,191,143521,6,0,P|35:130|45:67,1,116.666666666667,0|0,1:0|0:0,0:0:0:0:
165,34,143771,2,0,P|210:95|200:158,1,116.666666666667,2|0,0:0|1:0,0:0:0:0:
167,207,144021,6,0,L|136:383,1,175,0|2,1:0|0:0,0:0:0:0:
359,251,144437,1,0,1:0:0:0:
359,251,144521,2,0,P|419:229|477:235,1,116.666666666667,0|0,1:0|1:0,0:0:0:0:
297,310,144771,2,0,P|237:332|179:326,1,116.666666666667,2|0,0:0|1:0,0:0:0:0:
26,263,145021,5,4,0:0:0:0:
26,263,145271,2,0,L|47:380,1,116.666666666667,2|0,0:0|0:0,0:0:0:0:
202,245,145521,2,0,L|181:128,1,116.666666666667,0|0,1:0|0:0,0:0:0:0:
347,25,145771,2,0,L|368:142,1,116.666666666667,2|0,0:0|0:0,0:0:0:0:
490,205,146021,6,0,P|437:238|422:349,1,175,0|2,0:0|0:0,0:0:0:0:
271,373,146437,1,0,0:0:0:0:
195,363,146521,1,0,1:0:0:0:
20,201,146687,1,0,0:0:0:0:
94,182,146771,2,0,L|215:197,1,116.666666666667,2|0,0:0|0:0,0:0:0:0:
289,177,147021,6,0,L|268:62,1,116.666666666667,0|0,0:0|0:0,0:0:0:0:
427,10,147271,2,0,L|447:124,1,116.666666666667,2|0,0:0|0:0,0:0:0:0:
299,181,147521,6,0,L|278:66,1,116.666666666667,0|0,1:0|0:0,0:0:0:0:
437,14,147771,2,0,L|457:128,1,116.666666666667,2|8,0:0|0:0,0:0:0:0:
400,179,148021,6,0,P|383:235|415:291,1,116.666666666667,0|0,1:0|0:0,0:0:0:0:
489,310,148271,1,0,1:0:0:0:
255,270,148437,1,0,0:0:0:0:
186,350,148521,2,0,P|162:299|182:246,1,116.666666666667,0|0,1:0|1:0,0:0:0:0:
241,190,148771,2,0,L|314:178,2,58.3333333333333,0|0|0,1:0|1:0|1:0,0:0:0:0:
186,136,149021,6,0,L|5:123,1,175,4|2,0:0|0:0,0:0:0:0:
152,14,149437,1,0,0:0:0:0:
210,62,149521,2,0,L|332:35,1,116.666666666667,0|0,1:0|0:0,0:0:0:0:
492,122,149771,2,0,L|365:96,1,116.666666666667,2|0,0:0|0:0,0:0:0:0:
456,232,150021,6,0,L|502:367,1,116.666666666667,0|8,0:0|0:0,0:0:0:0:
356,205,150271,2,0,L|402:340,1,116.666666666667,2|0,0:0|0:0,0:0:0:0:
275,243,150521,6,0,L|237:353,1,116.666666666667,0|0,1:0|0:0,0:0:0:0:
175,270,150771,2,0,L|137:380,1,116.666666666667,2|0,0:0|0:0,0:0:0:0:
93,214,151021,5,4,0:0:0:0:
14,22,151271,1,2,0:0:0:0:
217,37,151521,1,4,0:0:0:0:
197,113,151771,2,0,L|74:133,1,116.666666666667,2|0,0:0|0:0,0:0:0:0:
19,207,152021,6,0,L|-3:76,1,116.666666666667,4|0,0:0|0:0,0:0:0:0:
169,242,152271,2,0,L|191:373,1,116.666666666667,4|0,0:0|0:0,0:0:0:0:
313,185,152521,2,0,L|291:54,1,116.666666666667,4|0,0:0|0:0,0:0:0:0:
463,220,152771,2,0,L|485:351,1,116.666666666667,0|0,1:0|1:0,0:0:0:0:
416,373,153021,5,4,0:0:0:0:
416,373,153271,2,0,P|365:378|308:335,1,116.666666666667,2|0,0:0|0:0,0:0:0:0:
272,272,153521,2,0,P|225:238|168:241,1,116.666666666667,0|0,1:0|0:0,0:0:0:0:
102,280,153771,5,2,0:0:0:0:
27,64,153937,1,2,0:0:0:0:
7,137,154021,2,0,P|74:156|156:81,1,175,0|2,0:0|0:0,0:0:0:0:
505,247,154521,2,0,P|438:228|356:303,1,175,0|0,1:0|1:0,0:0:0:0:
292,320,154854,5,0,1:0:0:0:
286,336,154937,5,0,1:0:0:0:
279,352,155021,6,0,L|157:374,1,116.666666666667,0|0,1:0|0:0,0:0:0:0:
53,262,155271,2,0,L|175:240,1,116.666666666667,0|0,1:0|0:0,0:0:0:0:
256,116,155521,2,0,L|134:138,1,116.666666666667,0|0,1:0|0:0,0:0:0:0:
30,26,155771,2,0,L|152:4,1,116.666666666667,0|0,1:0|0:0,0:0:0:0:
255,2,156021,5,4,1:0:0:0:
255,2,156271,1,4,1:0:0:0:
255,2,156521,1,4,1:0:0:0:
255,382,157021,5,4,0:0:0:0:
500,264,165021,6,0,L|376:248,1,93.3333333333333,2|0,0:0|0:0,0:0:0:0:
468,337,165271,2,0,L|344:321,1,93.3333333333333,2|0,0:0|0:0,0:0:0:0:
306,357,165521,1,0,0:0:0:0:
250,298,165646,2,0,P|205:301|166:352,1,93.3333333333333,2|0,0:0|0:0,0:0:0:0:
168,357,165896,6,0,L|21:369,1,140,2|0,0:0|0:0,0:0:0:0:
57,207,166271,2,0,L|168:200,1,93.3333333333333,2|0,0:0|0:0,0:0:0:0:
248,17,166521,2,0,P|197:2|119:47,1,140,0|0,0:0|0:0,0:0:0:0:
90,109,166896,1,0,0:0:0:0:
157,175,167021,6,0,L|168:280,1,93.3333333333333,2|0,0:0|0:0,0:0:0:0:
233,145,167271,2,0,L|244:250,1,93.3333333333333,0|0,0:0|0:0,0:0:0:0:
302,287,167521,1,0,0:0:0:0:
382,346,167687,2,0,P|423:297|507:294,1,140,2|0,0:0|0:0,0:0:0:0:
468,200,168021,6,0,L|482:91,1,93.3333333333333,0|0,0:0|0:0,0:0:0:0:
341,54,168271,2,0,L|327:163,1,93.3333333333333,2|0,0:0|0:0,0:0:0:0:
242,237,168521,2,0,P|208:212|101:242,1,140,0|0,0:0|0:0,0:0:0:0:
33,342,168937,1,0,0:0:0:0:
33,342,169021,6,0,L|140:364,1,93.3333333333333,2|0,0:0|0:0,0:0:0:0:
142,351,169271,2,0,L|249:373,1,93.3333333333333,0|0,0:0|0:0,0:0:0:0:
300,332,169521,1,0,0:0:0:0:
209,214,169646,2,0,L|111:226,1,93.3333333333333,2|0,0:0|0:0,0:0:0:0:
46,200,169896,6,0,P|25:142|62:71,1,140,2|0,0:0|0:0,0:0:0:0:
158,77,170271,2,0,L|265:99,1,93.3333333333333,2|0,0:0|0:0,0:0:0:0:
442,106,170521,2,0,P|445:45|367:4,1,140,0|0,0:0|0:0,0:0:0:0:
364,125,170896,1,0,0:0:0:0:
295,159,171021,6,0,L|283:268,1,93.3333333333333,2|0,0:0|0:0,0:0:0:0:
302,257,171271,2,0,L|290:366,1,93.3333333333333,0|0,0:0|0:0,0:0:0:0:
357,379,171521,1,0,0:0:0:0:
470,343,171687,2,0,P|493:281|443:213,1,140,2|0,0:0|0:0,0:0:0:0:
388,250,172021,6,0,L|291:260,1,93.3333333333333,0|0,0:0|0:0,0:0:0:0:
132,205,172271,2,0,L|224:195,1,93.3333333333333,2|0,0:0|0:0,0:0:0:0:
192,311,172521,2,0,P|147:357|51:340,1,140,0|0,1:0|3:0,0:0:0:0:
16,160,172937,1,0,3:0:0:0:
16,160,173021,5,12,0:0:0:0:
16,160,173521,1,8,0:0:0:0:
16,160,174021,1,8,0:0:0:0:
16,160,174521,1,8,0:0:0:0:
161,30,175021,5,8,0:0:0:0:
161,30,175521,1,8,0:0:0:0:
161,30,176021,1,8,0:0:0:0:
161,30,176521,1,8,0:0:0:0:
174,227,177021,5,8,0:0:0:0:
174,227,177521,1,8,0:0:0:0:
174,227,178021,1,8,0:0:0:0:
174,227,178521,1,8,0:0:0:0:
305,363,179021,5,4,0:3:0:0:
383,382,179521,1,0,0:0:0:0:
401,311,180021,1,0,0:0:0:0:
328,290,180521,1,8,0:3:0:0:
401,311,180771,6,0,L|485:319,1,70.0000026702882,0|0,0:0|0:0,0:0:0:0:
421,187,181021,6,0,P|365:151|301:163,1,105.000004005432
260,202,181437,1,0,0:0:0:0:
260,202,181687,1,0,0:0:0:0:
260,202,181937,1,0,0:0:0:0:
216,269,182187,1,0,0:0:0:0:
216,269,182271,2,0,L|223:358,1,70.0000026702882,0|0,0:0|0:0,0:0:0:0:
293,373,182521,2,0,L|414:377,1,105.000004005432
450,257,182937,1,0,0:0:0:0:
421,187,183021,6,0,P|365:151|301:163,1,105.000004005432,0|0,0:0|0:0,0:0:0:0:
260,202,183437,1,0,0:0:0:0:
260,202,183687,1,0,0:0:0:0:
260,202,183937,1,0,0:0:0:0:
193,145,184187,1,0,0:0:0:0:
193,145,184271,2,0,L|186:56,1,70.0000026702882,0|0,0:0|0:0,0:0:0:0:
116,41,184521,2,0,L|-5:37,1,105.000004005432
40,181,184937,1,0,0:0:0:0:
54,262,185021,6,0,P|110:298|174:286,1,105.000004005432,0|0,0:0|0:0,0:0:0:0:
219,271,185437,1,0,0:0:0:0:
219,271,185687,1,0,0:0:0:0:
219,271,185937,1,0,0:0:0:0:
295,291,186187,1,0,0:0:0:0:
295,291,186271,2,0,L|301:361,1,70.0000026702882,0|0,0:0|0:0,0:0:0:0:
378,361,186521,2,0,L|499:365,1,105.000004005432,0|0,0:0|0:0,0:0:0:0:
497,195,187021,5,2,0:0:0:0:
417,180,187271,1,0,0:0:0:0:
406,190,187396,1,2,0:0:0:0:
329,207,187646,1,0,0:0:0:0:
318,217,187771,1,2,0:0:0:0:
247,235,188021,1,2,0:0:0:0:
236,245,188146,1,0,0:0:0:0:
161,257,188437,1,0,0:0:0:0:
150,267,188521,5,2,0:0:0:0:
