osu file format v14

[General]
AudioFilename: audio.mp3
AudioLeadIn: 0
PreviewTime: 40021
Countdown: 1
SampleSet: Soft
StackLeniency: 0.7
Mode: 0
LetterboxInBreaks: 0
WidescreenStoryboard: 1

[Editor]
Bookmarks: 25021,41021,73104,89021,105604,107021,121521,141021,154521,165021,173021,181021
DistanceSpacing: 1
BeatDivisor: 6
GridSize: 4
TimelineZoom: 1.8

[Metadata]
Title:Mabel
TitleUnicode:メーベル
Artist:Balloon
ArtistUnicode:バルーン
Creator:[Mahua]
Version:Easy
Source:
Tags:Japanese Pop 須田景凪 Suda Keina Vocaloid flower v-flower ボーカロイド フラワ ブイフラワ spboxer3 Flask
BeatmapID:2131400
BeatmapSetID:1017565

[Difficulty]
HPDrainRate:2
CircleSize:3
OverallDifficulty:2
ApproachRate:4
SliderMultiplier:1.2
SliderTickRate:1

[Events]
//Background and Video events
0,0,"60376627_p0_master1200.jpg",0,0
Video,-240,"mabel.avi"
//Break Periods
2,9221,21701
2,57221,69701
2,105221,111701
2,161221,171701
//Storyboard Layer 0 (Background)
//Storyboard Layer 1 (Fail)
//Storyboard Layer 2 (Pass)
//Storyboard Layer 3 (Foreground)
//Storyboard Layer 4 (Overlay)
//Storyboard Sound Samples

[TimingPoints]
-979,500,4,2,1,15,1,0
771,-100,4,2,1,15,0,0
1021,-100,4,2,1,30,0,0
8937,-100,4,2,1,40,0,0
9021,-100,4,2,1,60,0,0
24271,-100,4,2,1,40,0,0
24521,-100,4,2,1,60,0,0
24771,-100,4,2,1,80,0,0
25521,-100,4,2,2,60,0,0
27021,-100,4,2,2,60,0,0
32021,-100,4,2,2,60,0,0
33021,-100,4,2,1,60,0,0
40271,-100,4,1,1,35,0,0
41021,-100,4,2,1,80,0,0
56271,-100,4,2,1,80,0,0
56521,-100,4,2,1,80,0,0
57021,-100,4,2,1,80,0,0
73771,-100,4,2,1,80,0,0
89021,-100,4,2,1,80,0,0
103771,-100,4,2,1,80,0,0
104021,-100,4,2,1,80,0,0
104521,-100,4,2,1,80,0,0
105021,-100,4,2,2,80,0,0
105104,-100,4,2,2,40,0,0
109021,-100,4,2,2,50,0,0
113021,-100,4,2,2,60,0,0
117021,-100,4,2,2,70,0,0
119771,-100,4,1,1,50,0,0
120271,-100,4,1,1,50,0,0
120521,-100,4,1,1,50,0,0
121021,-100,4,2,2,65,0,0
134521,-100,4,1,1,30,0,0
135021,-100,4,1,1,30,0,0
139021,-100,4,1,1,30,0,0
141021,-100,4,2,1,80,0,0
157021,-100,4,2,1,80,0,0
165021,-100,4,2,1,65,0,0
173021,-100,4,2,1,45,0,0
180771,-100,4,2,1,45,0,0
187021,-100,4,2,1,30,0,0

[Colours]
Combo1 : 255,192,0
Combo2 : 255,0,128
Combo3 : 255,143,32
Combo4 : 245,97,119

[HitObjects]
362,297,1021,6,0,P|351:239|365:181,1,120,0|0,0:0|0:0,0:0:0:0:
303,78,2021,2,0,P|285:135|246:179,1,120,0|2,0:0|0:0,0:0:0:0:
134,135,3021,2,0,L|146:254,1,120,0|0,0:0|0:0,0:0:0:0:
228,342,4021,2,0,L|240:222,1,120,0|2,0:0|0:0,0:0:0:0:
224,103,5021,6,0,P|275:133|334:137,1,120,0|0,0:0|0:0,0:0:0:0:
414,227,6021,2,0,P|360:253|301:253,1,120,0|2,0:0|0:0,0:0:0:0:
216,167,7021,5,8,0:0:0:0:
99,193,7521,1,0,0:0:0:0:
125,310,8021,1,0,0:0:0:0:
242,284,8521,1,2,0:1:0:0:
216,167,9021,5,6,0:0:0:0:
256,192,23021,12,4,25021,0:0:0:0:
93,102,26021,6,0,P|82:160|95:218,1,120,2|0,0:0|0:0,0:0:0:0:
198,280,27021,2,0,P|211:221|200:163,1,120,2|2,0:0|0:0,0:0:0:0:
161,50,28021,2,0,P|245:54|292:49,1,120,2|2,0:0|0:0,0:0:0:0:
398,75,29021,6,0,P|399:134|431:184,1,120,2|2,0:0|0:0,0:0:0:0:
319,228,30021,2,0,P|317:287|286:337,1,120,2|2,0:0|0:0,0:0:0:0:
171,301,31021,2,0,L|51:314,1,120,2|2,0:0|0:0,0:0:0:0:
104,206,32021,2,0,L|98:140,2,60,2|0|2,0:0|0:1|1:2,0:0:0:0:
171,301,33021,6,0,P|226:302|285:249,1,120,4|0,0:0|1:0,0:0:0:0:
241,149,34021,2,0,P|186:148|127:201,1,120,0|0,0:0|1:0,0:0:0:0:
67,85,35021,6,0,L|126:74,1,60,0|2,0:0|0:0,0:0:0:0:
184,62,35521,1,0,1:0:0:0:
304,43,36021,2,0,P|295:108|334:163,1,120,0|0,0:0|1:0,0:0:0:0:
365,264,37021,6,0,L|245:250,1,120,4|0,0:0|1:0,0:0:0:0:
174,346,38021,2,0,L|54:332,1,120,0|0,0:0|1:0,0:0:0:0:
131,239,39021,2,0,P|137:175|108:105,1,120,4|4,0:0|0:0,0:0:0:0:
239,134,40021,5,4,0:0:0:0:
352,143,40521,1,0,0:0:0:0:
437,74,41021,6,0,P|403:194|450:309,1,240,4|0,0:0|0:0,0:0:0:0:
333,350,42521,1,0,1:0:0:0:
328,230,43021,6,0,P|282:121|181:60,1,240,0|2,1:0|0:0,0:0:0:0:
61,69,44521,1,0,1:0:0:0:
113,177,45021,6,0,P|124:235|123:295,1,120,4|0,0:0|1:0,0:0:0:0:
229,353,46021,2,0,P|228:293|239:234,1,120,8|0,0:0|1:0,0:0:0:0:
316,141,47021,6,0,P|349:147|440:125,1,120,0|0,1:0|1:0,0:0:0:0:
482,96,47771,1,0,1:0:0:0:
470,215,48271,2,0,B|459:338|459:338|434:284,1,180,0|4,1:0|0:0,0:0:0:0:
401,171,49521,5,0,1:0:0:0:
281,184,50021,1,0,0:0:0:0:
161,198,50521,1,0,1:0:0:0:
51,149,51021,2,0,P|68:205|56:263,1,120,0|0,0:0|1:0,0:0:0:0:
176,254,52021,2,0,P|139:301|131:359,1,120,0|0,1:0|1:0,0:0:0:0:
249,339,53021,6,0,L|366:315,1,120,4|0,0:0|1:0,0:0:0:0:
399,200,54021,2,0,L|281:223,1,120,0|0,0:0|1:0,0:0:0:0:
165,253,55021,6,0,P|203:181|192:126,1,120,0|0,1:0|1:0,0:0:0:0:
124,51,56021,2,0,L|53:60,2,60,0|0|0,1:0|1:0|1:0,0:0:0:0:
243,38,57021,1,4,0:0:0:0:
256,192,71021,12,4,73021,0:0:0:0:
430,34,74021,6,0,P|439:128|343:107,1,220,8|4,0:0|0:0,0:0:0:0:
344,110,76021,2,0,P|260:114|213:109,1,120,0|4,1:0|0:0,0:0:0:0:
114,75,77021,6,0,P|112:134|81:184,1,120,8|0,0:0|1:0,0:0:0:0:
193,228,78021,2,0,P|194:287|226:337,1,120,8|0,0:0|1:0,0:0:0:0:
341,301,79021,2,0,L|460:314,1,120,8|0,0:0|1:0,0:0:0:0:
408,206,80021,2,0,L|414:140,2,60,0|0|0,0:0|0:0|1:0,0:0:0:0:
341,301,81021,6,0,P|286:302|227:249,1,120,12|0,0:0|1:0,0:0:0:0:
271,149,82021,2,0,P|326:148|385:201,1,120,8|0,0:0|1:0,0:0:0:0:
444,85,83021,5,8,0:0:0:0:
326,63,83521,2,0,L|267:52,1,60,0|0,1:0|0:0,0:0:0:0:
208,43,84021,2,0,P|217:108|178:163,1,120,8|0,0:0|1:0,0:0:0:0:
147,264,85021,6,0,L|266:250,1,120,12|0,0:0|1:0,0:0:0:0:
338,346,86021,2,0,L|457:332,1,120,8|0,0:0|1:0,0:0:0:0:
381,239,87021,2,0,P|375:175|404:105,1,120,4|4,0:0|0:0,0:0:0:0:
301,44,88021,6,0,L|354:10,2,60,4|4|4,0:0|0:0|0:0,0:0:0:0:
181,58,89021,6,0,P|148:155|44:240,1,240,4|0,0:0|0:0,0:0:0:0:
125,328,90521,1,0,1:0:0:0:
184,230,91021,6,0,P|229:121|330:60,1,240
451,69,92521,1,0,1:0:0:0:
399,177,93021,6,0,P|387:235|388:295,1,120,4|0,0:0|1:0,0:0:0:0:
283,353,94021,2,0,P|283:293|272:234,1,120,0|0,0:0|1:0,0:0:0:0:
196,141,95021,6,0,P|162:147|72:125,1,120,0|0,0:0|1:0,0:0:0:0:
30,96,95771,1,2,0:0:0:0:
42,215,96271,2,0,B|53:338|53:338|78:284,1,180,0|4,1:0|0:0,0:0:0:0:
111,171,97521,5,0,1:0:0:0:
231,184,98021,1,0,0:0:0:0:
351,198,98521,1,0,1:0:0:0:
460,149,99021,2,0,P|443:205|455:263,1,120,0|0,1:0|1:0,0:0:0:0:
336,254,100021,2,0,P|372:301|380:359,1,120,0|0,1:0|1:0,0:0:0:0:
263,339,101021,6,0,L|145:315,1,120,4|0,0:0|1:0,0:0:0:0:
113,200,102021,2,0,L|230:223,1,120,4|0,0:0|1:0,0:0:0:0:
347,253,103021,6,0,P|304:228|305:109,1,180,4|0,0:0|1:0,0:0:0:0:
360,89,104021,2,0,L|431:98,2,60,0|0|0,1:0|1:0|1:0,0:0:0:0:
242,64,105021,1,6,0:0:0:0:
215,287,113021,6,0,P|345:350|316:208,1,360,6|8,0:0|0:0,0:0:0:0:
195,208,115021,2,0,P|166:350|296:286,1,360,2|8,0:0|3:2,0:0:0:0:
379,198,117021,2,0,B|425:123|406:25|406:25|327:87|315:174,1,360,2|8,0:0|0:0,0:0:0:0:
194,174,119021,2,0,B|182:87|103:25|103:25|84:123|131:198,1,360,8|0,0:3|0:0,0:0:0:0:
212,288,121021,6,0,P|332:267|450:291,1,240,6|0,0:0|0:0,0:0:0:0:
438,169,122521,1,0,1:0:0:0:
326,127,123021,2,0,P|307:74|316:10,1,120,2|0,0:0|1:0,0:0:0:0:
196,11,124021,2,0,P|204:69|186:126,1,120,0|0,0:0|1:0,0:0:0:0:
67,106,125021,6,0,P|99:177|82:342,1,240,2|0,0:0|0:0,0:0:0:0:
26,230,126521,1,0,1:0:0:0:
67,106,127021,6,0,P|122:84|182:85,1,120,2|0,0:0|1:0,0:0:0:0:
239,191,128021,2,0,P|289:222|348:230,1,120,0|0,0:0|1:0,0:0:0:0:
427,139,129021,6,0,P|509:211|446:300,1,240,6|0,0:0|0:0,0:0:0:0:
327,316,130521,1,0,1:0:0:0:
209,338,131021,6,0,L|192:219,1,120,0|0,3:0|0:0,0:0:0:0:
76,187,132021,2,0,L|92:68,1,120,0|0,1:0|1:0,0:0:0:0:
256,192,133021,12,4,135021,0:0:0:0:
227,257,136021,6,0,P|256:205|262:146,1,120,0|0,0:0|0:0,0:0:0:0:
365,83,137021,6,0,L|382:154,1,60,6|0,0:0|0:0,0:0:0:0:
395,198,137521,2,0,L|324:215,1,60,0|0,0:0|0:0,0:0:0:0:
280,228,138021,2,0,L|263:157,1,60,0|0,0:0|0:0,0:0:0:0:
250,113,138521,2,0,L|321:96,2,60,0|0|12,0:0|0:0|0:2,0:0:0:0:
250,113,140271,6,0,L|321:96,2,60,4|4|0,2:0|2:0|0:0,0:0:0:0:
192,96,141021,2,0,P|215:149|199:206,1,120,4|0,0:0|1:0,0:0:0:0:
80,224,142021,2,0,P|56:170|72:113,1,120,0|0,0:0|1:0,0:0:0:0:
177,54,143021,6,0,L|251:66,1,60,0|2,1:0|0:0,0:0:0:0:
295,72,143521,2,0,L|369:84,1,60,0|2,1:0|0:0,0:0:0:0:
410,59,144021,2,0,P|399:117|409:176,1,120,0|0,1:0|1:0,0:0:0:0:
475,276,145021,5,4,0:0:0:0:
356,257,145521,1,0,1:0:0:0:
263,333,146021,5,0,0:0:0:0:
144,352,146521,1,0,1:0:0:0:
35,300,147021,2,0,P|62:228|54:63,1,240,0|0,0:0|1:0,0:0:0:0:
170,100,148521,2,0,L|244:82,1,60,0|0,1:0|1:0,0:0:0:0:
286,69,149021,6,0,P|342:88|401:95,1,120,4|0,0:0|1:0,0:0:0:0:
364,209,150021,2,0,P|420:189|479:182,1,120,0|0,0:0|1:0,0:0:0:0:
439,295,151021,6,0,L|428:360,1,60,4|2,0:0|0:0,0:0:0:0:
368,354,151521,2,0,L|357:294,1,60,4|2,0:0|0:0,0:0:0:0:
303,320,152021,2,0,P|247:340|188:330,1,120,4|4,0:0|0:0,0:0:0:0:
129,226,153021,5,4,0:0:0:0:
114,106,153521,1,0,1:0:0:0:
222,54,154021,1,0,0:0:0:0:
207,174,154521,1,0,1:0:0:0:
320,133,155021,6,0,L|394:139,1,60,0|0,1:0|1:0,0:0:0:0:
439,142,155521,2,0,L|513:148,1,60,0|0,1:0|1:0,0:0:0:0:
485,205,156021,2,0,L|470:271,2,60,4|4|4,1:0|1:0|1:0,0:0:0:0:
256,192,157021,12,0,161021,0:0:0:0:
405,95,173021,6,0,P|385:157|397:223,1,120,12|8,0:0|0:0,0:0:0:0:
282,162,174021,2,0,P|302:224|290:290,1,120,8|8,0:0|0:0,0:0:0:0:
178,306,175021,2,0,L|51:298,1,120,8|8,0:0|0:0,0:0:0:0:
27,182,176021,2,0,L|146:174,1,120,8|8,0:0|0:0,0:0:0:0:
238,97,177021,6,0,P|264:153|250:220,1,120,8|8,0:0|0:0,0:0:0:0:
146,174,178021,2,0,L|26:166,1,120,8|8,0:0|0:0,0:0:0:0:
64,52,179021,2,0,L|183:44,1,120,4|0,0:3|0:0,0:0:0:0:
289,101,180021,6,0,L|361:91,1,60,0|0,0:0|0:0,0:0:0:0:
407,83,180521,2,0,L|379:150,1,60,8|0,0:3|0:0,0:0:0:0:
359,192,181021,6,0,B|322:233|324:330|383:353|383:353|443:330,1,240,0|0,0:0|0:0,0:0:0:0:
458,215,182521,1,0,0:0:0:0:
359,192,183021,6,0,B|322:151|324:54|383:31|383:31|433:50,1,240,0|0,0:0|0:0,0:0:0:0:
458,169,184521,1,0,0:0:0:0:
439,287,185021,6,0,L|172:307,1,240,0|0,0:0|0:0,0:0:0:0:
97,241,186521,1,0,0:0:0:0:
256,192,187021,12,0,189021,0:0:0:0:
