osu file format v14

[General]
AudioFilename: audio.mp3
AudioLeadIn: 0
PreviewTime: 117890
Countdown: 0
SampleSet: Soft
StackLeniency: 0.3
Mode: 0
LetterboxInBreaks: 0
WidescreenStoryboard: 1

[Editor]
DistanceSpacing: 2.2
BeatDivisor: 8
GridSize: 32
TimelineZoom: 1.6

[Metadata]
Title:Roll 'n Rock
TitleUnicode:Roll 'n Rock
Artist:Bali Bandits
ArtistUnicode:Bali Bandits
Creator:SMOKELIND
Version:alevi's Insane
Source:
Tags:TikTok and YouTube & Shorts Dance Honkai Impact 3rd 崩坏3 Bronya Zaychik Shake it Sistar 씨스타 Electronic Instrumental Future House English alevi pepekcz kirishima-
BeatmapID:3920938
BeatmapSetID:1901736

[Difficulty]
HPDrainRate:4.8
CircleSize:4.3
OverallDifficulty:8
ApproachRate:9
SliderMultiplier:3.19999990463257
SliderTickRate:1

[Events]
//Background and Video events
0,0,"BG.jpg",0,0
Video,44444,"vid.mp4"
//Break Periods
2,74965,81665
//Storyboard Layer 0 (Background)
//Storyboard Layer 1 (Fail)
//Storyboard Layer 2 (Pass)
//Storyboard Layer 3 (Foreground)
//Storyboard Layer 4 (Overlay)
//Storyboard Sound Samples

[TimingPoints]
-235,468.75,4,2,77,47,1,0
14530,-142.857142857143,4,2,77,47,0,0
14765,-142.857142857143,4,2,77,57,0,0
20390,-250.000000000001,4,2,77,57,0,0
20624,-166.666666666667,4,2,77,57,0,0
20858,-125,4,2,77,57,0,0
22265,-142.857142857143,4,2,77,57,0,0
28358,-333.333333333333,4,2,77,57,0,0
29765,-166.666666666667,4,2,77,57,0,0
30702,-125,4,2,77,57,0,0
31405,-166.666666666667,4,2,77,57,0,0
32577,-125,4,2,77,57,0,0
33280,-125,4,2,77,57,0,0
33515,-111.111111111111,4,2,77,67,0,0
37265,-99.9999999999999,4,2,77,77,0,0
39140,-90.9090909090909,4,2,77,77,0,0
44296,-333.333333333333,4,2,77,77,0,0
44765,-83.3333333333333,4,2,77,77,0,0
45702,-500,4,2,77,77,0,0
46640,-83.3333333333333,4,2,77,77,0,0
47577,-500,4,2,77,77,0,0
48515,-83.3333333333333,4,2,77,77,0,0
48924,-83.3333333333333,4,2,77,5,0,0
48983,-125,4,2,77,77,0,0
49158,-125,4,2,77,5,0,0
49218,-250,4,2,77,77,0,0
49393,-250,4,2,77,5,0,0
49452,-500,4,2,77,77,0,0
50565,-500,4,2,77,5,0,0
50624,-83.3333333333333,4,2,77,77,0,0
50858,-500,4,2,77,77,0,0
51033,-500,4,2,77,5,0,0
51093,-83.3333333333333,4,2,77,77,0,0
51327,-166.666666666667,4,2,77,77,0,0
51502,-166.666666666667,4,2,77,5,0,0
51561,-166.666666666667,4,2,77,77,0,0
51736,-166.666666666667,4,2,77,5,0,0
51796,-111.111111111111,4,2,77,77,0,0
52265,-83.3333333333333,4,2,77,77,0,0
52557,-83.3333333333333,4,2,77,5,0,0
52616,-83.3333333333333,4,2,77,77,0,0
52674,-83.3333333333333,4,2,77,5,0,0
52733,-83.3333333333333,4,2,77,77,0,0
53202,-500,4,2,77,77,0,0
54140,-83.3333333333333,4,2,77,77,0,0
55077,-500,4,2,77,77,0,0
56015,-83.3333333333333,4,2,77,77,0,0
56424,-83.3333333333333,4,2,77,5,0,0
56483,-125,4,2,77,77,0,0
56658,-125,4,2,77,5,0,0
56718,-250.000000000001,4,2,77,77,0,0
56893,-250.000000000001,4,2,77,5,0,0
56952,-500.000000000003,4,2,77,77,0,0
58358,-166.666666666666,4,2,77,57,0,0
59765,-83.3333333333333,4,2,77,77,0,0
61640,-83.3333333333333,4,2,77,77,0,0
63515,-83.3333333333333,4,2,77,77,0,0
63807,-83.3333333333333,4,2,77,5,0,0
63866,-83.3333333333333,4,2,77,77,0,0
63924,-83.3333333333333,4,2,77,5,0,0
63983,-83.3333333333333,4,2,77,77,0,0
64158,-83.3333333333333,4,2,77,5,0,0
64218,-125,4,2,77,77,0,0
64393,-125,4,2,77,5,0,0
64452,-500,4,2,77,77,0,0
65390,-83.3333333333333,4,2,77,77,0,0
66327,-500,4,2,77,67,0,0
66796,-166.666666666667,4,2,77,57,0,0
67030,-111.111111111111,4,2,77,57,0,0
67265,-83.3333333333333,4,2,77,77,0,0
67557,-83.3333333333333,4,2,77,5,0,0
67616,-83.3333333333333,4,2,77,77,0,0
67674,-83.3333333333333,4,2,77,5,0,0
67733,-83.3333333333333,4,2,77,77,0,0
69140,-83.3333333333333,4,2,77,77,0,0
70077,-500,4,2,77,77,0,0
70546,-83.3333333333333,4,2,77,77,0,0
71307,-83.3333333333333,4,2,77,5,0,0
71366,-83.3333333333333,4,2,77,77,0,0
71424,-83.3333333333333,4,2,77,5,0,0
71483,-83.3333333333333,4,2,77,77,0,0
71952,-500,4,2,77,77,0,0
73358,-166.666666666667,4,2,77,57,0,0
74765,-166.666666666667,4,2,77,77,0,0
75233,-166.666666666667,4,2,77,67,0,0
75702,-166.666666666667,4,2,77,57,0,0
76171,-166.666666666667,4,2,77,47,0,0
82265,-1000,4,2,77,47,0,0
89765,-111.111111111111,4,2,77,57,0,0
102890,-500,4,2,77,57,0,0
103358,-166.666666666667,4,2,77,57,0,0
104765,-166.666666666667,4,2,77,57,0,0
105702,-125,4,2,77,57,0,0
106640,-166.666666666667,4,2,77,57,0,0
107577,-125,4,2,77,57,0,0
108515,-125,4,2,77,67,0,0
109452,-111.111111111111,4,2,77,67,0,0
112265,-99.9999999999999,4,2,77,77,0,0
114140,-90.9090909090909,4,2,77,77,0,0
119765,-83.3333333333333,4,2,77,77,0,0
120702,-500,4,2,77,77,0,0
121640,-83.3333333333333,4,2,77,77,0,0
122577,-500,4,2,77,77,0,0
123515,-83.3333333333333,4,2,77,77,0,0
123924,-83.3333333333333,4,2,77,5,0,0
123983,-125,4,2,77,77,0,0
124158,-125,4,2,77,5,0,0
124218,-250,4,2,77,77,0,0
124393,-250,4,2,77,5,0,0
124452,-500,4,2,77,77,0,0
125565,-500,4,2,77,5,0,0
125624,-83.3333333333333,4,2,77,77,0,0
125858,-500,4,2,77,77,0,0
126033,-500,4,2,77,5,0,0
126093,-83.3333333333333,4,2,77,77,0,0
126327,-166.666666666667,4,2,77,77,0,0
126502,-166.666666666667,4,2,77,5,0,0
126561,-166.666666666667,4,2,77,77,0,0
126736,-166.666666666667,4,2,77,5,0,0
126796,-111.111111111111,4,2,77,77,0,0
127265,-83.3333333333333,4,2,77,77,0,0
127557,-83.3333333333333,4,2,77,5,0,0
127616,-83.3333333333333,4,2,77,77,0,0
127674,-83.3333333333333,4,2,77,5,0,0
127733,-83.3333333333333,4,2,77,77,0,0
128202,-500,4,2,77,77,0,0
129140,-83.3333333333333,4,2,77,77,0,0
130077,-500,4,2,77,77,0,0
131015,-83.3333333333333,4,2,77,77,0,0
131424,-83.3333333333333,4,2,77,5,0,0
131483,-125,4,2,77,77,0,0
131658,-125,4,2,77,5,0,0
131718,-250,4,2,77,77,0,0
131893,-250,4,2,77,5,0,0
131952,-500,4,2,77,77,0,0
133358,-166.666666666667,4,2,77,57,0,0
134765,-83.3333333333333,4,2,77,77,0,0
138807,-83.3333333333333,4,2,77,5,0,0
138866,-83.3333333333333,4,2,77,77,0,0
138924,-83.3333333333333,4,2,77,5,0,0
138983,-83.3333333333333,4,2,77,77,0,0
139158,-83.3333333333333,4,2,77,5,0,0
139218,-125,4,2,77,77,0,0
139393,-125,4,2,77,5,0,0
139452,-500,4,2,77,77,0,0
140390,-83.3333333333333,4,2,77,77,0,0
141327,-500,4,2,77,67,0,0
141793,-500,4,2,77,57,0,0
141796,-166.666666666667,4,2,77,57,0,0
142030,-111.111111111111,4,2,77,57,0,0
142265,-83.3333333333333,4,2,77,77,0,0
142557,-83.3333333333333,4,2,77,5,0,0
142616,-83.3333333333333,4,2,77,77,0,0
142674,-83.3333333333333,4,2,77,5,0,0
142733,-83.3333333333333,4,2,77,77,0,0
145077,-500,4,2,77,77,0,0
145546,-83.3333333333333,4,2,77,77,0,0
146307,-83.3333333333333,4,2,77,5,0,0
146366,-83.3333333333333,4,2,77,77,0,0
146424,-83.3333333333333,4,2,77,5,0,0
146483,-83.3333333333333,4,2,77,77,0,0
146658,-83.3333333333333,4,2,77,5,0,0
146718,-125,4,2,77,77,0,0
146893,-125,4,2,77,5,0,0
146952,-500,4,2,77,77,0,0
148355,-500,4,2,77,57,0,0
148358,-166.666666666667,4,2,77,57,0,0
149296,-250.000000000001,4,2,77,57,0,0
149765,-250.000000000001,4,2,77,17,0,0

[Colours]
Combo1 : 79,83,255
Combo2 : 233,233,233

[HitObjects]
503,104,14530,6,0,B|512:77|512:77|486:59,1,55.9999966220857
431,154,14765,2,0,B|332:171|389:218|288:248,1,167.999989866257,2|0,0:0|0:0,0:0:0:0:
232,202,15233,2,0,P|209:169|246:192,1,111.999993244171,10|0,0:0|0:0,0:0:0:0:
58,376,15702,6,0,P|94:327|80:268,1,111.999993244171,2|2,0:0|0:0,0:0:0:0:
128,211,16054,1,0,0:0:0:0:
128,211,16171,2,0,P|113:189|109:157,1,55.9999966220857,10|0,0:0|0:0,0:0:0:0:
49,102,16405,2,0,P|18:98|-7:73,1,55.9999966220857,2|0,0:0|0:0,0:0:0:0:
232,202,16757,6,0,P|287:192|321:143,1,111.999993244171,2|0,0:0|0:0,0:0:0:0:
391,107,17108,1,10,0:0:0:0:
391,107,17343,1,2,0:0:0:0:
162,22,17577,6,0,P|182:73|196:128,1,111.999993244171,2|2,0:0|0:0,0:0:0:0:
232,202,17929,1,0,0:0:0:0:
232,202,18046,2,0,P|208:222|177:228,1,55.9999966220857,10|0,0:0|0:0,0:0:0:0:
279,136,18280,2,0,P|305:143|326:162,1,55.9999966220857,2|0,0:0|0:0,0:0:0:0:
432,376,18632,6,0,P|376:357|312:344,1,111.999993244171,2|0,0:0|0:0,0:0:0:0:
251,374,18983,2,0,P|213:321|248:287,1,111.999993244171,10|2,0:0|0:0,0:0:0:0:
324,345,19452,6,0,P|378:357|431:375,1,111.999993244171,2|2,0:0|0:0,0:0:0:0:
482,316,19804,1,2,0:0:0:0:
487,319,19921,2,0,P|510:271|471:236,1,111.999993244171,10|0,0:0|0:0,0:0:0:0:
357,105,20390,6,0,P|339:102|319:91,1,31.9999990463257,2|0,0:0|0:0,0:0:0:0:
275,157,20624,2,0,P|253:160|228:174,1,47.9999971046449,2|0,0:0|0:0,0:0:0:0:
154,111,20858,2,0,P|137:74|131:41,1,63.9999980926514,10|0,0:0|0:0,0:0:0:0:
67,144,21093,2,0,P|59:113|45:84,1,63.9999980926514,2|0,0:0|0:0,0:0:0:0:
0,260,21327,6,0,P|30:246|66:238,1,63.9999980926514,2|0,0:0|0:0,0:0:0:0:
59,238,21561,1,2,0:0:0:0:
311,36,21796,6,0,P|279:28|251:14,1,63.9999980926514,10|0,0:0|0:0,0:0:0:0:
252,15,22030,1,0,0:0:0:0:
257,379,22265,6,0,P|240:289|218:206,1,167.999989866257,2|0,0:0|0:0,0:0:0:0:
267,151,22733,2,0,P|292:124|279:164,1,111.999993244171,10|0,0:0|0:0,0:0:0:0:
15,46,23202,2,0,P|68:51|103:101,1,111.999993244171,2|2,0:0|0:0,0:0:0:0:
137,167,23554,1,0,0:0:0:0:
137,167,23671,2,0,P|168:158|189:128,1,55.9999966220857,10|0,0:0|0:0,0:0:0:0:
59,198,23905,2,0,P|69:221|78:258,1,55.9999966220857,2|0,0:0|0:0,0:0:0:0:
257,379,24257,6,0,P|310:374|345:324,1,111.999993244171,2|0,0:0|0:0,0:0:0:0:
412,285,24608,1,10,0:0:0:0:
412,285,24843,1,2,0:0:0:0:
512,134,25077,6,0,P|461:152|441:102,1,111.999993244171,2|2,0:0|0:0,0:0:0:0:
386,49,25429,1,0,0:0:0:0:
386,49,25546,2,0,P|352:42|325:24,1,55.9999966220857,10|0,0:0|0:0,0:0:0:0:
274,136,25780,2,0,P|298:123|326:118,1,55.9999966220857,2|0,0:0|0:0,0:0:0:0:
120,118,26132,6,0,P|141:164|155:237,1,111.999993244171,2|0,0:0|0:0,0:0:0:0:
214,277,26483,2,0,P|263:285|284:228,1,111.999993244171,10|2,0:0|0:0,0:0:0:0:
154,223,26952,6,0,P|142:168|119:117,1,111.999993244171,2|2,0:0|0:0,0:0:0:0:
81,51,27304,1,2,0:0:0:0:
81,51,27421,2,0,P|32:59|11:2,1,111.999993244171,10|0,0:0|0:0,0:0:0:0:
274,136,27890,5,2,0:0:0:0:
274,136,28358,6,0,P|313:125|341:109,1,71.9999956569673,8|0,1:0|0:0,0:0:0:0:
204,180,28827,6,0,P|174:151|147:135,1,71.9999956569673,0|0,1:0|0:0,0:0:0:0:
278,219,29296,6,0,P|268:258|267:290,1,71.9999956569673,8|0,1:0|0:0,0:0:0:0:
134,367,29765,5,4,1:0:0:0:
134,367,29999,2,0,P|114:356|71:344,1,47.9999971046449
172,289,30233,1,8,0:1:0:0:
172,289,30468,2,0,P|141:280|112:266,1,47.9999971046449,0|0,0:1|0:0,0:0:0:0:
0,203,30702,6,0,P|62:174|140:156,2,127.999996185303,8|0|8,0:1|3:1|0:1,0:1:0:0:
15,103,31405,2,0,P|48:94|79:80,1,47.9999971046449,0|0,3:1|0:0,0:0:0:0:
222,27,31640,5,8,0:1:0:0:
222,27,31874,2,0,P|235:54|242:92,1,47.9999971046449,0|0,3:1|0:0,0:0:0:0:
311,0,32108,1,8,0:1:0:0:
311,0,32342,2,0,P|317:31|330:60,1,47.9999971046449,0|0,3:1|0:0,0:0:0:0:
416,79,32577,6,0,P|343:92|318:163,2,127.999996185303,8|0|8,0:1|3:1|0:1,0:1:0:0:
198,197,33280,2,0,P|236:204|249:241,1,63.9999980926514,0|0,3:1|3:1,0:0:0:0:
328,237,33515,6,0,P|298:306|285:378,1,143.999991313935,8|0,0:1|3:1,0:0:0:0:
207,384,33866,2,0,P|172:369|134:361,1,71.9999956569673,0|8,0:1|0:1,0:0:0:0:
373,335,34218,2,0,P|408:350|446:358,1,71.9999956569673,8|0,0:1|0:1,0:1:0:0:
490,297,34452,6,0,P|474:263|470:224,3,71.9999956569673,8|0|0|0,0:1|0:1|3:1|0:1,0:0:0:0:
365,180,34921,2,0,P|381:146|385:107,3,71.9999956569673,8|0|0|0,0:1|0:1|3:1|0:1,0:1:0:0:
444,55,35390,5,8,0:1:0:0:
444,55,35507,1,0,0:1:0:0:
444,55,35624,2,0,P|468:72|513:83,1,71.9999956569673,0|0,3:1|0:1,0:1:0:0:
355,0,35858,5,8,0:1:0:0:
355,0,35975,1,0,0:1:0:0:
355,0,36092,2,0,P|331:17|286:28,1,71.9999956569673,0|0,3:1|0:1,0:1:0:0:
189,114,36327,5,8,0:1:0:0:
116,87,36444,1,0,0:1:0:0:
70,150,36561,2,0,P|84:175|94:221,1,71.9999956569673,0|0,3:1|0:1,0:0:0:0:
199,371,36796,2,0,P|224:345|209:312,1,71.9999956569673,8|0,0:1|0:1,0:1:0:0:
120,290,37030,2,0,P|87:309|53:317,1,71.9999956569673,0|0,3:1|0:1,0:1:0:0:
324,266,37265,6,0,P|334:222|349:186,1,79.9999976158142,8|0,0:1|0:1,0:1:0:0:
264,158,37499,2,0,P|254:202|239:238,1,79.9999976158142,8|0,0:1|0:1,0:0:0:0:
413,123,37733,6,0,P|403:79|388:43,1,79.9999976158142,8|0,0:1|0:0,0:0:0:0:
473,15,37967,2,0,P|483:59|498:95,1,79.9999976158142,8|0,0:1|0:1,0:1:0:0:
305,80,38202,5,8,0:1:0:0:
305,80,38436,2,0,P|263:67|223:47,1,79.9999976158142,8|0,0:1|0:1,0:0:0:0:
431,201,38671,5,8,0:1:0:0:
431,201,38905,2,0,P|467:183|505:172,1,79.9999976158142,8|0,0:1|0:1,0:1:0:0:
380,264,39140,6,0,P|337:272|316:307,1,88.0000000629425,8|0,0:1|3:1,0:1:0:0:
189,383,39374,2,0,P|146:375|124:339,1,88.0000000629425,8|0,0:1|3:1,0:0:0:0:
30,280,39608,6,0,P|72:272|94:236,1,88.0000000629425,8|0,0:1|3:1,0:0:0:0:
239,142,39843,2,0,P|281:149|303:185,1,88.0000000629425,8|0,0:1|3:1,0:0:0:0:
219,306,40077,5,8,0:1:0:0:
219,306,40194,1,0,3:1:0:0:
219,306,40311,2,0,P|210:260|196:219,1,88.0000000629425,8|0,0:1|3:1,0:0:0:0:
143,65,40546,6,0,P|110:90|116:137,1,88.0000000629425,8|0,0:1|3:1,0:1:0:0:
295,212,40780,2,0,P|328:186|324:143,1,88.0000000629425,8|0,3:1|3:1,3:1:0:0:
423,47,41015,5,8,0:1:0:0:
487,88,41132,1,8,0:1:0:0:
463,160,41249,2,0,P|416:172|377:193,1,88.0000000629425,8|8,0:1|0:1,0:0:0:0:
182,241,41483,5,8,0:1:0:0:
118,282,41600,1,8,0:1:0:0:
142,354,41717,2,0,P|189:366|228:387,1,88.0000000629425,8|8,0:1|0:1,0:0:0:0:
353,383,41952,5,8,0:1:0:0:
330,312,42069,1,8,0:1:0:0:
302,239,42186,1,8,0:1:0:0:
267,163,42304,1,8,0:1:0:0:
229,87,42421,2,0,P|248:43|255:-7,1,88.0000000629425,8|8,0:1|0:1,0:1:0:0:
67,184,42655,2,0,P|21:199|1:243,1,88.0000000629425,8|8,0:1|0:1,0:1:0:0:
154,86,42890,5,10,0:1:0:0:
154,86,44061,1,0,1:0:0:0:
87,47,44296,1,8,0:0:0:0:
154,11,44530,1,0,0:0:0:0:
8,232,44765,5,4,1:0:0:0:
8,232,44999,2,0,P|57:221|106:193,1,95.9999942092898,2|0,0:0|0:0,0:0:0:0:
182,357,45233,2,0,P|147:320|99:291,1,95.9999942092898,10|0,1:0|0:0,0:0:0:0:
204,144,45468,2,0,P|189:191|188:248,1,95.9999942092898,2|0,0:0|0:0,0:0:0:0:
39,346,45702,2,0,P|35:328|26:313,3,31.9999990463257,2|2|10|0,1:0|0:0|1:0|0:0,0:0:0:0:
376,225,46640,5,0,1:0:0:0:
376,225,46874,2,0,P|331:205|328:160,1,95.9999942092898,2|0,0:0|0:0,0:0:0:0:
504,65,47108,2,0,P|509:113|472:138,1,95.9999942092898,10|0,1:0|0:0,0:0:0:0:
302,33,47343,2,0,P|341:3|381:23,1,95.9999942092898,2|0,0:0|0:0,0:0:0:0:
404,110,47577,2,0,P|389:103|368:99,3,31.9999990463257,2|2|10|0,1:0|0:0|1:0|1:0,0:0:0:0:
135,0,48515,5,0,1:0:0:0:
135,0,48749,2,0,P|77:30|101:105,1,143.999991313935,2|0,0:0|2:0,0:0:0:0:
160,128,48983,2,0,P|198:147|182:197,1,95.9999971389771,10|0,1:0|2:0,0:0:0:0:
126,241,49218,2,0,P|100:247|75:264,1,47.9999985694885,2|0,0:0|2:0,0:0:0:0:
0,179,49452,6,0,P|12:184|31:188,3,31.9999990463257,2|2|10|0,1:0|0:0|1:0|0:0,0:0:0:0:
287,359,50390,6,0,P|282:345|280:331,1,23.9999992847443,0|0,1:0|2:0,0:0:0:0:
205,378,50624,2,0,P|199:329|182:273,1,95.9999942092898,8|0,0:3|0:0,0:0:0:0:
331,213,50858,6,0,P|336:199|338:185,1,23.9999992847443,8|0,1:0|2:0,0:0:0:0:
413,232,51093,2,0,P|419:183|436:127,1,95.9999942092898,8|0,0:3|0:0,0:0:0:0:
237,19,51327,6,0,P|208:36|163:46,1,71.9999956569673,8|0,0:3|2:0,0:0:0:0:
206,125,51561,2,0,P|235:108|280:98,1,71.9999956569673,0|0,1:1|2:0,0:0:0:0:
326,36,51796,2,0,P|344:16|320:26,2,71.9999956569673,8|0|8,0:1|0:0|0:1,0:0:0:0:
107,233,52265,5,4,1:1:0:0:
107,233,52499,2,0,P|102:213|90:186,1,47.9999971046449,2|0,0:0|2:0,0:0:0:0:
98,246,52616,2,0,P|93:226|81:199,1,47.9999971046449,2|0,0:0|2:0,0:0:0:0:
20,148,52733,2,0,P|41:113|103:112,1,95.9999942092898,10|0,1:1|0:0,0:0:0:0:
221,223,52968,2,0,P|267:219|293:181,1,95.9999942092898,2|0,0:0|0:0,0:0:0:0:
125,326,53202,2,0,P|118:341|114:361,3,31.9999990463257,2|2|10|0,1:0|0:0|1:0|0:0,0:0:0:0:
386,155,54140,5,0,1:0:0:0:
386,155,54374,2,0,P|367:109|360:51,1,95.9999942092898,2|0,0:0|0:0,0:0:0:0:
221,223,54608,2,0,P|270:229|324:252,1,95.9999942092898,10|0,1:0|0:0,0:0:0:0:
244,46,54843,2,0,P|213:85|166:120,1,95.9999942092898,2|0,0:0|0:0,0:0:0:0:
286,153,55077,2,0,P|289:144|275:152,3,31.9999990463257,2|2|10|0,1:0|0:0|1:0|1:0,0:0:0:0:
512,322,56015,5,0,1:0:0:0:
512,322,56249,2,0,P|447:297|374:280,1,143.999991313935,2|0,0:0|2:0,0:0:0:0:
320,221,56483,2,0,P|279:239|288:293,1,95.9999971389771,10|0,1:0|2:0,0:0:0:0:
227,338,56718,2,0,P|241:354|269:358,1,47.9999985694885,2|0,0:0|2:0,0:0:0:0:
360,383,56952,6,0,P|355:366|352:348,3,31.9999990463257,2|2|10|0,1:0|0:0|1:0|0:0,0:0:0:0:
479,181,57890,6,0,B|496:166|496:166|472:171,1,47.9999985694885,0|0,1:0|0:0,0:0:0:0:
415,227,58358,6,0,P|355:201|279:184,1,143.999991313935,8|0,0:1|0:0,0:0:0:0:
103,328,58827,6,0,P|155:289|208:231,1,143.999991313935
171,8,59296,6,0,P|178:72|201:147,1,143.999991313935,8|0,0:1|0:0,0:0:0:0:
208,230,59765,6,0,P|240:149|323:185,1,191.99998841858,4|0,1:0|0:0,0:0:0:0:
429,269,60116,1,0,3:0:0:0:
429,269,60233,2,0,P|476:266|484:214,1,95.9999942092898,10|0,1:0|0:0,0:0:0:0:
302,273,60468,2,0,P|326:312|338:373,1,95.9999942092898,2|0,0:0|0:0,0:0:0:0:
421,186,60702,2,0,P|433:135|455:93,1,95.9999942092898,2|0,1:0|0:0,0:0:0:0:
279,0,60936,2,0,P|284:52|329:62,1,95.9999942092898,2|0,0:0|0:0,0:0:0:0:
436,17,61171,1,10,1:0:0:0:
436,17,61405,1,0,0:0:0:0:
512,46,61640,5,0,1:0:0:0:
340,153,61874,1,2,0:0:0:0:
270,130,61991,1,0,0:0:0:0:
238,198,62108,2,0,P|189:209|143:235,1,95.9999942092898,10|0,1:0|0:0,0:0:0:0:
2,72,62343,2,0,P|51:61|97:35,1,95.9999942092898,2|0,0:0|0:0,0:0:0:0:
50,272,62577,2,0,P|37:220|12:181,1,95.9999942092898,2|0,1:0|0:0,0:0:0:0:
166,6,62811,2,0,P|179:58|204:97,1,95.9999942092898,2|0,0:0|0:0,0:0:0:0:
109,145,63046,1,10,1:0:0:0:
109,145,63280,1,0,1:0:0:0:
221,365,63515,5,0,1:0:0:0:
221,365,63749,2,0,P|227:349|234:317,1,47.9999971046449,2|0,0:0|2:0,0:0:0:0:
231,377,63866,2,0,P|237:361|244:329,1,47.9999971046449,2|0,0:0|2:0,0:0:0:0:
318,295,63983,2,0,P|337:228|275:204,1,143.999991313935,10|0,1:0|2:0,0:0:0:0:
220,150,64218,2,0,P|200:102|247:74,1,95.9999971389771,2|0,0:0|2:0,0:0:0:0:
290,27,64452,2,0,P|306:37|322:40,3,31.9999990463257,2|2|10|0,1:0|0:0|1:0|0:0,0:0:0:0:
448,264,65390,5,0,1:0:0:0:
73,105,65624,1,8,0:3:0:0:
137,145,65741,1,8,0:3:0:0:
111,215,65858,2,0,P|145:198|204:184,1,95.9999942092898,8|0,1:0|0:0,0:0:0:0:
360,73,66093,2,0,P|396:40|380:-5,1,95.9999942092898,8|0,0:3|3:0,0:0:0:0:
232,103,66327,2,0,P|238:115|241:124,2,15.9999995231628,0|8|8,3:0|0:3|1:0,0:0:0:0:
448,264,66796,2,0,P|427:252|404:245,1,47.9999971046449,8|0,1:0|0:0,0:0:0:0:
234,359,67030,2,0,P|226:321|205:283,1,71.9999956569673,8|0,1:0|0:0,0:0:0:0:
346,171,67265,5,4,1:0:0:0:
346,171,67499,2,0,P|351:149|363:126,1,47.9999971046449,2|0,0:0|2:0,0:0:0:0:
356,187,67616,2,0,P|361:165|373:142,1,47.9999971046449,2|0,0:0|2:0,0:0:0:0:
435,90,67733,2,0,P|415:55|362:48,1,95.9999942092898,10|0,1:0|0:0,0:0:0:0:
221,173,67968,2,0,P|174:169|149:130,1,95.9999942092898,2|0,0:0|0:0,0:0:0:0:
289,15,68202,2,0,P|270:56|259:112,1,95.9999942092898,2|0,1:0|0:0,0:0:0:0:
91,226,68436,2,0,P|81:179|61:135,1,95.9999942092898,2|0,0:0|0:0,0:0:0:0:
21,0,68671,1,10,1:0:0:0:
21,0,68905,1,0,0:0:0:0:
0,71,69140,5,0,1:0:0:0:
159,292,69374,1,2,0:0:0:0:
88,315,69491,1,2,3:0:0:0:
41,255,69608,2,0,P|64:213|75:166,1,95.9999942092898,10|0,1:0|0:0,0:0:0:0:
225,53,69843,2,0,P|276:41|298:-3,1,95.9999942092898,2|0,0:0|0:0,0:0:0:0:
142,116,70077,2,0,P|138:104|136:94,2,15.9999995231628,2|2|2,1:0|3:0|0:0,0:0:0:0:
316,204,70546,2,0,P|351:227|345:280,1,95.9999942092898,10|0,1:0|0:0,0:0:0:0:
245,232,70780,2,0,P|240:277|277:304,1,95.9999942092898,0|0,1:0|0:0,0:0:0:0:
388,384,71015,5,0,1:0:0:0:
388,384,71249,2,0,P|412:374|440:371,1,47.9999971046449,2|0,0:0|2:0,0:0:0:0:
392,368,71366,2,0,P|416:358|444:355,1,47.9999971046449,2|0,0:0|2:0,0:0:0:0:
502,312,71483,2,0,P|489:267|443:258,1,95.9999942092898,10|0,1:0|0:0,0:0:0:0:
316,204,71718,2,0,P|360:193|372:149,1,95.9999942092898,2|0,0:0|0:0,0:0:0:0:
474,58,71952,2,0,P|468:44|466:26,3,31.9999990463257,2|2|10|0,1:0|0:0|1:0|0:0,0:0:0:0:
449,142,72890,6,0,P|427:147|401:160,1,47.9999985694885,2|0,1:0|0:0,0:0:0:0:
329,220,73358,6,0,P|315:161|274:76,1,143.999991313935,8|0,1:0|0:0,0:0:0:0:
420,237,73827,6,0,P|388:301|371:371,1,143.999991313935
221,307,74296,6,0,P|158:316|132:389,1,143.999991313935,8|0,1:0|0:0,0:0:0:0:
209,383,74765,5,4,1:2:0:0:
179,375,82265,6,0,P|176:360|168:343,2,31.9999990463257,0|0|8,0:0|0:0|0:0,0:0:0:0:
365,21,84140,6,0,P|358:35|355:51,2,31.9999990463257,0|0|8,0:0|0:0|0:0,0:0:0:0:
256,192,86015,12,0,89530,0:0:0:0:
500,320,89765,6,0,P|399:276|279:252,1,215.999986970902,4|0,1:2|0:0,0:0:0:0:
231,208,90233,2,0,P|205:178|216:139,2,71.9999956569673,2|0|0,0:0|0:0|0:0,0:0:0:0:
475,4,90702,2,0,P|444:62|428:148,1,143.999991313935,10|2,0:1|0:0,0:0:0:0:
373,188,91054,1,0,0:0:0:0:
328,126,91171,1,2,0:0:0:0:
258,140,91288,1,0,0:0:0:0:
231,208,91405,2,0,P|198:193|151:187,1,71.9999956569673,2|0,0:0|0:0,0:0:0:0:
0,168,91757,6,0,P|65:155|85:78,1,143.999991313935,2|0,0:0|0:0,0:0:0:0:
32,31,92108,1,2,0:0:0:0:
32,31,92343,1,0,0:0:0:0:
118,235,92577,6,0,P|175:247|260:287,1,143.999991313935,8|2,0:1|0:0,0:0:0:0:
318,242,92929,1,0,0:0:0:0:
392,323,93046,1,2,0:0:0:0:
444,273,93163,1,0,0:0:0:0:
512,291,93280,2,0,P|496:254|494:214,1,71.9999956569673,2|0,0:0|0:0,0:0:0:0:
435,101,93515,6,0,P|339:125|236:185,1,215.999986970902,4|2,1:2|0:0,0:0:0:0:
193,82,93983,2,0,P|289:58|392:-2,1,215.999986970902,2|0,1:2|0:0,0:0:0:0:
472,25,94452,1,10,0:1:0:0:
107,270,94686,6,0,P|203:294|306:354,1,215.999986970902,2|0,1:2|0:0,0:0:0:0:
318,242,95154,2,0,P|248:224|173:180,1,143.999991313935,0|2,1:0|0:0,0:0:0:0:
447,379,95624,6,0,P|474:355|465:316,1,71.9999956569673,2|0,1:0|0:0,0:0:0:0:
374,343,95858,2,0,P|370:308|396:286,1,71.9999956569673,2|0,1:0|0:0,0:0:0:0:
465,243,96093,6,0,P|448:208|440:172,1,71.9999956569673,2|0,0:0|0:0,0:0:0:0:
313,94,96327,1,10,0:1:0:0:
217,193,96561,6,0,P|234:158|242:122,1,71.9999956569673,2|0,0:0|0:0,0:0:0:0:
313,94,96795,1,2,0:0:0:0:
313,94,97030,1,2,0:0:0:0:
25,222,97265,6,0,P|127:235|172:352,1,215.999986970902,6|0,1:2|0:0,0:0:0:0:
232,378,97733,2,0,P|269:368|284:324,2,71.9999956569673,2|0|0,0:0|0:0|0:0,0:0:0:0:
474,294,98202,6,0,P|408:283|383:203,1,143.999991313935,10|2,0:1|0:0,0:0:0:0:
325,168,98554,1,0,0:0:0:0:
254,189,98671,1,2,0:0:0:0:
222,121,98788,1,0,0:0:0:0:
149,137,98905,2,0,P|111:121|69:112,1,71.9999956569673,2|0,0:0|0:0,0:0:0:0:
361,43,99257,6,0,P|431:27|497:0,1,143.999991313935,2|0,0:0|0:0,0:0:0:0:
501,81,99608,1,2,0:0:0:0:
501,81,99843,1,0,0:0:0:0:
321,383,100077,6,0,P|304:308|276:239,1,143.999991313935,8|2,0:1|0:0,0:0:0:0:
318,182,100429,1,0,0:0:0:0:
213,132,100546,1,2,0:0:0:0:
149,169,100663,1,0,0:0:0:0:
103,107,100780,2,0,P|119:76|126:37,1,71.9999956569673,2|0,0:0|0:0,0:0:0:0:
0,317,101015,6,0,P|79:282|209:243,1,215.999986970902,4|2,1:2|0:0,0:0:0:0:
318,182,101483,2,0,P|403:145|362:53,1,215.999986970902,2|0,1:2|0:0,0:0:0:0:
293,79,101952,1,10,0:1:0:0:
433,377,102186,6,0,P|453:281|492:167,1,215.999986970902,2|0,1:2|0:0,0:0:0:0:
479,96,102655,2,0,P|439:105|426:147,1,71.9999956569673,0|0,1:0|0:0,0:0:0:0:
318,182,102890,6,0,P|294:174|282:151,1,47.9999985694885,2|0,0:0|0:0,0:0:0:0:
210,129,103358,6,0,P|153:160|74:178,1,143.999991313935,8|0,1:0|0:0,0:0:0:0:
196,358,103827,6,0,P|197:293|221:215,1,143.999991313935,0|0,1:0|0:0,0:0:0:0:
4,231,104296,6,0,P|59:264|114:324,1,143.999991313935,8|0,1:0|0:0,0:0:0:0:
137,239,104765,5,4,1:0:0:0:
137,239,104999,2,0,P|169:224|204:219,1,47.9999971046449
109,157,105233,1,8,0:1:0:0:
109,157,105468,2,0,P|140:151|169:137,1,47.9999971046449,0|0,0:1|0:0,0:0:0:0:
364,19,105702,6,0,P|339:82|320:167,2,127.999996185303,8|0|8,0:1|3:1|0:1,0:1:0:0:
244,121,106405,2,0,P|258:83|266:44,1,63.9999980926514,0|0,3:1|0:0,0:0:0:0:
378,191,106640,5,8,0:1:0:0:
378,191,106874,2,0,P|346:176|311:171,1,47.9999971046449,0|0,3:1|0:0,0:0:0:0:
406,109,107108,1,8,0:1:0:0:
406,109,107343,2,0,P|374:103|345:89,1,47.9999971046449,0|0,3:1|0:0,0:0:0:0:
214,215,107577,6,0,P|233:267|249:336,2,127.999996185303,8|0|8,0:1|3:1|0:1,0:1:0:0:
332,306,108280,2,0,P|319:272|309:226,1,63.9999980926514,0|0,3:1|3:1,0:0:0:0:
180,139,108515,6,0,P|124:164|136:221,1,127.999996185303,8|0,0:1|3:1,0:0:0:0:
86,279,108866,2,0,P|54:289|26:308,1,63.9999980926514,0|8,0:1|0:1,0:0:0:0:
334,156,109218,2,0,P|360:173|391:182,1,63.9999980926514,8|0,0:1|0:1,0:1:0:0:
270,104,109452,6,0,P|254:66|251:22,3,71.9999956569673,8|0|0|0,0:1|0:1|3:1|0:1,0:0:0:0:
180,139,109921,2,0,P|174:103|160:70,3,71.9999956569673,8|0|0|0,0:1|0:1|3:1|0:1,0:1:0:0:
285,218,110390,5,8,0:1:0:0:
285,218,110507,1,0,0:1:0:0:
285,218,110624,2,0,P|286:251|258:283,1,71.9999956569673,0|0,3:1|0:1,0:1:0:0:
139,314,110858,5,8,0:1:0:0:
139,314,110975,1,0,0:1:0:0:
139,314,111092,2,0,P|138:347|166:379,1,71.9999956569673,0|0,3:1|0:1,0:1:0:0:
296,342,111327,5,8,0:1:0:0:
362,383,111444,1,0,0:1:0:0:
396,318,111561,2,0,P|429:299|472:292,1,71.9999956569673,0|0,3:1|0:1,0:0:0:0:
511,138,111796,2,0,P|478:157|435:164,1,71.9999956569673,8|0,0:1|0:1,0:1:0:0:
374,121,112030,2,0,P|355:90|374:53,1,71.9999956569673,0|0,3:1|0:1,0:1:0:0:
358,246,112265,6,0,P|319:224|276:217,1,79.9999976158142,8|0,0:1|0:1,0:1:0:0:
141,138,112499,2,0,P|179:130|214:108,1,79.9999976158142,8|0,0:1|0:1,0:0:0:0:
66,358,112733,6,0,P|57:320|34:281,1,79.9999976158142,8|0,0:1|0:0,0:0:0:0:
152,323,112968,2,0,P|132:288|122:249,1,79.9999976158142,8|0,0:1|0:1,0:1:0:0:
255,297,113202,5,8,0:1:0:0:
255,297,113436,2,0,P|286:315|332:328,1,79.9999976158142,8|0,0:1|0:1,0:0:0:0:
75,177,113671,5,8,0:1:0:0:
75,177,113905,2,0,P|44:195|-2:208,1,79.9999976158142,8|0,0:1|0:1,0:1:0:0:
194,27,114140,6,0,P|238:34|266:87,1,88.0000000629425,8|0,0:1|3:1,0:1:0:0:
437,191,114374,2,0,P|481:184|509:131,1,88.0000000629425,8|0,0:1|3:1,0:0:0:0:
255,297,114608,6,0,P|244:250|224:212,1,88.0000000629425,8|0,0:1|3:1,0:0:0:0:
417,5,114843,2,0,P|397:44|387:87,1,88.0000000629425,8|0,0:1|3:1,0:0:0:0:
332,169,115077,5,8,0:1:0:0:
332,169,115194,1,0,3:1:0:0:
332,169,115311,2,0,P|294:150|244:140,1,88.0000000629425,8|0,0:1|3:1,0:0:0:0:
342,327,115546,2,0,P|379:296|362:251,1,88.0000000629425,8|0,0:1|3:1,0:1:0:0:
198,75,115780,2,0,P|161:106|178:151,1,88.0000000629425,8|0,3:1|3:1,3:1:0:0:
182,363,116015,5,8,0:1:0:0:
216,298,116132,1,8,0:1:0:0:
155,252,116249,2,0,P|119:245|63:222,1,88.0000000629425,8|8,0:1|0:1,0:0:0:0:
332,169,116483,5,8,0:1:0:0:
298,104,116600,1,8,0:1:0:0:
359,58,116717,2,0,P|395:51|451:28,1,88.0000000629425,8|8,0:1|0:1,0:0:0:0:
160,13,116952,5,8,0:1:0:0:
198,75,117069,1,8,0:1:0:0:
237,142,117186,1,8,0:1:0:0:
275,214,117304,1,8,0:1:0:0:
315,290,117421,2,0,P|301:327|292:380,1,88.0000000629425,8|8,0:1|0:1,0:1:0:0:
74,181,117655,2,0,P|94:146|151:148,1,88.0000000629425,8|8,0:1|0:1,0:1:0:0:
388,266,117890,5,10,0:1:0:0:
388,266,119061,1,0,1:0:0:0:
417,199,119296,1,8,0:0:0:0:
490,213,119530,1,0,0:0:0:0:
304,34,119765,5,4,1:0:0:0:
304,34,119999,2,0,P|269:58|218:68,1,95.9999942092898,2|0,0:0|0:0,0:0:0:0:
317,254,120233,2,0,P|313:211|330:162,1,95.9999942092898,10|0,1:0|0:0,0:0:0:0:
119,155,120468,2,0,P|157:173|191:212,1,95.9999942092898,2|0,0:0|0:0,0:0:0:0:
263,134,120702,6,0,P|248:141|233:144,3,31.9999990463257,2|2|10|0,1:0|0:0|1:0|0:0,0:0:0:0:
32,384,121640,5,0,1:0:0:0:
32,384,121874,2,0,P|73:367|125:357,1,95.9999942092898,2|0,0:0|0:0,0:0:0:0:
330,259,122108,2,0,P|282:250|238:232,1,95.9999942092898,10|0,1:0|0:0,0:0:0:0:
69,151,122343,2,0,P|92:197|105:252,1,95.9999942092898,2|0,0:0|0:0,0:0:0:0:
199,335,122577,6,0,P|203:319|210:304,3,31.9999990463257,2|2|10|0,1:0|0:0|1:0|1:0,0:0:0:0:
428,129,123515,5,0,1:0:0:0:
428,129,123749,2,0,P|358:136|345:73,1,143.999991313935,2|0,0:0|2:0,0:0:0:0:
297,20,123983,2,0,P|250:19|238:64,1,95.9999971389771,10|0,1:0|2:0,0:0:0:0:
190,116,124218,2,0,P|164:117|152:88,1,47.9999985694885,2|0,0:0|2:0,0:0:0:0:
112,39,124452,6,0,P|97:45|91:62,3,31.9999990463257,2|2|10|0,1:0|0:0|1:0|0:0,0:0:0:0:
3,213,125390,6,0,P|12:211|29:204,1,23.9999992847443,0|0,1:0|2:0,0:0:0:0:
28,287,125624,2,0,P|73:267|135:253,1,95.9999942092898,8|0,0:3|0:0,0:0:0:0:
192,124,125858,6,0,P|201:126|218:133,1,23.9999992847443,8|0,1:0|2:0,0:0:0:0:
217,50,126093,2,0,P|262:70|324:84,1,95.9999942092898,8|0,0:3|0:0,0:0:0:0:
408,201,126327,6,0,P|393:234|385:275,1,71.9999956569673,8|0,0:3|2:0,0:0:0:0:
309,237,126561,2,0,P|324:204|332:163,1,71.9999956569673,0|0,1:1|2:0,0:0:0:0:
382,120,126796,2,0,P|400:99|394:128,2,71.9999956569673,8|0|8,0:1|0:0|0:1,0:0:0:0:
198,354,127265,5,4,1:1:0:0:
198,354,127499,2,0,P|190:332|184:305,1,47.9999971046449,2|0,0:0|2:0,0:0:0:0:
184,373,127616,2,0,P|176:351|170:324,1,47.9999971046449,2|0,0:0|2:0,0:0:0:0:
83,264,127733,2,0,P|131:250|144:201,1,95.9999942092898,10|0,1:1|0:0,0:0:0:0:
304,94,127968,2,0,P|256:80|243:31,1,95.9999942092898,2|0,0:0|0:0,0:0:0:0:
177,138,128202,6,0,P|192:143|209:153,3,31.9999990463257,2|2|10|0,1:0|0:0|1:0|0:0,0:0:0:0:
389,360,129140,5,0,1:0:0:0:
389,360,129374,2,0,P|364:327|312:312,1,95.9999942092898,2|0,0:0|0:0,0:0:0:0:
497,201,129608,2,0,P|480:239|493:291,1,95.9999942092898,10|0,1:0|0:0,0:0:0:0:
306,187,129843,2,0,P|347:181|386:144,1,95.9999942092898,2|0,0:0|0:0,0:0:0:0:
407,271,130077,6,0,P|404:255|397:238,3,31.9999990463257,2|2|10|0,1:0|0:0|1:0|1:0,0:0:0:0:
151,384,131015,5,0,1:0:0:0:
151,384,131249,2,0,P|180:317|193:243,1,143.999991313935,2|0,0:0|2:0,0:0:0:0:
274,241,131483,2,0,P|258:196|252:147,1,95.9999971389771,10|0,1:0|2:0,0:0:0:0:
178,132,131718,2,0,P|186:108|189:82,1,47.9999985694885,2|0,0:0|2:0,0:0:0:0:
239,31,131952,6,0,P|234:13|233:-5,3,31.9999990463257,2|2|10|0,1:0|0:0|1:0|0:0,0:0:0:0:
0,195,132890,6,0,P|19:186|47:178,1,47.9999985694885,0|0,1:0|0:0,0:0:0:0:
91,121,133358,6,0,P|142:147|149:230,1,143.999991313935,8|0,0:1|0:0,0:0:0:0:
29,379,133827,6,0,P|26:321|94:274,1,143.999991313935
284,304,134296,6,0,P|235:335|160:299,1,143.999991313935,8|0,0:1|0:0,0:0:0:0:
90,274,134765,6,0,P|126:190|145:84,1,191.99998841858,4|0,1:0|0:0,0:0:0:0:
295,55,135116,1,0,3:0:0:0:
295,55,135233,2,0,P|296:101|260:130,1,95.9999942092898,10|0,1:0|0:0,0:0:0:0:
83,46,135468,2,0,P|114:10|165:17,1,95.9999942092898,2|0,0:0|0:0,0:0:0:0:
317,199,135702,2,0,P|355:218|418:231,1,95.9999942092898,2|0,1:0|0:0,0:0:0:0:
223,323,135936,2,0,P|176:333|133:354,1,95.9999942092898,2|0,0:0|0:0,0:0:0:0:
309,295,136171,1,10,1:0:0:0:
309,295,136405,1,0,0:0:0:0:
0,105,136640,5,0,1:0:0:0:
121,259,136874,1,2,0:0:0:0:
162,197,136991,1,0,0:0:0:0:
226,227,137108,2,0,P|269:207|333:199,1,95.9999942092898,10|0,1:0|0:0,0:0:0:0:
484,80,137343,2,0,P|436:71|393:51,1,95.9999942092898,2|0,0:0|0:0,0:0:0:0:
433,235,137577,2,0,P|472:198|461:156,1,95.9999942092898,2|0,1:0|0:0,0:0:0:0:
259,37,137811,2,0,P|254:82|290:111,1,95.9999942092898,2|0,0:0|0:0,0:0:0:0:
374,148,138046,1,10,1:0:0:0:
374,148,138280,1,0,1:0:0:0:
258,346,138515,5,0,1:0:0:0:
258,346,138749,2,0,P|266:327|270:300,1,47.9999971046449,2|0,0:0|2:0,0:0:0:0:
270,362,138866,2,0,P|278:343|282:316,1,47.9999971046449,2|0,0:0|2:0,0:0:0:0:
206,254,138983,2,0,P|176:191|234:152,1,143.999991313935,10|0,1:0|2:0,0:0:0:0:
284,105,139218,2,0,P|296:58|257:32,1,95.9999971389771,2|0,0:0|2:0,0:0:0:0:
199,0,139452,6,0,P|185:8|165:13,3,31.9999990463257,2|2|10|0,1:0|0:0|1:0|0:0,0:0:0:0:
479,188,140390,5,0,1:0:0:0:
198,351,140624,1,8,0:3:0:0:
239,292,140741,1,8,0:3:0:0:
316,305,140858,2,0,P|301:259|294:204,1,95.9999942092898,8|0,1:0|0:0,0:0:0:0:
419,86,141093,2,0,P|406:125|352:140,1,95.9999942092898,8|0,0:3|3:0,0:0:0:0:
256,143,141327,2,0,P|260:134|261:122,2,15.9999995231628,0|8|8,3:0|0:3|1:0,0:0:0:0:
421,319,141796,2,0,P|410:343|402:375,1,47.9999971046449,8|0,1:0|0:0,0:0:0:0:
512,283,142030,2,0,P|488:254|451:253,1,71.9999956569673,8|0,1:0|0:0,0:0:0:0:
283,370,142265,5,4,1:0:0:0:
283,370,142499,2,0,P|261:366|227:350,1,47.9999971046449,2|0,0:0|2:0,0:0:0:0:
302,359,142616,2,0,P|280:355|246:339,1,47.9999971046449,2|0,0:0|2:0,0:0:0:0:
194,290,142733,2,0,P|159:320|167:373,1,95.9999942092898,10|0,1:0|0:0,0:0:0:0:
342,249,142968,2,0,P|326:203|320:150,1,95.9999942092898,2|0,0:0|0:0,0:0:0:0:
434,58,143202,2,0,P|437:104|402:134,1,95.9999942092898,2|0,1:0|0:0,0:0:0:0:
272,85,143436,2,0,P|268:38|303:8,1,95.9999942092898,2|0,0:0|0:0,0:0:0:0:
351,75,143671,1,10,1:0:0:0:
351,75,143905,1,0,0:0:0:0:
271,287,144140,5,0,1:0:0:0:
36,79,144374,1,2,0:0:0:0:
87,134,144491,1,2,3:0:0:0:
157,111,144608,2,0,P|135:155|126:207,1,95.9999942092898,10|0,1:0|0:0,0:0:0:0:
0,335,144843,2,0,P|38:311|92:297,1,95.9999942092898,2|0,0:0|0:0,0:0:0:0:
223,228,145077,2,0,P|214:226|204:220,2,15.9999995231628,2|2|2,1:0|3:0|0:0,0:0:0:0:
457,354,145546,2,0,P|461:305|424:283,1,95.9999942092898,10|0,1:0|0:0,0:0:0:0:
388,384,145780,2,0,P|350:358|356:313,1,95.9999942092898,0|0,1:0|0:0,0:0:0:0:
444,207,146015,5,0,1:0:0:0:
444,207,146249,2,0,P|436:186|431:160,1,47.9999971046449,2|0,0:0|2:0,0:0:0:0:
455,184,146366,2,0,P|447:163|442:137,1,47.9999971046449,2|0,0:0|2:0,0:0:0:0:
382,90,146483,2,0,P|316:104|312:176,1,143.999991313935,10|0,1:0|2:0,0:0:0:0:
267,235,146718,2,0,P|221:232|213:190,1,95.9999971389771,2|0,0:0|2:0,0:0:0:0:
178,126,146952,6,0,P|159:132|154:148,3,31.9999990463257,2|2|10|0,1:0|0:0|1:0|0:0,0:0:0:0:
10,302,147890,6,0,P|38:309|61:319,1,47.9999985694885,2|0,1:0|0:0,0:0:0:0:
108,376,148358,6,0,P|168:367|170:287,1,143.999991313935,8|0,0:0|0:0,0:0:0:0:
77,150,148827,6,0,P|54:206|123:248,1,143.999991313935
272,231,149296,6,0,P|239:190|179:222,1,127.999996185303,8|0,0:0|0:0,0:0:0:0:
