osu file format v14

[General]
AudioFilename: audio.mp3
AudioLeadIn: 0
PreviewTime: 117890
Countdown: 0
SampleSet: Soft
StackLeniency: 0.3
Mode: 0
LetterboxInBreaks: 0
WidescreenStoryboard: 1

[Editor]
Bookmarks: 29765
DistanceSpacing: 1.3
BeatDivisor: 2
GridSize: 32
TimelineZoom: 0.6999999

[Metadata]
Title:Roll 'n Rock
TitleUnicode:Roll 'n Rock
Artist:Bali Bandits
ArtistUnicode:Bali Bandits
Creator:SMOKELIND
Version:Kirishima-'s Normal
Source:
Tags:TikTok and YouTube & Shorts Dance Honkai Impact 3rd 崩坏3 Bronya Zaychik Shake it Sistar 씨스타 Electronic Instrumental Future House English alevi pepekcz kirishima-
BeatmapID:3925272
BeatmapSetID:1901736

[Difficulty]
HPDrainRate:3
CircleSize:3.5
OverallDifficulty:4
ApproachRate:5
SliderMultiplier:1.29999990463257
SliderTickRate:1

[Events]
//Background and Video events
0,0,"BG.jpg",0,0
Video,44444,"vid.mp4"
//Break Periods
2,75233,81065
//Storyboard Layer 0 (Background)
//Storyboard Layer 1 (Fail)
//Storyboard Layer 2 (Pass)
//Storyboard Layer 3 (Foreground)
//Storyboard Layer 4 (Overlay)
//Storyboard Sound Samples

[TimingPoints]
-235,468.75,4,2,77,47,1,0
14530,-111.111111111111,4,2,77,47,0,0
14765,-111.111111111111,4,2,77,57,0,0
20390,-111.111111111111,4,2,77,57,0,0
29765,-111.111111111111,4,2,77,57,0,0
33515,-111.111111111111,4,2,77,67,0,0
37265,-111.111111111111,4,2,77,77,0,0
44765,-100,4,2,77,77,0,0
58358,-100,4,2,77,57,0,0
59765,-100,4,2,77,77,0,0
66327,-100,4,2,77,67,0,0
66795,-100,4,2,77,57,0,0
67265,-100,4,2,77,77,0,0
73357,-100,4,2,77,57,0,0
74765,-111.111111111111,4,2,77,77,0,0
75233,-111.111111111111,4,2,77,67,0,0
75702,-111.111111111111,4,2,77,57,0,0
76171,-111.111111111111,4,2,77,47,0,0
82265,-111.111111111111,4,2,77,47,0,0
89765,-111.111111111111,4,2,77,57,0,0
104765,-111.111111111111,4,2,77,57,0,0
108515,-111.111111111111,4,2,77,67,0,0
112265,-111.111111111111,4,2,77,77,0,0
119765,-100,4,2,77,77,0,0
133356,-100,4,2,77,57,0,0
134763,-100,4,2,77,77,0,0
141325,-100,4,2,77,67,0,0
141793,-100,4,2,77,57,0,0
142263,-100,4,2,77,77,0,0
148355,-100,4,2,77,57,0,0
148358,-100,4,2,77,57,0,0
149296,-100,4,2,77,57,0,0
149765,-100,4,2,77,57,0,0

[Colours]
Combo1 : 79,83,255
Combo2 : 233,233,233

[HitObjects]
107,51,14530,5,0,0:0:0:0:
38,84,14765,2,0,P|5:131|9:189,1,116.999987846375,2|10,0:0|0:0,0:0:0:0:
58,333,15702,1,2,0:0:0:0:
208,307,16171,2,0,L|292:330,1,87.7499908847812,10|0,0:0|0:0,0:0:0:0:
349,279,16757,2,0,L|327:195,1,87.7499908847812,2|10,0:0|0:0,0:0:0:0:
308,120,17343,1,2,0:0:0:0:
353,59,17577,1,2,0:0:0:0:
204,25,18046,6,0,L|120:3,1,87.7499908847812,10|0,0:0|0:0,0:0:0:0:
57,48,18632,2,0,L|79:132,1,87.7499908847812,2|10,0:0|0:0,0:0:0:0:
31,192,19218,1,2,0:0:0:0:
60,261,19452,2,0,L|173:291,1,116.999987846375,2|10,0:0|0:0,0:0:0:0:
246,157,20390,2,0,L|302:142,1,58.4999939231875,2|2,0:0|0:0,0:0:0:0:
327,70,20858,2,0,L|383:85,1,58.4999939231875,10|2,0:0|0:0,0:0:0:0:
456,107,21327,1,2,0:0:0:0:
505,250,21796,5,10,0:0:0:0:
475,320,22030,1,0,0:0:0:0:
403,345,22265,2,0,P|345:348|297:316,1,116.999987846375,2|10,0:0|0:0,0:0:0:0:
158,376,23202,1,2,0:0:0:0:
57,261,23671,2,0,L|80:177,1,87.7499908847812,10|0,0:0|0:0,0:0:0:0:
103,103,24257,2,0,L|187:81,1,87.7499908847812,2|10,0:0|0:0,0:0:0:0:
262,65,24843,1,2,0:0:0:0:
324,108,25077,1,2,0:0:0:0:
361,255,25546,6,0,L|445:277,1,87.7499908847812,10|0,0:0|0:0,0:0:0:0:
501,225,26132,2,0,L|479:141,1,87.7499908847812,2|10,0:0|0:0,0:0:0:0:
462,65,26718,1,2,0:0:0:0:
388,44,26952,2,0,L|275:14,1,116.999987846375,2|10,0:0|0:0,0:0:0:0:
165,119,27890,1,2,0:0:0:0:
252,243,28358,2,0,L|365:212,2,116.999987846375,8|0|8,1:0|1:0|1:0,0:0:0:0:
162,366,29765,6,0,P|104:369|56:337,1,116.999987846375,4|8,1:0|0:1,0:0:0:0:
2,195,30702,1,8,0:1:0:0:
82,65,31171,2,0,P|139:61|187:93,1,116.999987846375,8|8,0:1|0:1,0:0:0:0:
224,159,31874,1,0,3:1:0:0:
95,240,32343,1,0,3:1:0:0:
175,370,32811,1,0,3:1:0:0:
250,382,33046,1,8,0:1:0:0:
364,281,33515,6,0,L|476:311,2,116.999987846375,8|8|8,0:1|0:1|0:1,0:0:0:0:
253,176,34921,2,0,L|141:206,1,116.999987846375,8|8,0:1|0:1,0:1:0:0:
66,227,35624,1,0,3:1:0:0:
37,156,35858,2,0,L|52:99,1,58.4999939231875,8|0,0:1|3:1,0:1:0:0:
91,33,36327,2,0,L|34:18,2,58.4999939231875,8|0|8,0:1|3:1|0:1,0:1:0:0:
154,75,37030,1,0,3:1:0:0:
208,128,37265,6,0,P|204:185|236:233,1,116.999987846375,8|8,0:1|0:1,0:1:0:0:
298,276,37968,1,8,0:1:0:0:
363,316,38202,1,8,0:1:0:0:
488,227,38671,1,8,0:1:0:0:
480,151,38905,1,8,0:1:0:0:
470,75,39140,2,0,P|422:42|364:46,1,116.999987846375,8|8,0:1|0:1,0:1:0:0:
294,74,39843,1,8,0:1:0:0:
262,143,40077,2,0,L|277:200,1,58.4999939231875,8|8,0:1|0:1,0:0:0:0:
340,241,40546,1,8,0:1:0:0:
242,357,41015,6,0,L|185:342,1,58.4999939231875,8|8,0:1|0:1,0:0:0:0:
164,268,41483,2,0,L|107:283,1,58.4999939231875,8|8,0:1|0:1,0:0:0:0:
44,239,41952,2,0,L|59:182,1,58.4999939231875,8|8,0:1|0:1,0:0:0:0:
131,159,42421,1,8,0:1:0:0:
144,84,42655,1,8,0:1:0:0:
158,9,42890,1,10,0:1:0:0:
501,229,44061,1,0,1:0:0:0:
444,280,44296,2,0,L|387:265,1,58.4999939231875,8|0,0:0|0:0,0:0:0:0:
305,244,44765,6,0,P|267:193|273:129,1,129.999990463257,4|10,1:0|1:0,0:0:0:0:
302,49,45468,1,2,0:0:0:0:
233,0,45702,1,2,1:0:0:0:
154,30,45937,2,0,L|137:93,1,64.9999952316285,2|10,0:0|1:0,0:0:0:0:
60,127,46405,1,2,0:0:0:0:
147,271,46874,6,0,L|216:260,1,64.9999952316285,2|10,0:0|1:0,0:0:0:0:
255,194,47343,2,0,L|318:211,1,64.9999952316285,2|2,0:0|1:0,0:0:0:0:
388,165,47811,1,2,0:0:0:0:
462,206,48046,2,0,L|479:269,1,64.9999952316285,10|0,1:0|1:0,0:0:0:0:
426,334,48515,6,0,L|300:300,1,129.999990463257,0|10,1:0|1:0,0:0:0:0:
227,343,49218,1,2,0:0:0:0:
151,305,49452,1,2,1:0:0:0:
156,220,49687,2,0,L|139:157,1,64.9999952316285,2|10,0:0|1:0,0:0:0:0:
60,127,50155,1,2,0:0:0:0:
179,7,50624,6,0,L|252:17,1,64.9999952316285,8|8,0:3|0:1,0:0:0:0:
323,43,51093,2,0,L|340:106,1,64.9999952316285,8|8,0:3|0:3,0:0:0:0:
300,182,51561,1,0,1:1:0:0:
216,198,51796,2,0,L|199:261,1,64.9999952316285,8|8,0:1|0:1,0:0:0:0:
172,341,52265,6,0,P|121:378|57:372,1,129.999990463257,4|10,1:1|1:1,0:0:0:0:
3,307,52968,1,2,0:0:0:0:
42,232,53202,2,0,L|25:169,1,64.9999952316285,2|2,1:0|0:0,0:0:0:0:
67,96,53671,1,10,1:0:0:0:
149,80,53905,1,2,0:0:0:0:
283,182,54374,6,0,L|299:249,1,64.9999952316285,2|8,0:1|1:0,0:0:0:0:
321,323,54843,2,0,L|384:306,1,64.9999952316285,2|2,0:0|1:0,0:0:0:0:
466,288,55311,1,2,0:0:0:0:
492,207,55546,2,0,L|509:144,1,64.9999952316285,10|0,1:0|1:0,0:0:0:0:
449,83,56015,6,0,L|325:116,1,129.999990463257,0|10,1:0|1:0,0:0:0:0:
254,67,56718,1,2,0:0:0:0:
176,100,56952,2,0,L|159:163,1,64.9999952316285,2|2,1:0|0:0,0:0:0:0:
193,240,57421,1,10,1:0:0:0:
147,310,57655,1,2,0:0:0:0:
63,296,57890,1,0,1:0:0:0:
7,136,58358,2,0,L|40:12,1,129.999990463257,8|0,0:1|0:0,0:0:0:0:
188,91,59296,2,0,L|251:74,1,64.9999952316285,8|8,0:1|0:1,0:0:0:0:
307,11,59765,6,0,P|370:4|421:42,1,129.999990463257,4|10,1:0|1:0,0:0:0:0:
465,114,60468,1,2,0:0:0:0:
402,170,60702,2,0,L|385:233,1,64.9999952316285,2|2,1:0|0:0,0:0:0:0:
423,308,61171,1,10,1:0:0:0:
361,365,61405,2,0,L|298:382,1,64.9999952316285,0|0,0:0|1:0,0:0:0:0:
227,335,61874,1,2,0:0:0:0:
198,168,62343,6,0,L|215:105,1,64.9999952316285,2|2,0:0|1:0,0:0:0:0:
177,29,62811,1,2,0:0:0:0:
92,29,63046,2,0,L|29:46,1,64.9999952316285,10|0,1:0|1:0,0:0:0:0:
45,129,63515,6,0,L|11:254,1,129.999990463257,0|10,1:0|1:0,0:0:0:0:
37,335,64218,1,2,0:0:0:0:
117,361,64452,2,0,L|180:344,1,64.9999952316285,2|2,1:0|0:0,0:0:0:0:
209,264,64921,1,10,1:0:0:0:
406,241,65624,6,0,L|389:178,1,64.9999952316285,8|8,0:3|1:0,0:0:0:0:
307,154,66093,2,0,L|324:91,1,64.9999952316285,8|0,0:3|3:0,0:0:0:0:
349,10,66561,1,8,1:0:0:0:
183,45,67030,1,8,1:0:0:0:
142,119,67265,6,0,P|135:182|173:233,1,129.999990463257,4|10,1:0|1:0,0:0:0:0:
252,263,67968,1,2,0:0:0:0:
311,202,68202,2,0,L|374:219,1,64.9999952316285,2|2,1:0|0:0,0:0:0:0:
448,178,68671,1,10,1:0:0:0:
509,236,68905,1,2,0:0:0:0:
427,383,69374,6,0,L|349:374,1,64.9999952316285,2|8,0:0|1:0,0:0:0:0:
290,340,69843,2,0,L|227:357,1,64.9999952316285,2|2,0:0|1:0,0:0:0:0:
144,341,70311,1,2,0:0:0:0:
120,259,70546,2,0,L|137:196,1,64.9999952316285,10|0,1:0|1:0,0:0:0:0:
217,171,71015,6,0,L|184:47,1,129.999990463257,0|10,1:0|1:0,0:0:0:0:
111,0,71718,1,2,0:0:0:0:
36,38,71952,2,0,L|19:101,1,64.9999952316285,2|2,1:0|0:0,0:0:0:0:
60,174,72421,1,10,1:0:0:0:
17,247,72655,1,2,0:0:0:0:
72,310,72890,1,2,1:0:0:0:
231,254,73358,2,0,L|356:288,2,129.999990463257,8|0|8,1:0|0:0|1:0,0:0:0:0:
192,106,74765,1,4,1:2:0:0:
192,106,82265,6,0,P|239:73|297:77,1,116.999987846375
444,115,83202,1,8,0:0:0:0:
472,264,83671,2,0,P|468:321|500:369,2,116.999987846375
342,344,85077,2,0,P|284:347|236:315,1,116.999987846375,8|0,0:0|0:0,0:0:0:0:
190,255,85780,1,0,0:0:0:0:
232,191,86015,6,0,L|202:78,1,116.999987846375
64,12,86952,1,8,0:0:0:0:
0,150,87421,1,0,0:0:0:0:
135,219,87890,2,0,L|105:332,1,116.999987846375
162,382,88593,1,0,0:0:0:0:
226,341,88827,2,0,L|282:326,1,58.4999939231875,8|0,0:0|0:0,0:0:0:0:
335,271,89296,2,0,L|350:215,1,58.4999939231875
369,140,89765,6,0,P|416:107|474:111,1,116.999987846375,4|2,1:2|0:0,0:0:0:0:
509,261,90702,1,10,0:1:0:0:
388,353,91171,2,0,L|304:330,1,87.7499908847812,2|0,0:0|0:0,0:0:0:0:
280,257,91757,2,0,L|196:279,1,87.7499908847812,2|2,0:0|0:0,0:0:0:0:
151,342,92343,1,0,0:0:0:0:
75,334,92577,1,8,0:1:0:0:
1,200,93046,6,0,L|23:116,1,87.7499908847812,2|0,0:0|0:0,0:0:0:0:
98,128,93632,2,0,L|182:106,1,87.7499908847812,2|2,0:0|1:2,0:0:0:0:
212,35,94218,1,2,0:0:0:0:
285,15,94452,2,0,L|398:45,1,116.999987846375,10|0,0:1|0:0,0:0:0:0:
309,168,95390,2,0,L|324:224,1,58.4999939231875,2|2,0:0|1:0,0:0:0:0:
395,251,95858,2,0,L|380:307,1,58.4999939231875,2|2,1:0|0:0,0:0:0:0:
354,379,96327,1,10,0:1:0:0:
217,311,96796,5,2,0:0:0:0:
149,345,97030,1,2,0:0:0:0:
82,307,97265,2,0,P|49:259|53:201,1,116.999987846375,6|2,1:2|0:0,0:0:0:0:
118,64,98202,1,10,0:1:0:0:
218,178,98671,2,0,L|302:201,1,87.7499908847812,2|0,0:0|0:0,0:0:0:0:
327,273,99257,2,0,L|411:251,1,87.7499908847812,2|2,0:0|0:0,0:0:0:0:
485,270,99843,1,0,0:0:0:0:
509,198,100077,1,8,0:1:0:0:
454,55,100546,6,0,L|370:33,1,87.7499908847812,2|0,0:0|0:0,0:0:0:0:
342,104,101132,2,0,L|258:126,1,87.7499908847812,0|2,0:0|1:2,0:0:0:0:
195,80,101718,1,2,0:0:0:0:
128,116,101952,2,0,L|98:229,1,116.999987846375,10|0,0:1|0:0,0:0:0:0:
170,363,102890,1,2,0:0:0:0:
313,314,103358,2,0,L|426:283,2,116.999987846375,8|0|8,1:0|1:0|1:0,0:0:0:0:
274,166,104765,6,0,P|270:109|302:61,1,116.999987846375,4|8,1:0|0:1,0:0:0:0:
447,14,105702,1,8,0:1:0:0:
506,154,106171,2,0,P|510:211|478:259,1,116.999987846375,8|8,0:1|0:1,0:0:0:0:
413,300,106874,1,0,3:1:0:0:
336,168,107343,1,0,3:1:0:0:
205,248,107811,1,0,3:1:0:0:
149,195,108046,1,8,0:1:0:0:
167,44,108515,6,0,L|55:14,2,116.999987846375,8|8|8,0:1|0:1|0:1,0:0:0:0:
313,4,109921,2,0,L|343:116,1,116.999987846375,8|8,0:1|0:1,0:1:0:0:
404,161,110624,1,0,3:1:0:0:
383,234,110858,2,0,L|368:291,1,58.4999939231875,8|0,0:1|3:1,0:1:0:0:
293,307,111327,2,0,L|278:364,2,58.4999939231875,8|0|8,0:1|3:1|0:1,0:1:0:0:
234,257,112030,1,0,3:1:0:0:
157,254,112265,6,0,P|113:215|103:158,1,116.999987846375,8|8,3:1|3:1,3:1:0:0:
102,83,112968,1,8,0:1:0:0:
108,6,113202,1,8,0:1:0:0:
258,29,113671,1,8,0:1:0:0:
277,102,113905,1,8,0:1:0:0:
302,175,114140,2,0,P|306:232|274:280,1,116.999987846375,8|8,0:1|0:1,0:1:0:0:
208,318,114843,1,8,0:1:0:0:
146,273,115077,2,0,L|89:288,1,58.4999939231875,8|8,0:1|0:1,0:0:0:0:
15,306,115546,1,8,0:1:0:0:
6,154,116015,6,0,L|21:97,1,58.4999939231875,8|8,0:1|0:1,0:0:0:0:
81,51,116483,2,0,L|138:36,1,58.4999939231875,8|8,0:1|0:1,0:0:0:0:
191,90,116952,2,0,L|303:120,1,58.4999939231875,8|8,0:1|0:1,0:0:0:0:
319,79,117421,1,8,0:1:0:0:
346,149,117655,1,8,0:1:0:0:
380,217,117890,1,10,0:1:0:0:
71,373,119061,1,0,1:0:0:0:
28,309,119296,2,0,L|43:252,1,58.4999939231875,8|0,0:0|0:0,0:0:0:0:
70,172,119765,6,0,P|120:134|184:140,1,129.999990463257,4|10,1:0|1:0,0:0:0:0:
253,189,120468,1,2,0:0:0:0:
216,265,120702,1,2,1:0:0:0:
274,325,120937,2,0,L|337:342,1,64.9999952316285,2|10,0:0|1:0,0:0:0:0:
397,283,121405,1,2,0:0:0:0:
456,124,121874,6,0,L|439:49,1,64.9999952316285,2|10,0:0|1:0,0:0:0:0:
370,20,122343,2,0,L|307:3,1,64.9999952316285,2|2,0:0|1:0,0:0:0:0:
227,29,122811,1,2,0:0:0:0:
245,111,123046,2,0,L|262:174,1,64.9999952316285,10|0,1:0|1:0,0:0:0:0:
340,204,123515,6,0,L|307:328,1,129.999990463257,0|10,1:0|1:0,0:0:0:0:
240,382,124218,1,2,0:0:0:0:
157,366,124452,1,2,1:0:0:0:
133,284,124687,2,0,L|116:221,1,64.9999952316285,2|10,0:0|1:0,0:0:0:0:
34,199,125155,1,2,0:0:0:0:
119,53,125624,6,0,L|131:124,1,64.9999952316285,8|8,0:3|1:0,0:0:0:0:
188,177,126093,2,0,L|251:160,1,64.9999952316285,8|8,0:3|0:3,0:0:0:0:
263,76,126561,1,0,1:1:0:0:
337,36,126796,2,0,L|400:53,1,64.9999952316285,8|8,0:1|0:1,0:0:0:0:
481,76,127265,6,0,P|518:126|512:190,1,129.999990463257,4|10,1:1|1:1,0:0:0:0:
470,263,127968,1,2,0:0:0:0:
390,234,128202,2,0,L|327:251,1,64.9999952316285,2|2,1:0|0:0,0:0:0:0:
285,324,128671,1,10,1:0:0:0:
202,304,128905,1,2,0:0:0:0:
79,187,129374,6,0,L|92:96,1,64.9999952316285,2|8,0:0|1:0,0:0:0:0:
139,55,129843,2,0,L|202:38,1,64.9999952316285,2|2,0:0|1:0,0:0:0:0:
285,45,130311,1,2,0:0:0:0:
295,129,130546,2,0,L|278:192,1,64.9999952316285,10|0,1:0|1:0,0:0:0:0:
197,219,131015,6,0,L|230:343,1,129.999990463257,0|10,1:0|1:0,0:0:0:0:
306,382,131718,1,2,0:0:0:0:
360,318,131952,2,0,L|423:335,1,64.9999952316285,2|2,1:0|0:0,0:0:0:0:
492,286,132421,1,10,1:0:0:0:
482,202,132655,1,2,0:0:0:0:
400,179,132890,1,0,1:0:0:0:
313,33,133358,2,0,L|187:0,1,129.999990463257,8|0,0:1|0:0,0:0:0:0:
36,76,134296,2,0,L|53:139,1,64.9999952316285,8|8,0:1|0:1,0:0:0:0:
79,219,134765,6,0,P|129:256|193:250,1,129.999990463257,4|10,1:0|1:0,0:0:0:0:
261,199,135468,1,2,0:0:0:0:
223,123,135702,2,0,L|240:60,1,64.9999952316285,2|2,1:0|0:0,0:0:0:0:
312,17,136171,1,10,1:0:0:0:
374,73,136405,2,0,L|437:56,1,64.9999952316285,0|0,0:0|1:0,0:0:0:0:
497,114,136874,1,2,0:0:0:0:
351,200,137343,6,0,L|334:263,1,64.9999952316285,2|2,0:0|1:0,0:0:0:0:
356,343,137811,1,2,0:0:0:0:
273,364,138046,2,0,L|210:381,1,64.9999952316285,10|0,1:0|1:0,0:0:0:0:
146,325,138515,6,0,L|179:199,1,129.999990463257,0|10,1:0|1:0,0:0:0:0:
263,190,139218,1,2,0:0:0:0:
314,123,139452,2,0,L|297:60,1,64.9999952316285,2|2,1:0|0:0,0:0:0:0:
219,40,139921,1,10,1:0:0:0:
48,123,140624,6,0,L|65:186,1,64.9999952316285,8|8,0:3|1:0,0:0:0:0:
141,221,141093,2,0,L|124:284,1,64.9999952316285,8|0,0:3|3:0,0:0:0:0:
104,365,141561,1,8,1:0:0:0:
265,313,142030,1,8,1:0:0:0:
325,372,142265,6,0,P|388:378|439:340,1,129.999990463257,4|10,1:0|1:0,0:0:0:0:
469,261,142968,1,2,0:0:0:0:
399,212,143202,2,0,L|382:149,1,64.9999952316285,2|2,1:0|0:0,0:0:0:0:
422,74,143671,1,10,1:0:0:0:
357,19,143905,1,2,0:0:0:0:
209,100,144374,6,0,L|139:118,1,64.9999952316285,2|8,0:0|1:0,0:0:0:0:
139,198,144843,2,0,L|156:261,1,64.9999952316285,2|2,0:0|1:0,0:0:0:0:
131,341,145311,1,2,0:0:0:0:
206,379,145546,2,0,L|269:362,1,64.9999952316285,10|0,1:0|1:0,0:0:0:0:
290,280,146015,6,0,L|414:313,1,129.999990463257,0|10,1:0|1:0,0:0:0:0:
495,286,146718,1,2,0:0:0:0:
510,203,146952,2,0,L|493:140,1,64.9999952316285,2|2,1:0|0:0,0:0:0:0:
422,93,147421,1,10,1:0:0:0:
342,120,147655,1,2,0:0:0:0:
318,201,147890,1,2,1:0:0:0:
221,339,148358,2,0,L|95:372,1,129.999990463257,8|0,0:0|0:0,0:0:0:0:
2,230,149296,2,0,L|35:106,1,129.999990463257,8|0,0:0|0:0,0:0:0:0:
