osu file format v14

[General]
AudioFilename: dizzy.mp3
AudioLeadIn: 0
PreviewTime: 30562
Countdown: 0
SampleSet: None
StackLeniency: 0.2
Mode: 0
LetterboxInBreaks: 0
WidescreenStoryboard: 1

[Editor]
Bookmarks: 622,4462,8302,12142,15982,19822,23662,27502,31342,35182,39022,42862,46702,48622,50542,52462,54382,56242,58222,60142,62062,63982,65902,67822,71662,75502,79342,83182,87022,90862,94702,96622,98542,100462,102382,104302,106222,108142,110062,113902,117742,121582,125422,129262,133102,136942,140782,144622,148462,150382,152302,154222,156142,158062,159982,161902,163822,167662,171502
DistanceSpacing: 2.4
BeatDivisor: 8
GridSize: 8
TimelineZoom: 2.599999

[Metadata]
Title:Dizzy
TitleUnicode:Dizzy
Artist:Balduin & Wolfgang Lohr (feat. Alanna)
ArtistUnicode:Balduin & Wolfgang Lohr (feat. Alanna)
Creator:Axarious
Version:CS3
Source:
Tags:electro swing pop
BeatmapID:0
BeatmapSetID:660298

[Difficulty]
HPDrainRate:3
CircleSize:3
OverallDifficulty:8
ApproachRate:9.6
SliderMultiplier:3.2
SliderTickRate:1

[Events]
//Background and Video events
0,0,"dizzy.png",0,0
//Break Periods
2,64182,65393
2,110262,113393
//Storyboard Layer 0 (Background)
//Storyboard Layer 1 (Fail)
//Storyboard Layer 2 (Pass)
//Storyboard Layer 3 (Foreground)
//Storyboard Sound Samples

[TimingPoints]
622,480,4,2,0,60,1,0
1342,-50,4,2,0,60,0,0
1582,-100,4,2,0,60,0,0
1822,-50,4,2,0,60,0,0
2062,-100,4,2,0,60,0,0
2782,-50,4,2,0,60,0,0
3022,-100,4,2,0,60,0,0
3262,-50,4,2,0,60,0,0
3502,-100,4,2,0,60,0,0
3742,-50,4,2,0,60,0,0
3982,-100,4,2,0,60,0,0
4222,-50,4,2,0,60,0,0
4462,-200,4,2,0,60,0,0
8302,-66.6666666666667,4,2,0,60,0,0
8782,-100,4,2,0,60,0,0
9022,-66.6666666666667,4,2,0,60,0,0
9262,-100,4,2,0,60,0,0
9502,-66.6666666666667,4,2,0,60,0,0
9742,-100,4,2,0,60,0,0
10222,-66.6666666666667,4,2,0,60,0,0
10462,-50,4,2,0,60,0,0
10702,-66.6666666666667,4,2,0,60,0,0
10942,-50,4,2,0,60,0,0
11182,-66.6666666666667,4,2,0,60,0,0
11422,-50,4,2,0,60,0,0
11662,-66.6666666666667,4,2,0,60,0,0
12142,-50,4,2,0,60,0,0
12622,-100,4,2,0,60,0,0
15982,-66.6666666666667,4,2,0,60,0,0
16222,-100,4,2,0,60,0,0
23662,-66.6666666666667,4,2,0,60,0,0
30622,-100,4,2,0,60,0,0
31342,-66.6666666666667,4,2,0,60,0,1
31582,-66.6666666666667,4,1,0,60,0,0
31822,-100,4,1,0,60,0,0
32062,-200,4,1,0,60,0,0
32302,-133.333333333333,4,1,0,60,0,0
32542,-80,4,1,0,60,0,0
32782,-57.1428571428571,4,1,0,60,0,0
33022,-50,4,1,0,60,0,0
46702,-50,4,3,0,60,0,1
53902,-50,4,3,0,60,0,0
54382,-50,4,3,0,60,0,1
62062,-200,4,2,0,60,0,0
71662,-100,4,2,0,60,0,0
77422,-83.3333333333333,4,2,0,60,0,0
77902,-71.4285714285714,4,2,0,60,0,0
78382,-62.5,4,2,0,60,0,0
79342,-62.5,4,3,0,60,0,1
79582,-62.5,4,3,0,60,0,0
87022,-83.3333333333333,4,3,0,60,0,0
94702,-100,4,3,0,60,0,0
95182,-100,4,3,0,60,0,1
101902,-100,4,3,0,60,0,0
102382,-100,4,3,0,60,0,1
110062,-100,4,2,0,60,0,0
117742,-500,4,2,0,60,0,0
125422,-200,4,2,0,60,0,0
125662,-50,4,2,0,60,0,0
125902,-66.6666666666667,4,2,0,60,0,0
131182,-147.058823529412,4,2,0,60,0,0
131662,-66.6666666666667,4,2,0,60,0,0
132142,-100,4,2,0,60,0,0
132382,-80,4,2,0,60,0,0
132622,-66.6666666666667,4,2,0,60,0,0
132862,-57.1428571428571,4,2,0,60,0,0
133102,-50,4,2,0,60,0,1
133342,-66.6666666666667,4,3,0,60,0,0
133582,-100,4,3,0,60,0,0
133822,-200,4,3,0,60,0,0
134062,-133.333333333333,4,3,0,60,0,0
134302,-100,4,3,0,60,0,0
134542,-80,4,3,0,60,0,0
134782,-66.6666666666667,4,3,0,60,0,0
135022,-50,4,3,0,60,0,0
148462,-66.6666666666667,4,3,0,60,0,1
155662,-66.6666666666667,4,3,0,60,0,0
156142,-50,4,3,0,60,0,1
163822,-50,4,3,0,60,0,0

[Colours]
Combo1 : 248,217,152
Combo2 : 194,166,247
Combo3 : 132,202,240
Combo4 : 252,160,210

[HitObjects]
85,253,142,6,0,P|82:288|47:283,1,80,0|0,3:0|3:0,3:0:0:0:
41,236,382,1,2,0:0:0:0:
110,71,622,6,0,B|108:54|91:56|93:73|93:73|107:165|107:165|110:182|94:185|91:169,1,160,4|0,0:0|0:0,0:0:0:0:
185,149,1102,6,0,B|189:155|198:152|198:152|190:103|190:103|199:99|204:108,1,80,8|0,0:0|0:0,0:0:0:0:
275,140,1342,6,0,B|315:156|359:148|351:116|395:108|431:124,1,160
418,231,1582,6,0,P|406:202|394:231,1,80,2|0,0:0|0:0,0:0:0:0:
484,276,1822,6,0,B|464:292|432:284|432:284|408:300|384:284|384:284|352:292|332:276,1,160
379,341,2062,6,0,P|341:354|302:349,1,80,8|0,0:0|0:0,0:0:0:0:
226,360,2302,6,0,P|265:364|302:349,1,80
226,360,2542,6,0,P|188:373|149:368,1,80,2|0,0:0|0:0,0:0:0:0:
104,306,2782,6,0,P|149:367|225:359,1,160
73,377,3022,6,0,P|112:382|149:368,1,80,8|0,0:0|0:0,0:0:0:0:
180,298,3262,6,0,P|148:367|72:376,1,160
128,232,3502,6,0,L|206:218,1,80,2|0,0:0|0:0,0:0:0:0:
285,205,3742,6,0,L|128:232,1,160
286,205,3982,6,0,L|364:191,1,80,8|0,0:0|0:0,0:0:0:0:
443,178,4222,6,0,L|286:205,1,160
444,177,4462,5,4,0:0:0:0:
365,190,4622,1,0,0:0:0:0:
365,190,4702,2,0,L|337:160,1,40
286,205,4942,1,8,0:0:0:0:
207,218,5182,1,0,0:0:0:0:
128,232,5342,1,0,0:0:0:0:
128,232,5422,2,0,L|115:270,1,40,8|0,0:0|0:0,0:0:0:0:
49,250,5662,2,0,L|10:259,1,40,8|0,0:0|0:0,0:0:0:0:
72,172,5902,5,8,0:0:0:0:
184,292,6062,1,0,0:0:0:0:
184,292,6142,2,0,L|223:283,1,40
235,143,6382,5,8,0:0:0:0:
347,263,6542,1,0,0:0:0:0:
347,263,6622,2,0,L|386:254,1,40
398,114,6862,5,8,0:0:0:0:
510,234,7102,1,0,0:0:0:0:
457,173,7262,1,0,0:0:0:0:
457,173,7342,6,0,L|469:134,1,40,8|0,0:0|0:0,0:0:0:0:
286,205,7582,1,8,0:0:0:0:
128,232,7822,5,10,0:0:0:0:
207,218,7942,1,8,0:0:0:0:
256,280,8062,2,0,L|256:336,1,53.3333333333333,8|0,0:0|0:0,0:0:0:0:
256,360,8302,6,0,B|216:360|216:360|216:348|216:348|168:348|168:348|168:372|168:372|120:372|120:372|120:360|120:360|63:360,1,240.000009155274,4|0,0:0|0:0,0:0:0:0:
40,360,8662,5,0,0:0:0:0:
8,280,8782,6,0,B|36:280|36:280|48:276|48:276|60:280|60:280|88:280,1,80,8|0,0:0|0:0,0:0:0:0:
136,344,9022,2,0,L|256:344,1,120.000004577637
504,256,9262,6,0,B|476:256|476:256|464:252|464:252|452:256|452:256|424:256,1,80
376,320,9502,2,0,L|252:320,1,120.000004577637
144,248,9742,6,0,B|200:248|200:248|224:240|224:240|256:240,1,106.666666666667,8|0,0:0|0:0,0:0:0:0:
288,240,9982,2,0,B|312:248|312:248|368:248,1,80
504,176,10222,6,0,B|480:160|464:160|464:160|448:168|432:160|432:160|416:160|392:176,1,120.000004577637
414,255,10462,2,0,B|386:247|362:247|335:251|335:251|307:247|283:247|256:255,1,160
8,156,10702,6,0,B|32:140|48:140|48:140|64:148|80:140|80:140|96:140|120:156,1,120.000004577637,8|0,0:0|0:0,0:0:0:0:
97,236,10942,2,0,B|125:228|149:228|176:232|176:232|204:228|228:228|256:236,1,160
308,318,11182,6,0,P|256:344|204:318,1,120.000004577637
176,368,11422,2,0,B|216:360|256:368|256:368|296:360|336:368,1,160
332,247,11662,6,0,P|256:269|180:248,1,160.000006103516,8|0,0:0|0:0,0:0:0:0:
204,164,11902,2,0,P|256:189|308:164,1,120.000004577637
176,88,12142,6,2,B|168:24|80:24|72:88|72:88|68:120|20:120|16:88|16:88|12:56|44:44|76:56|72:88|72:88|64:152|64:152|60:184|12:184|8:152,1,480,2|2,1:0|1:0,1:0:0:0:
0,56,12622,6,0,P|40:40|88:64,1,80,4|0,0:0|0:0,0:0:0:0:
144,112,12862,2,0,P|160:152|136:200,1,80
80,248,13102,5,8,0:0:0:0:
128,96,13262,1,0,0:0:0:0:
128,96,13342,1,8,0:0:0:0:
256,192,13582,6,0,L|368:192,1,106.666666666667
376,168,13822,2,0,P|392:208|368:256,1,80,8|0,0:0|0:0,0:0:0:0:
512,328,14062,6,0,P|472:344|424:320,1,80
368,272,14302,2,0,P|352:232|376:184,1,80,8|0,0:0|0:0,0:0:0:0:
432,136,14542,5,2,0:0:0:0:
384,288,14702,1,0,0:0:0:0:
384,288,14782,1,8,0:0:0:0:
256,192,14942,1,0,0:0:0:0:
256,192,15022,6,0,L|144:192,1,106.666666666667,8|0,0:0|0:0,0:0:0:0:
136,208,15262,2,0,P|120:168|144:112,1,106.666666666667,8|0,0:0|0:0,0:0:0:0:
48,96,15502,6,0,L|160:96,1,106.666666666667,2|0,0:0|0:0,0:0:0:0:
168,112,15742,2,0,P|184:72|160:16,1,106.666666666667,8|0,0:0|0:0,0:0:0:0:
256,0,15982,6,0,B|264:16|264:16|274:27|274:27|272:40|272:40|288:64|296:104|280:152,1,160.000006103516,4|0,0:0|0:0,0:0:0:0:
208,184,16222,6,0,P|200:232|240:272,1,106.666666666667
237,271,16462,6,0,P|272:304|320:264,1,106.666666666667
317,278,16702,6,0,P|389:270|437:238,1,106.666666666667
464,192,16942,5,0,0:0:0:0:
464,321,17182,1,0,0:0:0:0:
334,380,17422,2,0,P|294:376|255:384,1,80
197,327,17662,2,0,P|232:308|271:302,1,80
333,247,17902,5,0,0:0:0:0:
204,347,18142,1,0,0:0:0:0:
68,270,18382,2,0,P|71:230|63:191,1,80
121,133,18622,2,0,P|139:168|145:207,1,80
52,292,18862,5,0,0:0:0:0:
106,111,19102,1,0,0:0:0:0:
283,179,19342,2,0,P|322:182|361:174,1,80
497,99,19582,2,0,P|461:117|422:123,1,80
347,97,19822,5,4,0:0:0:0:
436,216,20062,1,0,0:0:0:0:
495,80,20302,5,8,0:0:0:0:
335,90,20462,1,0,0:0:0:0:
335,90,20542,1,0,0:0:0:0:
175,100,20702,1,0,0:0:0:0:
168,113,20782,6,0,P|168:151|199:175,1,80
317,169,21022,2,0,P|345:142|341:103,1,80
175,100,21262,6,0,L|68:107,1,106.666666666667,8|0,0:0|0:0,0:0:0:0:
56,120,21502,2,0,P|55:158|86:182,1,80
0,240,21742,6,0,B|64:256|136:224|64:176|136:144|205:167,1,240
205,167,22222,6,0,B|248:184|256:224|256:267|256:267|256:224|264:184|307:166,1,240,8|0,0:0|0:0,0:0:0:0:
306,167,22702,6,0,B|376:144|448:176|376:224|448:256|512:240,1,240
480,160,23182,6,0,P|472:120|424:112,1,80,8|0,0:0|0:0,0:0:0:0:
344,240,23422,1,0,0:0:0:0:
368,320,23542,1,0,0:0:0:0:
448,352,23662,6,0,B|456:288|432:224|384:264|360:200|368:136,1,240.000009155274,4|0,0:0|0:0,0:0:0:0:
403,31,24022,1,0,0:0:0:0:
392,116,24142,6,0,L|379:235,1,120.000004577637,8|0,0:0|0:0,0:0:0:0:
272,272,24382,1,0,0:0:0:0:
448,352,24502,1,0,0:0:0:0:
368,344,24622,6,0,L|355:225,2,120.000004577637
368,138,24982,1,0,0:0:0:0:
280,168,25102,6,0,L|161:153,1,120.000004577637,8|0,0:0|0:0,0:0:0:0:
320,63,25342,2,0,P|364:25|423:21,1,120.000004577637
496,160,25582,6,0,L|511:41,1,120.000004577637
448,272,25822,2,0,L|463:153,1,120.000004577637
256,264,26062,6,0,L|137:279,1,120.000004577637,8|0,0:0|0:0,0:0:0:0:
221,175,26302,2,0,L|236:56,1,120.000004577637
32,230,26542,6,0,P|32:288|75:328,1,120.000004577637
307,152,26782,2,0,L|236:55,1,120.000004577637
322,33,27022,6,0,L|307:152,1,120.000004577637,8|0,0:0|0:0,0:0:0:0:
459,140,27262,2,0,P|493:55|415:102,1,240.000009155274,0|4,0:0|0:0,0:0:0:0:
512,8,27742,6,0,P|455:28|396:29,1,120.000004577637
321,32,27982,2,0,P|265:43|250:98,1,120.000004577637,8|0,0:0|0:0,0:0:0:0:
306,152,28222,6,0,P|314:230|282:302,1,160.000006103516
219,351,28462,2,0,P|191:297|183:238,1,120.000004577637
232,172,28702,6,0,P|245:114|238:55,1,120.000004577637
173,0,28942,2,0,P|115:2|74:44,1,120.000004577637,8|0,0:0|0:0,0:0:0:0:
91,121,29182,6,0,P|100:180|103:240,1,120.000004577637
32,287,29422,6,0,L|391:276,1,360.000013732911,2|0,0:0|0:0,0:0:0:0:
463,250,29902,6,0,L|103:239,1,360.000013732911,8|0,0:0|0:0,0:0:0:0:
23,202,30382,2,0,P|71:235|91:291,1,120.000004577637,2|0,0:0|0:0,0:0:0:0:
367,178,30622,6,0,P|413:202|466:197,1,106.666666666667,8|0,3:0|0:0,0:0:0:0:
193,157,30862,6,0,P|245:163|293:141,1,106.666666666667,8|0,3:0|0:0,0:0:0:0:
23,202,31102,6,0,P|74:190|111:153,1,106.666666666667,2|0,3:0|0:0,0:0:0:0:
341,23,31342,5,6,1:0:0:0:
430,164,31582,6,0,P|446:109|412:155,1,160,0|0,1:0|2:0,0:0:0:0:
234,103,31822,6,0,P|231:65|221:101,1,106.666666666667,8|0,1:0|2:0,0:0:0:0:
37,116,32062,6,0,P|26:99|26:119,1,53.3333333333333,0|0,0:0|2:0,0:0:0:0:
123,38,32302,6,0,P|121:70|109:42,1,80.0000030517579,2|0,0:0|2:0,0:0:0:0:
331,153,32542,6,0,P|296:185|317:143,1,133.333333333333,0|0,0:0|2:0,0:0:0:0:
467,341,32782,6,0,P|406:368|452:320,1,186.666668446859,8|0,0:0|2:0,0:0:0:0:
433,237,33022,6,0,P|360:263|321:331,1,160
115,360,33262,6,0,L|434:347,1,320,2|0,0:0|0:0,0:0:0:0:
218,340,33622,1,0,0:0:0:0:
2,320,33742,6,0,L|321:332,1,320,8|0,0:0|0:0,0:0:0:0:
434,240,34102,1,0,0:0:0:0:
219,339,34222,6,0,P|151:301|135:225,1,160,2|0,2:0|0:0,0:0:0:0:
304,203,34462,1,0,0:0:0:0:
148,137,34582,6,0,P|131:61|64:23,1,160,0|8,0:0|0:0,0:0:0:0:
135,226,34822,1,0,0:0:0:0:
268,115,34942,2,0,B|394:107|394:107|365:125,1,160
222,241,35182,6,0,B|231:283|231:283|290:13,1,320,4|0,0:0|0:0,0:0:0:0:
110,112,35542,1,0,0:0:0:0:
159,319,35662,6,0,B|436:305|436:305|398:325,1,320,8|0,0:0|0:0,0:0:0:0:
0,328,36022,1,0,0:0:0:0:
159,319,36142,6,0,L|319:326,1,160,2|0,2:0|0:0,0:0:0:0:
328,231,36382,2,0,L|488:238,1,160
124,162,36622,6,0,L|159:317,1,160,8|0,0:0|0:0,0:0:0:0:
88,6,36862,2,0,L|123:161,1,160
318,325,37102,6,0,P|248:234|133:239,1,240,2|0,2:0|0:0,0:0:0:0:
160,318,37342,2,0,L|0:327,1,160
408,162,37582,2,0,L|248:153,1,160,8|0,1:0|0:0,0:0:0:0:
424,62,37822,6,0,P|515:132|510:247,1,240
219,143,38062,2,0,L|379:136,1,160,2|0,2:0|0:0,0:0:0:0:
160,318,38302,2,0,L|320:325,1,160
86,54,38542,6,0,B|104:221|104:221|85:262,1,213.333333333333,8|0,0:0|0:0,0:0:0:0:
378,253,38782,6,0,L|299:240,1,80,2|2,3:0|3:0,3:0:0:0:
268,84,38902,2,0,L|188:71,1,80,8|8,3:0|3:0,3:0:0:0:
86,54,39022,5,4,1:3:0:0:
13,329,39262,2,0,B|223:311|223:311|241:333,1,240
311,381,39502,6,0,L|470:367,1,160,8|0,0:0|0:0,0:0:0:0:
162,373,39742,2,0,P|145:296|185:229,1,160
210,95,39982,6,0,L|242:333,1,240,2|0,2:0|0:0,0:0:0:0:
184,229,40222,6,0,B|315:217|315:217|299:240,1,160
13,329,40462,2,0,B|31:350|31:350|53:220,1,160,8|0,0:0|0:0,0:0:0:0:
242,333,40702,6,0,B|446:316|446:316|474:338,1,240
311,381,40942,6,0,L|338:62,1,320,2|0,0:0|0:0,0:0:0:0:
405,278,41302,1,0,0:0:0:0:
53,220,41422,6,0,L|371:192,1,320,8|0,0:0|0:0,0:0:0:0:
13,329,41782,1,0,0:0:0:0:
242,333,41902,6,0,P|174:295|158:219,1,160,2|0,2:0|0:0,0:0:0:0:
371,192,42142,1,0,0:0:0:0:
169,130,42262,6,0,P|152:54|85:16,1,160,0|8,0:0|0:0,0:0:0:0:
158,219,42502,1,0,0:0:0:0:
275,24,42622,2,0,B|265:42|265:42|404:32,1,160
84,15,42862,6,0,L|424:33,1,320,4|0,0:0|0:0,0:0:0:0:
211,59,43222,1,0,0:0:0:0:
19,90,43342,6,0,L|359:72,1,320,8|0,0:0|0:0,0:0:0:0:
84,15,43702,1,0,0:0:0:0:
0,168,43822,6,0,P|9:245|65:300,1,160,2|0,2:0|0:0,0:0:0:0:
211,59,44062,2,0,P|267:113|276:191,1,160
9,315,44302,6,0,L|171:301,1,160,8|0,0:0|0:0,0:0:0:0:
159,115,44542,2,0,L|321:101,1,160
43,380,44782,6,0,P|62:266|167:217,1,240,2|0,2:0|2:0,0:0:0:0:
168,301,45022,2,0,L|327:314,1,160,0|0,2:0|2:0,2:0:0:0:
258,119,45262,2,0,P|216:184|240:258,1,160,8|0,1:0|2:0,2:0:0:0:
490,79,45502,6,0,P|376:98|327:203,1,240,0|0,2:0|2:0,2:0:0:0:
327,203,45742,2,0,L|165:217,2,160,0|0|0,2:0|2:0|2:0,2:0:0:0:
0,101,46102,6,0,L|160:115,1,160,8|8,3:2|1:3,0:0:0:0:
147,334,46342,1,8,2:3:0:0:
328,315,46462,2,0,L|487:301,1,160,2|2,0:3|2:3,0:0:0:0:
406,336,46702,6,0,B|390:264|362:215|362:215|345:219|340:234,1,160,4|0,1:0|0:0,0:0:0:0:
264,264,46942,2,0,B|194:262|132:275|132:275|118:271|109:259,1,160
114,183,47182,6,0,B|116:117|181:79|181:79|32:54|0:101,1,320,8|0,1:0|0:0,0:0:0:0:
110,260,47542,1,0,0:0:0:0:
147,334,47662,5,2,2:0:0:0:
184,226,47782,1,0,0:0:0:0:
40,218,47902,5,0,0:0:0:0:
63,326,48022,1,0,0:0:0:0:
114,183,48142,6,0,B|101:167|101:167|145:147|197:150|235:177,1,160,8|0,1:0|0:0,0:0:0:0:
264,264,48382,2,0,B|255:309|275:357|311:389|311:389|320:371,1,160
406,336,48622,6,0,B|390:264|362:215|362:215|345:219|340:234,1,160,2|0,1:0|0:0,0:0:0:0:
264,264,48862,2,0,B|194:262|132:275|132:275|118:271|109:259,1,160
114,183,49102,6,0,B|116:117|181:79|181:79|151:73,1,160,8|0,1:0|0:0,0:0:0:0:
248,23,49342,2,0,B|290:54|359:44|359:44|379:28|398:27,1,160
487,168,49582,6,0,B|509:116|440:84|404:125|404:125|317:141|259:122|259:122|246:135|230:144,1,320,2|0,2:0|0:0,0:0:0:0:
189,293,49942,1,0,0:0:0:0:
109,260,50062,2,0,B|145:222|158:178|158:178|179:211|206:218,1,160,8|0,1:0|0:0,0:0:0:0:
291,194,50302,5,0,0:0:0:0:
308,332,50422,1,0,0:0:0:0:
406,336,50542,6,0,B|418:280|388:234|388:234|362:240|344:263,1,160,4|0,1:0|0:0,0:0:0:0:
264,264,50782,2,0,B|218:248|166:244|166:244|134:259|108:260,1,160
114,183,51022,6,0,B|85:173|71:148|71:148|85:86|78:4|78:4|62:77|0:99,1,320,8|0,1:0|0:0,0:0:0:0:
109,260,51382,1,0,0:0:0:0:
147,334,51502,5,2,2:0:0:0:
184,226,51622,1,0,0:0:0:0:
40,218,51742,5,0,0:0:0:0:
63,326,51862,1,0,0:0:0:0:
114,183,51982,6,0,B|150:148|207:138|207:138|237:146|250:181,1,160,8|0,1:0|0:0,0:0:0:0:
264,264,52222,2,0,B|245:286|253:316|253:316|290:360|338:374,1,160
406,336,52462,6,0,B|418:280|388:234|388:234|362:240|344:263,1,160,2|0,1:0|0:0,0:0:0:0:
264,264,52702,2,0,B|218:248|166:244|166:244|134:259|108:260,1,160
114,183,52942,6,0,B|85:173|71:148|71:148|85:86|78:4,1,160,8|0,1:0|0:0,0:0:0:0:
157,39,53182,2,0,B|194:55|241:98|241:98|269:98|293:78,1,160
198,171,53422,6,0,B|279:185|336:157|369:106|369:106|413:74|454:60|454:60|462:73|475:79,1,320,2|0,2:0|0:0,0:0:0:0:
446,261,53782,1,0,0:0:0:0:
426,168,53902,6,0,B|396:202|365:223|365:223|368:259|368:259|348:245|330:242,3,160,8|8|2|4,0:0|0:0|0:0|0:0,0:0:0:0:
157,308,54382,6,0,P|236:303|313:324,1,160,4|0,1:0|0:0,0:0:0:0:
313,324,54622,6,0,P|254:276|260:199,1,160
104,232,54862,6,0,P|246:192|313:324,1,320,8|0,1:0|0:0,0:0:0:0:
175,338,55222,1,0,0:0:0:0:
295,354,55342,5,2,2:0:0:0:
157,308,55462,1,0,0:0:0:0:
277,324,55582,5,0,0:0:0:0:
139,278,55702,1,0,0:0:0:0:
320,255,55822,6,0,P|388:215|437:152,1,160,8|0,1:0|0:0,0:0:0:0:
256,175,56062,2,0,P|187:214|138:277,1,160
437,153,56302,6,0,P|436:73|406:0,1,160,4|0,1:0|0:0,0:0:0:0:
365,323,56542,2,0,P|433:362|512:373,1,160
256,175,56782,2,0,P|187:214|138:277,1,160,8|0,1:0|0:0,0:0:0:0:
240,274,57022,6,0,P|191:337|123:377,1,160
105,176,57262,2,0,P|68:104|61:26,1,160,2|0,2:0|0:0,0:0:0:0:
138,277,57502,1,0,0:0:0:0:
258,107,57622,2,0,P|337:111|409:144,1,160,0|8,0:0|1:0,0:0:0:0:
168,71,57862,5,0,0:0:0:0:
358,228,57982,2,0,P|437:229|511:201,1,160,8|0,1:0|0:0,0:0:0:0:
305,374,58222,6,0,P|317:295|358:227,1,160,4|0,1:0|0:3,0:3:0:0:
258,107,58462,6,0,P|319:157|357:226,1,160,0|0,0:3|0:3,0:3:0:0:
389,334,58702,6,0,P|256:259|258:107,1,320,8|0,1:0|0:0,0:0:0:0:
358,227,59062,1,0,0:0:0:0:
345,69,59182,5,2,2:0:0:0:
267,201,59302,1,0,0:0:0:0:
409,144,59422,5,0,0:0:0:0:
258,107,59542,1,0,0:0:0:0:
358,228,59662,6,0,P|437:229|511:201,1,160,8|0,1:0|0:3,0:3:0:0:
305,374,59902,2,0,P|317:295|358:227,1,160,0|0,0:3|0:3,0:3:0:0:
258,107,60142,6,0,P|319:157|357:226,1,160,0|0,0:3|0:3,0:3:0:0:
206,253,60382,2,0,P|244:323|306:374,1,160,0|0,0:3|0:3,0:3:0:0:
159,145,60622,2,0,P|80:143|6:172,1,160,8|0,1:0|0:3,0:3:0:0:
276,158,60862,2,0,P|317:90|329:11,1,160,0|0,0:3|0:3,0:3:0:0:
159,145,61102,6,0,P|117:212|105:291,1,160,0|0,0:3|0:3,0:3:0:0:
305,373,61342,1,0,0:0:0:0:
305,373,61462,2,0,P|267:303|205:253,1,160,0|8,0:3|1:0,0:3:0:0:
35,384,61702,1,0,0:0:0:0:
35,384,61822,2,0,P|114:386|188:357,1,160,0|0,0:3|0:3,0:3:0:0:
368,128,62062,5,0,0:0:0:0:
336,32,62302,5,0,0:0:0:0:
248,0,62542,6,0,L|248:80,1,80
164,40,63022,2,0,L|164:120,1,80
80,32,63502,2,0,L|80:72,1,40
0,64,63742,1,0,0:0:0:0:
120,248,63982,5,0,0:0:0:0:
120,248,65902,6,0,L|120:328,1,80
208,224,66382,2,0,L|208:304,1,80,8|0,0:0|0:0,0:0:0:0:
72,160,66862,1,0,0:0:0:0:
248,128,67102,1,0,0:0:0:0:
352,285,67342,2,0,L|352:232,1,53.3333333333333,8|0,0:0|0:0,0:0:0:0:
432,200,67582,2,0,L|432:240,1,40
512,232,67822,5,4,0:0:0:0:
424,360,68062,2,0,L|424:320,1,40
344,384,68302,2,0,L|344:304,1,80,8|0,0:0|0:0,0:0:0:0:
272,264,68662,1,0,0:0:0:0:
288,184,68782,2,0,L|288:104,1,80,2|0,0:0|0:0,0:0:0:0:
96,24,69262,2,0,L|96:104,1,80,8|0,0:0|0:0,0:0:0:0:
176,8,69622,1,0,0:0:0:0:
256,16,69742,6,0,L|256:136,1,120,2|0,3:0|0:0,0:0:0:0:
336,56,70222,2,0,L|336:176,1,120,8|0,3:0|0:0,0:0:0:0:
416,144,70702,2,0,L|416:264,1,120,4|0,3:0|0:0,0:0:0:0:
320,240,71182,6,0,L|320:280,1,40,8|0,0:0|0:0,0:0:0:0:
304,360,71422,5,0,0:0:0:0:
240,304,71542,5,0,0:0:0:0:
232,224,71662,6,0,L|232:144,1,80,4|0,0:0|0:0,0:0:0:0:
264,64,71902,2,0,L|264:144,1,80
320,280,72142,1,8,0:0:0:0:
344,32,72382,1,0,0:0:0:0:
424,48,72502,1,0,0:0:0:0:
464,120,72622,2,0,L|464:200,1,80,2|0,0:0|0:0,0:0:0:0:
168,0,72862,2,0,L|168:80,1,80
136,208,73102,6,0,L|136:96,1,106.666666666667,8|0,0:0|0:0,0:0:0:0:
248,88,73342,2,0,L|248:168,1,80
280,200,73582,6,0,L|280:120,1,80,2|0,1:0|0:0,0:0:0:0:
360,144,73822,2,0,L|360:224,1,80
488,112,74062,1,8,0:0:0:0:
392,304,74302,2,0,L|392:384,1,80
472,368,74542,6,0,L|472:288,1,80,2|0,0:0|0:0,0:0:0:0:
208,320,74782,2,0,L|208:240,1,80
112,336,75022,6,0,L|112:256,1,80,8|0,0:0|0:0,0:0:0:0:
32,160,75262,2,0,L|32:80,1,80
0,0,75502,5,4,0:0:0:0:
208,24,75742,1,0,0:0:0:0:
416,48,75982,2,0,L|416:208,1,160,8|0,0:0|0:0,0:0:0:0:
336,200,76342,1,0,0:0:0:0:
280,136,76462,6,0,L|280:48,1,80,2|0,0:0|0:0,0:0:0:0:
208,24,76702,1,0,0:0:0:0:
128,32,76822,1,0,0:0:0:0:
72,88,76942,6,0,L|72:168,1,80,8|0,0:0|0:0,0:0:0:0:
120,232,77182,2,0,L|120:312,1,80
200,272,77422,6,0,L|200:368,1,95.9999970703126,2|0,0:0|0:0,0:0:0:0:
288,280,77662,2,0,L|288:376,1,95.9999970703126
384,232,77902,6,0,L|384:344,1,111.999996582031,8|0,0:0|0:0,0:0:0:0:
472,144,78142,2,0,L|472:256,1,111.999996582031
512,0,78382,6,2,L|512:384,1,384,2|0,1:0|0:0,1:0:0:0:
424,352,78862,6,0,L|424:224,1,128,8|0,0:0|0:0,0:0:0:0:
256,288,79102,2,0,L|256:160,1,128,8|0,0:0|0:0,0:0:0:0:
0,384,79342,6,0,L|256:384,1,256,4|0,1:0|0:0,0:0:0:0:
256,288,79702,1,0,0:0:0:0:
256,384,79822,6,0,L|384:384,1,128,8|0,1:0|0:0,0:0:0:0:
128,288,80062,2,0,L|256:288,1,128
256,288,80302,6,0,L|384:288,1,128,2|0,2:0|0:0,0:0:0:0:
128,192,80542,2,0,L|256:192,1,128
384,384,80782,6,0,L|512:384,1,128,8|0,1:0|0:0,0:0:0:0:
128,96,81022,2,0,L|256:96,1,128
256,288,81262,6,2,L|384:288,2,128,2|2|2,1:0|1:0|1:0,1:0:0:0:
384,192,81622,6,0,L|0:192,1,384,2|0,1:0|0:0,0:0:0:0:
0,288,82102,1,0,0:0:0:0:
0,384,82222,6,0,L|128:384,1,128,2|0,2:0|0:0,0:0:0:0:
512,384,82462,1,0,0:0:0:0:
512,288,82582,2,0,L|384:288,1,128,0|8,0:0|1:0,0:0:0:0:
128,288,82822,1,0,0:0:0:0:
128,384,82942,2,0,L|256:384,1,128
384,288,83182,6,0,L|256:288,1,128,4|0,1:0|0:0,0:0:0:0:
128,384,83422,2,0,L|0:384,1,128
128,192,83662,6,0,L|256:192,1,128,8|0,1:0|0:0,0:0:0:0:
384,384,83902,2,0,L|512:384,1,128
384,96,84142,6,0,L|256:96,1,128,2|0,2:0|0:0,0:0:0:0:
128,288,84382,2,0,L|0:288,1,128
128,0,84622,6,0,L|256:0,1,128,8|0,1:0|0:0,0:0:0:0:
384,288,84862,2,0,L|512:288,1,128
512,192,85102,6,2,L|256:192,1,256,2|0,1:0|0:0,1:0:0:0:
256,240,85462,1,0,0:0:0:0:
256,288,85582,2,0,L|384:288,1,128,8|0,1:0|0:0,0:0:0:0:
384,96,85822,2,0,L|256:96,1,128
0,96,86062,6,0,L|256:96,1,256,2|0,2:0|0:0,0:0:0:0:
256,144,86422,1,0,0:0:0:0:
256,192,86542,2,0,L|128:192,1,128,8|0,1:0|0:0,0:0:0:0:
128,0,86782,2,0,L|256:0,1,128
352,96,87022,6,0,B|352:192|352:192|256:192,1,191.999994140625,4|0,1:0|0:0,0:0:0:0:
256,96,87382,1,0,0:0:0:0:
256,0,87502,2,0,L|160:0,1,95.9999970703126,8|0,1:0|0:0,0:0:0:0:
64,96,87742,2,0,L|64:192,1,95.9999970703126
160,288,87982,6,0,L|256:288,1,95.9999970703126,2|0,2:0|0:0,0:0:0:0:
352,192,88222,2,0,L|352:96,1,95.9999970703126
160,96,88462,2,0,L|160:192,1,95.9999970703126,8|0,1:0|0:0,0:0:0:0:
256,288,88702,2,0,L|352:288,1,95.9999970703126
352,192,88942,6,2,B|352:96|352:96|256:96|256:96|256:288,1,383.99998828125,2|8,1:0|1:0,1:0:0:0:
352,288,89542,1,0,0:0:0:0:
352,192,89662,1,0,0:0:0:0:
256,192,89782,1,0,0:0:0:0:
256,288,89902,6,0,L|448:288,1,191.999994140625,2|0,2:0|0:0,0:0:0:0:
256,192,90262,2,0,L|448:192,1,191.999994140625
448,96,90622,1,0,0:0:0:0:
352,96,90742,1,0,0:0:0:0:
256,96,90862,6,0,L|256:192,1,95.9999970703126,4|0,1:0|0:0,0:0:0:0:
160,192,91102,2,0,L|256:192,1,95.9999970703126
256,288,91342,2,0,L|256:192,1,95.9999970703126,8|0,1:0|0:0,0:0:0:0:
352,192,91582,2,0,L|256:192,1,95.9999970703126
256,288,91822,6,0,L|160:288,1,95.9999970703126,2|0,2:0|0:0,0:0:0:0:
160,192,92062,2,0,L|160:96,1,95.9999970703126
256,96,92302,2,0,L|352:96,1,95.9999970703126,8|0,1:0|0:0,0:0:0:0:
352,192,92542,2,0,L|352:288,1,95.9999970703126
448,384,92782,6,2,L|448:192,1,191.999994140625,2|0,1:0|0:0,1:0:0:0:
448,96,93142,1,0,0:0:0:0:
448,0,93262,2,0,B|256:0,1,191.999994140625,8|0,1:0|0:0,0:0:0:0:
256,96,93622,1,0,0:0:0:0:
352,96,93742,2,0,L|352:192,1,95.9999970703126,8|8,0:0|0:0,0:0:0:0:
256,192,93982,2,0,L|160:192,1,95.9999970703126,2|4,0:0|0:0,0:0:0:0:
112,192,94162,5,0,0:0:0:0:
64,192,94222,6,0,L|40:192,8,23.9999992675781,2|0|2|0|2|0|2|0|4,0:0|0:0|0:0|0:0|0:0|0:0|0:0|0:0|2:0,0:0:0:0:
144,176,94702,6,0,B|144:216|144:216|128:256,1,80,0|0,2:0|2:0,2:0:0:0:
49,236,94942,2,0,B|49:196|49:196|65:156,1,80,0|0,2:0|2:0,2:0:0:0:
225,146,95182,6,0,B|227:226|227:226|197:302,1,160,4|0,1:0|0:0,0:0:0:0:
254,364,95542,1,0,0:0:0:0:
93,372,95662,6,0,L|176:378,2,80,2|0|0,2:0|0:0|1:0,0:0:0:0:
254,364,96022,1,0,0:0:0:0:
198,300,96142,6,0,L|114:293,2,80,8|0|0,1:0|0:0|0:0,0:0:0:0:
49,236,96502,1,0,0:0:0:0:
173,378,96622,5,2,1:0:0:0:
64,159,96742,1,0,0:0:0:0:
93,372,96862,5,0,0:0:0:0:
126,211,96982,1,0,0:0:0:0:
277,287,97102,2,0,B|294:287|294:287|354:269,1,80,8|0,1:0|0:0,0:0:0:0:
49,236,97342,5,0,0:0:0:0:
214,122,97462,1,0,0:0:0:0:
354,268,97582,2,0,B|407:300|407:300|423:305,1,80,2|0,2:0|0:0,0:0:0:0:
439,224,97822,5,0,0:0:0:0:
343,359,97942,1,0,0:0:0:0:
289,201,98062,2,0,B|367:187|367:187|439:224,1,160,8|0,1:0|0:0,0:0:0:0:
493,329,98422,1,0,0:0:0:0:
382,356,98542,6,0,B|343:359|343:359|305:346,1,80,4|0,1:0|0:0,0:0:0:0:
316,270,98782,2,0,B|354:266|354:266|393:280,1,80
211,216,99022,6,0,B|207:131|207:131|176:63,1,160,8|0,1:0|0:0,0:0:0:0:
126,0,99382,1,0,0:0:0:0:
117,232,99502,6,0,L|126:152,2,80,2|0|0,2:0|0:0|0:0,0:0:0:0:
95,76,99862,1,0,0:0:0:0:
45,144,99982,6,0,L|35:223,2,80,8|0|0,1:0|0:0|0:0,0:0:0:0:
175,295,100342,1,0,0:0:0:0:
0,384,100462,6,2,L|159:374,2,160,2|0|10,1:0|0:0|1:0,1:0:0:0:
117,232,101062,1,0,0:0:0:0:
175,295,101182,2,0,B|211:308|211:308|253:309,1,80
414,290,101422,5,2,2:0:0:0:
228,230,101542,1,0,0:0:0:0:
356,80,101662,5,0,1:0:0:0:
331,286,101782,1,0,0:0:0:0:
159,374,101902,5,8,0:0:0:0:
127,152,102022,1,8,0:0:0:0:
311,205,102142,5,2,0:0:0:0:
96,314,102262,1,4,0:0:0:0:
331,286,102382,6,0,B|326:326|326:326|309:361,1,80,4|0,1:0|0:0,0:0:0:0:
232,340,102622,2,0,B|237:300|237:300|254:265,1,80
414,290,102862,6,0,L|493:277,1,80,8|0,1:0|0:0,0:0:0:0:
450,92,103102,2,0,L|371:84,1,80
96,314,103342,6,0,L|87:234,2,80,2|0|0,2:0|0:0|0:0,0:0:0:0:
95,154,103702,1,0,0:0:0:0:
166,202,103822,6,0,L|175:282,2,80,8|0|0,1:0|0:0|0:0,0:0:0:0:
232,340,104182,1,0,0:0:0:0:
251,174,104302,5,2,1:0:0:0:
155,373,104422,1,0,0:0:0:0:
181,119,104542,5,0,0:0:0:0:
254,264,104662,1,0,0:0:0:0:
414,290,104782,2,0,B|427:267|427:267|437:214,1,80,8|0,1:0|0:0,0:0:0:0:
95,154,105022,5,0,0:0:0:0:
254,264,105142,1,0,0:0:0:0:
437,214,105262,2,0,B|482:184|482:184|494:161,1,80,2|0,2:0|0:0,0:0:0:0:
450,92,105502,5,0,0:0:0:0:
506,265,105622,1,0,0:0:0:0:
314,67,105742,2,0,B|378:22|378:22|459:10,1,160,8|0,1:0|0:0,0:0:0:0:
157,22,106102,1,0,0:0:0:0:
450,92,106222,6,0,B|410:98|410:98|378:122,1,80,4|0,1:0|0:0,0:0:0:0:
228,73,106462,2,0,B|233:33|233:33|257:0,1,80
150,105,106702,6,0,B|140:190|140:190|155:263,1,160,8|0,1:0|0:0,0:0:0:0:
99,329,107062,1,0,0:0:0:0:
221,152,107182,6,0,L|300:148,2,80,2|0|0,2:0|0:0|0:0,0:0:0:0:
378,175,107542,1,0,0:0:0:0:
313,229,107662,6,0,L|233:232,2,80,8|0|0,1:0|0:0|0:0,0:0:0:0:
155,263,108022,1,0,0:0:0:0:
440,346,108142,6,2,L|457:187,2,160,2|0|10,1:0|0:0|1:0,1:0:0:0:
428,113,108742,1,0,0:0:0:0:
356,337,108862,2,0,B|329:366|329:366|290:376,1,80
172,374,109102,5,2,2:0:0:0:
150,105,109222,1,0,0:0:0:0:
407,264,109342,5,0,0:0:0:0:
226,312,109462,1,0,0:0:0:0:
84,144,109582,5,8,0:0:0:0:
356,337,109702,1,8,0:0:0:0:
99,329,109822,5,2,0:0:0:0:
378,175,109942,1,4,0:0:0:0:
172,374,110062,5,4,1:0:0:0:
141,189,113902,6,0,B|157:199|157:199|175:197|175:197|195:215|195:215|274:224|274:224|306:208|323:184|325:148,1,240
256,192,115822,12,0,117502,0:0:0:0:
311,249,117742,5,0,0:0:0:0:
288,80,117982,1,0,0:0:0:0:
274,321,118222,6,0,L|271:353,1,32,8|0,0:0|0:0,0:0:0:0:
211,31,118702,2,0,L|205:0,1,32
54,242,119182,2,0,L|69:239,1,16,8|0,0:0|0:0,0:0:0:0:
148,226,119422,1,0,0:0:0:0:
0,324,119662,6,0,L|31:319,1,32
353,320,120142,1,8,0:0:0:0:
105,347,120382,1,0,0:0:0:0:
110,53,120622,2,0,L|106:21,1,32
54,242,121102,6,0,L|69:239,1,16,8|0,0:0|0:0,0:0:0:0:
148,226,121342,1,0,0:0:0:0:
350,171,121582,5,0,0:0:0:0:
208,289,121822,1,0,0:0:0:0:
99,162,122062,1,8,0:0:0:0:
175,383,122302,2,0,P|177:376|178:368,1,16
182,170,122542,6,0,L|188:201,1,32
298,290,122902,1,0,0:0:0:0:
353,227,123022,2,0,L|368:228,1,16,8|0,0:0|0:0,0:0:0:0:
405,305,123262,1,0,0:0:0:0:
241,24,123502,6,0,P|216:25|193:33,1,48
350,171,123982,2,0,L|357:218,1,48,8|0,0:0|0:0,0:0:0:0:
218,359,124462,2,0,L|170:351,1,48
86,365,124942,5,8,3:0:0:0:
47,289,125062,1,8,3:0:0:0:
107,228,125182,1,2,3:0:0:0:
183,266,125302,1,2,3:0:0:0:
171,351,125422,2,0,P|178:369|190:385,1,40,4|0,3:0|0:0,0:0:0:0:
248,328,125662,6,2,B|280:320|280:320|288:328|288:328|352:328|352:328|376:336|376:360|352:368,1,160,2|0,1:0|0:0,1:0:0:0:
337,364,125902,6,0,P|357:321|373:365,1,120.000004577637,8|0,1:0|0:0,0:0:0:0:
464,336,126142,6,0,B|480:312|480:312|472:280|472:280|480:248|480:248|464:224,1,120.000004577637
360,176,126382,6,0,P|387:241|417:177,1,180.000006866455,2|0,2:0|0:0,0:0:0:0:
496,96,126622,6,0,B|448:96|448:96|408:80|408:80|368:96|368:96|320:96,1,180.000006866455
312,16,126862,6,0,B|272:16|272:16|256:16|256:40|240:40|240:40|200:40,1,120.000004577637,8|0,1:0|0:0,0:0:0:0:
120,96,127102,6,0,B|136:88|136:88|120:176|120:176|136:168,1,120.000004577637
216,152,127342,6,0,B|264:152|264:152|304:192|304:192|344:184|344:184|328:168|312:168,1,180.000006866455,2|0,1:0|0:0,0:0:0:0:
224,232,127582,6,0,B|160:224|104:240|104:240|136:256|136:256|160:240,1,180.000006866455
168,328,127822,6,0,B|136:344|136:344|80:320|80:320|48:320,1,120.000004577637,8|0,1:0|0:0,0:0:0:0:
248,320,128062,6,0,B|280:304|280:304|336:304|336:304|320:256,1,120.000004577637
408,232,128302,6,0,B|392:200|392:200|312:200|312:200|336:272,1,180.000006866455,2|0,2:0|0:0,0:0:0:0:
400,320,128542,6,0,B|416:352|416:352|496:352|496:352|472:280,1,180.000006866455
408,216,128782,6,0,P|368:200|336:280,1,120.000004577637,8|0,1:0|0:0,0:0:0:0:
400,336,129022,6,0,P|440:352|472:272,1,120.000004577637
408,200,129262,6,0,B|376:192|376:192|328:216|328:216|304:256,1,120.000004577637,4|0,1:0|0:0,0:0:0:0:
400,352,129502,6,0,B|432:360|432:360|480:336|480:336|504:296,1,120.000004577637
408,184,129742,6,0,L|408:0,1,180.000006866455,8|0,1:0|0:0,0:0:0:0:
328,16,129982,6,0,L|328:200,1,180.000006866455
424,200,130222,6,0,P|464:136|456:96,1,120.000004577637,2|0,2:0|0:0,0:0:0:0:
312,0,130462,6,0,P|272:64|280:104,1,120.000004577637
448,200,130702,6,0,B|472:72|472:72|464:40|448:24,1,180.000006866455,8|0,1:0|0:0,0:0:0:0:
288,0,130942,6,0,B|264:128|264:128|272:160|288:176,1,180.000006866455
384,128,131182,6,2,B|392:88|392:88|352:80|352:80|344:120|344:120|384:128,1,163.200000996094,2|0,1:0|0:0,1:0:0:0:
329,0,131662,6,0,B|288:0|288:0|264:128|264:128|248:128|248:128|224:0|224:0|181:0,1,360.000013732911,8|0,0:0|0:0,0:0:0:0:
135,79,132142,6,0,B|138:98|138:98|158:94|158:94|154:74|154:74|135:79,1,80,8|0,2:0|0:0,0:0:0:0:
59,154,132382,6,0,B|84:156|84:156|83:180|83:180|58:179|58:179|59:154,1,100,0|0,3:0|3:0,0:0:0:0:
225,139,132622,6,0,B|252:152|252:152|240:179|240:179|212:167|212:167|225:139,1,120.000004577637,8|0,3:0|0:0,0:0:0:0:
383,206,132862,6,0,B|407:230|407:230|383:255|383:255|358:230|358:230|383:206,1,140.000001335144,8|0,3:0|0:0,0:0:0:0:
512,336,133102,6,0,B|528:371|528:371|491:389|491:389|474:354|474:354|512:336,1,160,6|0,1:0|0:0,0:0:0:0:
340,373,133342,6,0,B|319:352|319:352|339:329|339:329|360:351|360:351|340:373,1,120.000004577637,0|0,1:0|2:0,0:0:0:0:
329,142,133582,6,0,B|327:122|327:122|347:120|347:120|349:140|349:140|329:142,1,80,8|0,1:0|2:0,0:0:0:0:
476,13,133822,6,0,B|481:4|481:4|490:8|490:8|485:17|485:17|476:13,1,40,0|0,1:0|2:0,0:0:0:0:
470,149,134062,6,0,B|485:148|485:148|485:164|485:164|470:164|470:164|470:149,1,60.0000022888184,2|0,1:0|2:0,0:0:0:0:
367,253,134302,6,0,B|377:270|377:270|359:280|359:280|349:262|349:262|367:253,1,80,0|0,1:0|2:0,0:0:0:0:
177,268,134542,6,0,B|164:289|164:289|142:276|142:276|155:255|155:255|177:268,1,100,8|0,1:0|2:0,0:0:0:0:
30,103,134782,6,0,B|0:103|0:103|0:73|0:73|30:73|30:73|30:103,1,120.000004577637,0|0,1:0|0:0,0:0:0:0:
202,140,135022,6,2,P|124:153|55:193,2,160,2|2|2,1:0|1:0|1:0,1:0:0:0:
55,192,135382,6,0,B|143:148|268:153|349:212|349:212|301:244|239:244|183:223,1,480,2|0,1:0|0:0,0:0:0:0:
55,192,135862,5,0,0:0:0:0:
135,161,135982,2,0,P|185:208|124:243,1,160,2|0,2:0|0:0,0:0:0:0:
55,192,136222,5,0,0:0:0:0:
126,243,136342,2,0,L|285:243,1,160,0|8,0:0|1:0,0:0:0:0:
49,275,136582,5,0,0:0:0:0:
115,323,136702,2,0,P|137:248|206:213,1,160
345,244,136942,6,0,P|316:330|285:243,1,240,4|0,1:0|2:0,0:0:0:0:
315,192,137182,6,0,P|284:105|255:191,1,240,0|0,0:0|2:0,0:0:0:0:
285,244,137422,6,0,P|256:330|225:243,1,240,8|0,1:0|2:0,0:0:0:0:
256,192,137662,6,0,P|225:105|196:191,1,240,0|0,0:0|2:0,0:0:0:0:
107,244,137902,6,0,B|136:191|136:191|167:243|167:243|195:191|195:191|226:243,1,240,2|0,2:0|2:0,0:0:0:0:
167,244,138142,6,0,B|196:191|196:191|227:243|227:243|255:191|255:191|286:243,1,240,0|0,0:0|2:0,0:0:0:0:
226,244,138382,6,0,B|255:191|255:191|286:243|286:243|314:191|314:191|345:243,1,240,8|0,1:0|2:0,0:0:0:0:
286,244,138622,6,0,B|315:191|315:191|346:243|346:243|374:191|374:191|405:243,1,240
408,328,138862,6,2,B|408:336|408:336|400:328|400:328|400:336|400:336|392:328|392:328|392:336|392:336|384:328|384:328|384:336|384:336|376:328|376:328|376:336|376:336|368:328|368:328|368:336|368:336|360:328|360:328|360:336|360:336|352:328|352:328|352:336|352:336|344:328|344:328|344:336|344:336|336:328|336:328|336:336|336:336|328:328|328:328|328:336|328:336|320:328|320:328|320:336|320:336|312:328|312:328|312:336|312:336|304:328|304:328|304:336|304:336|296:328|296:328|296:336|296:336|288:328|288:328|288:336|288:336|280:328|280:328|280:336|280:336|272:328|272:328|272:336,1,320,2|0,1:0|0:0,1:0:0:0:
151,371,139222,1,0,0:0:0:0:
111,327,139342,2,0,P|126:263|168:313,1,160,8|0,1:0|0:0,0:0:0:0:
286,244,139582,2,0,P|270:180|228:230,1,160
12,145,139822,6,2,B|12:153|12:153|20:145|20:145|20:153|20:153|28:145|28:145|28:153|28:153|36:145|36:145|36:153|36:153|44:145|44:145|44:153|44:153|52:145|52:145|52:153|52:153|60:145|60:145|60:153|60:153|68:145|68:145|68:153|68:153|76:145|76:145|76:153|76:153|84:145|84:145|84:153|84:153|92:145|92:145|92:153|92:153|100:145|100:145|100:153|100:153|108:145|108:145|108:153|108:153|116:145|116:145|116:153|116:153|124:145|124:145|124:153|124:153|132:145|132:145|132:153|132:153|140:145|140:145|140:153|140:153|148:145|148:145|148:153,1,320,2|0,1:0|0:0,1:0:0:0:
269,188,140182,1,0,0:0:0:0:
309,144,140302,2,0,P|293:80|251:130,1,160,8|8,1:0|0:0,0:0:0:0:
134,61,140542,2,0,P|149:-2|191:47,1,160,2|2,0:0|0:0,0:0:0:0:
390,71,140782,6,0,P|230:85|72:111,3,320,4|0|8|0,1:0|0:0|1:0|0:0,0:0:0:0:
447,86,141742,6,0,L|288:72,1,160,2|0,2:0|0:0,0:0:0:0:
208,64,141982,2,0,L|48:49,1,160
64,297,142222,6,0,L|224:312,1,160,8|0,1:0|0:0,0:0:0:0:
304,320,142462,2,0,L|463:334,1,160
287,71,142702,6,2,P|353:27|431:11,1,160,0|2,1:0|1:0,1:0:0:0:
208,24,142942,1,2,1:0:0:0:
491,101,143062,2,0,P|310:250|75:248,1,480,2|0,1:0|0:0,0:0:0:0:
175,183,143542,1,0,0:0:0:0:
379,317,143662,6,0,P|449:278|510:227,1,160,2|0,2:0|0:0,0:0:0:0:
272,180,143902,1,0,0:0:0:0:
257,353,144022,2,0,P|178:355|99:344,1,160,0|8,0:0|1:0,0:0:0:0:
412,235,144262,1,0,0:0:0:0:
345,56,144382,1,0,0:0:0:0:
155,65,144502,1,0,0:0:0:0:
104,248,144622,6,0,P|148:313|220:345,1,160,4|0,1:0|0:0,0:0:0:0:
363,73,144862,2,0,P|284:78|220:124,1,160
385,384,145102,2,0,P|420:313|412:234,1,160,8|0,1:0|0:0,0:0:0:0:
181,338,145342,2,0,P|260:333|324:287,1,160
345,56,145582,5,2,2:0:0:0:
412,235,145702,1,0,0:0:0:0:
258,353,145822,1,0,0:0:0:0:
104,248,145942,1,0,0:0:0:0:
155,64,146062,6,0,P|233:58|305:92,1,160,8|0,1:0|0:0,0:0:0:0:
108,326,146302,2,0,P|63:260|57:181,1,160
358,236,146542,2,0,P|323:307|258:352,1,160,2|0,1:0|0:0,0:0:0:0:
108,325,146782,2,0,P|186:318|258:352,1,160
57,182,147022,2,0,P|128:214|173:280,1,160,8|0,1:0|0:0,0:0:0:0:
84,32,147262,2,0,P|129:96|135:175,1,160
16,368,147502,6,0,L|32:208,2,160
57,182,147862,6,0,L|41:23,1,160,0|8,3:0|3:0,0:0:0:0:
200,80,148102,1,8,3:0:0:0:
88,200,148222,2,0,L|71:359,1,160,2|2,3:0|3:0,0:0:0:0:
260,159,148462,6,0,P|319:162|377:146,1,120.000004577637,4|0,1:0|0:0,0:0:0:0:
507,267,148702,2,0,P|455:239|397:223,1,120.000004577637
208,320,148942,2,0,P|179:268|186:209,1,120.000004577637,8|0,1:0|0:0,0:0:0:0:
260,159,149182,2,0,P|295:112|296:53,1,120.000004577637
200,80,149422,5,2,2:0:0:0:
335,279,149542,2,0,P|284:298|265:248,1,120.000004577637
392,40,149782,1,0,0:0:0:0:
185,209,149902,2,0,P|104:208|32:120,1,180.000006866455,8|0,1:0|2:0,0:0:0:0:
87,64,150142,2,0,P|145:55|199:79,1,120.000004577637
397,128,150382,6,0,P|452:106|487:58,1,120.000004577637,2|0,1:0|0:0,0:0:0:0:
335,279,150622,1,0,0:0:0:0:
260,159,150742,1,0,0:0:0:0:
136,263,150862,6,0,P|86:239|98:185,1,120.000004577637,8|0,1:0|0:0,0:0:0:0:
392,40,151102,2,0,P|337:28|313:78,1,120.000004577637
185,318,151342,2,0,P|164:262|184:207,1,120.000004577637,2|0,2:0|0:0,0:0:0:0:
454,139,151582,5,0,0:0:0:0:
260,159,151702,1,0,0:0:0:0:
375,317,151822,1,8,1:0:0:0:
214,228,151942,5,0,0:0:0:0:
416,66,152062,1,0,0:0:0:0:
456,322,152182,1,0,0:0:0:0:
371,135,152302,6,0,P|312:132|259:159,1,120.000004577637,4|0,1:0|0:0,0:0:0:0:
182,316,152542,2,0,P|232:341|272:301,1,120.000004577637
204,61,152782,2,0,P|112:132|0:105,1,240.000009155274,8|0,1:0|0:0,0:0:0:0:
207,375,153262,5,2,2:0:0:0:
214,228,153382,1,0,0:0:0:0:
456,322,153502,1,0,0:0:0:0:
272,301,153622,1,0,0:0:0:0:
510,259,153742,2,0,P|464:185|378:171,1,180.000006866455,8|0,1:0|2:0,0:0:0:0:
302,213,153982,2,0,P|271:163|273:104,1,120.000004577637
480,14,154222,6,0,P|481:70|428:89,1,120.000004577637,2|0,1:0|0:0,0:0:0:0:
380,272,154462,2,0,P|400:324|456:321,1,120.000004577637
92,94,154702,2,0,P|145:68|204:61,1,120.000004577637,8|0,1:0|0:0,0:0:0:0:
376,155,154942,2,0,P|317:143|273:104,1,120.000004577637
24,172,155182,6,0,P|83:173|142:163,1,120.000004577637,2|0,2:0|0:0,0:0:0:0:
430,90,155422,2,0,P|461:138|450:197,1,120.000004577637
259,344,155662,5,8,0:0:0:0:
261,331,155782,1,8,0:0:0:0:
263,318,155902,1,2,0:0:0:0:
265,305,156022,1,2,0:0:0:0:
190,240,156142,6,0,P|149:305|180:374,1,160,4|0,1:0|0:0,0:0:0:0:
231,161,156382,2,0,P|232:81|201:8,1,160
370,101,156622,6,0,B|471:94|533:168|533:168|441:168|397:180,1,320,8|0,1:0|0:0,0:0:0:0:
143,162,156982,1,0,0:0:0:0:
317,166,157102,1,2,2:0:0:0:
103,242,157222,1,0,0:0:0:0:
346,245,157342,1,0,0:0:0:0:
143,162,157462,1,0,0:0:0:0:
370,101,157582,5,8,1:0:0:0:
0,33,157822,1,0,0:0:0:0:
466,9,158062,6,0,P|386:8|311:35,1,160,2|0,1:0|0:0,0:0:0:0:
77,0,158302,2,0,P|153:21|232:14,1,160
452,88,158542,2,0,P|376:114|316:165,1,160,8|0,1:0|0:0,0:0:0:0:
80,125,158782,2,0,P|140:176|215:202,1,160
478,164,159022,5,2,2:0:0:0:
245,127,159142,1,0,0:0:0:0:
436,230,159262,1,0,0:0:0:0:
216,202,159382,1,0,0:0:0:0:
426,309,159502,1,8,0:0:0:0:
210,283,159622,1,8,0:0:0:0:
23,384,159742,1,2,0:0:0:0:
232,360,159862,1,2,0:0:0:0:
449,384,159982,5,4,1:0:0:0:
34,303,160222,1,0,0:0:0:0:
500,279,160462,2,0,P|439:231|360:229,1,160,8|0,1:0|0:0,0:0:0:0:
78,117,160702,2,0,P|139:68|218:66,1,160
401,157,160942,5,2,2:0:0:0:
195,145,161062,1,0,0:0:0:0:
360,229,161182,1,0,0:0:0:0:
211,221,161302,1,0,0:0:0:0:
70,274,161422,6,0,B|171:267|233:341|233:341|141:341|97:353,1,320,8|8,1:0|0:0,0:0:0:0:
339,321,161782,1,0,0:0:0:0:
508,360,161902,5,2,1:0:0:0:
256,335,162022,1,0,0:0:0:0:
430,332,162142,5,0,0:0:0:0:
285,256,162262,1,0,0:0:0:0:
492,276,162382,5,8,0:0:0:0:
281,172,162502,1,8,0:0:0:0:
413,250,162622,5,2,0:0:0:0:
250,93,162742,1,2,0:0:0:0:
512,46,162862,5,4,0:0:0:0:
48,80,163102,5,2,2:0:0:0:
53,92,163222,5,2,2:0:0:0:
256,192,163462,12,0,165022,0:0:0:0:
