osu file format v14

[General]
AudioFilename: audio.mp3
AudioLeadIn: 0
PreviewTime: 674952
Countdown: 0
SampleSet: Normal
StackLeniency: 0.5
Mode: 0
LetterboxInBreaks: 0
EpilepsyWarning: 1
WidescreenStoryboard: 1

[Editor]
Bookmarks: 31784,164960
DistanceSpacing: 1.2
BeatDivisor: 4
GridSize: 4
TimelineZoom: 1.8

[Metadata]
Title:The Splendour Of A Thousand Swords
TitleUnicode:The Splendour Of A Thousand Swords
Artist:Bal-Sagoth
ArtistUnicode:Bal-Sagoth
Creator:Mitchell Gwr
Version:Gleaming Beneath The Blazon Of The Hyperborean Empire
Source:
Tags:symphonic black metal rock streams
BeatmapID:1410748
BeatmapSetID:666551

[Difficulty]
HPDrainRate:4
CircleSize:4.5
OverallDifficulty:8.8
ApproachRate:9.6
SliderMultiplier:1.9
SliderTickRate:1

[Events]
//Background and Video events
0,0,"King of Hyperboria.jpg",0,0
//Break Periods
2,229563,250379
2,357845,369636
2,431236,441990
2,620235,631871
2,653837,671729
2,715031,719628
2,813468,836360
2,978868,988498
//Storyboard Layer 0 (Background)
//Storyboard Layer 1 (Fail)
//Storyboard Layer 2 (Pass)
//Storyboard Layer 3 (Foreground)
//Storyboard Sound Samples

[TimingPoints]
1045,490.998363338789,4,1,1,45,1,0
1045,-133.333333333333,4,1,1,45,0,0
8870,490.998363338789,4,1,1,45,1,0
8870,-133.333333333333,4,1,1,45,0,0
12828,490.998363338789,4,1,1,45,1,0
12828,-133.333333333333,4,1,1,45,0,0
16592,483.870967741935,4,1,1,55,1,0
16839,279.06976744186,4,1,1,55,1,1
16839,-83.3333333333333,4,1,1,55,0,1
17257,-100,4,1,1,55,0,1
25769,452.232899943471,4,1,1,55,1,0
25881,293.398533007335,4,1,1,55,1,0
27640,291.26213592233,4,1,1,55,1,0
28222,291.26213592233,4,1,1,55,1,0
29393,295.566502463054,4,1,1,55,1,0
30614,292.682926829268,4,1,1,55,1,0
32920,291.26213592233,4,1,1,55,1,0
41949,-200,4,1,1,45,0,0
42021,-200,4,1,1,5,0,0
42240,285.714285714286,4,1,1,55,1,1
50240,292.682926829268,4,1,1,55,1,1
51118,340.909090909091,4,1,1,55,1,1
51460,292.682926829268,4,1,1,55,1,0
53801,295.566502463054,4,1,1,55,1,0
55869,325.20325203252,4,1,1,55,1,0
56194,293.398533007335,4,1,1,55,1,0
67636,-200,4,1,1,45,0,0
67856,-200,4,1,1,5,0,0
67929,585.365853658537,4,1,1,55,1,0
68416,-100,4,1,1,5,0,0
68514,-100,4,1,1,45,0,0
69587,-100,4,1,1,5,0,0
69685,-100,4,1,1,45,0,0
70270,-90.9090909090909,4,1,1,45,0,0
70709,-100,4,1,1,5,0,0
70807,585.365853658537,4,1,1,55,1,0
71977,-133.333333333333,4,1,1,45,0,0
72026,-100,4,1,1,7,0,0
72563,291.26213592233,4,1,1,55,1,1
72708,303.030303030303,4,1,1,55,1,1
72859,303.030303030303,4,1,1,55,1,1
80737,-100,4,1,1,45,0,0
81041,317.460317460317,4,1,1,45,1,0
81041,-153.846153846153,4,1,1,45,0,0
85485,315.789473684211,4,1,1,45,1,0
85485,-125,4,1,1,45,0,0
86116,309.278350515464,4,1,1,55,1,0
88590,312.5,4,1,1,55,1,0
91090,309.278350515464,4,1,1,55,1,0
93564,312.5,4,1,1,55,1,0
96064,313.397753982763,4,1,1,55,1,0
98571,312.5,4,1,1,55,1,0
101071,312.5,4,1,1,55,1,0
103571,306.122448979592,4,1,1,55,1,0
106019,307.692307692308,4,1,1,55,1,0
106634,-100,4,1,1,55,0,1
107249,315.789473684211,4,1,1,55,1,1
108512,321.888412017167,4,1,1,55,1,0
108592,-200,4,1,1,5,0,0
113686,297.029702970297,4,1,1,55,1,1
117844,294.840294840295,4,1,1,55,1,1
127278,-133.333333333333,4,1,1,45,0,0
127870,289.156626506024,4,1,1,55,1,0
129604,-117.647058823529,4,1,1,55,0,1
130183,-100,4,1,1,55,0,1
133942,292.682926829268,4,1,1,55,1,1
134673,315.789473684211,4,1,1,45,1,0
134830,295.566502463054,4,1,1,45,1,0
134830,-133.333333333333,4,1,1,45,0,0
137194,-100,4,1,1,55,0,1
138081,-117.647058823529,4,1,1,55,0,1
138376,-100,4,1,1,55,0,1
144288,-133.333333333333,4,1,1,45,0,0
146110,-133.333333333333,4,1,1,14,0,0
146652,292.682926829268,4,1,1,45,1,0
146652,-200,4,1,1,45,0,0
149578,-125,4,1,1,45,0,0
151334,-200,4,1,1,45,0,0
153676,285.714285714286,4,1,1,45,1,0
153676,-200,4,1,1,45,0,0
154247,-125,4,1,1,45,0,0
154818,-125,4,1,1,45,0,0
155961,292.682926829268,4,1,1,45,1,0
155961,-200,4,1,1,45,0,0
158887,-125,4,1,1,45,0,0
159473,263.157894736842,4,1,1,45,1,0
159473,-133.333333333333,4,1,1,45,0,0
159999,285.714285714286,4,1,1,45,1,0
159999,-125,4,1,1,45,0,0
160570,292.682926829268,4,1,1,45,1,0
160570,-200,4,1,1,45,0,0
163496,-100,4,1,1,45,0,0
165235,294.045577064445,4,1,1,55,1,1
167293,-117.647058823529,4,1,1,55,0,1
167587,-100,4,1,1,55,0,1
172292,299.640431482221,4,1,1,45,1,0
172292,-133.333333333333,4,1,1,45,0,0
173490,-200,4,1,1,45,0,0
174689,291.26213592233,4,1,1,55,1,1
176727,-117.647058823529,4,1,1,55,0,1
177019,-100,4,1,1,55,0,1
181679,291.26213592233,4,1,1,45,1,1
181679,-133.333333333333,4,1,1,45,0,1
183475,-100,4,1,1,5,0,1
184100,572.246065808298,4,1,1,45,1,0
184100,-133.333333333333,4,1,1,45,0,0
188677,561.272217025257,4,1,1,45,1,0
188677,-133.333333333333,4,1,1,45,0,0
199902,600,4,1,1,45,1,0
199902,-133.333333333333,4,1,1,45,0,0
201602,-133.333333333333,4,1,1,5,0,0
201702,705.882352941176,4,1,1,55,1,0
202483,722.89156626506,4,1,1,45,1,0
202483,-200,4,1,1,45,0,0
208266,697.67441860465,4,1,1,45,1,0
208266,-200,4,1,1,45,0,0
211056,681.818181818183,4,1,1,45,1,0
211056,-200,4,1,1,45,0,0
212419,-200,4,1,1,45,0,0
213783,689.655172413792,4,1,1,45,1,0
213783,-200,4,1,1,45,0,0
216541,674.157303370786,4,1,1,45,1,0
216541,-200,4,1,1,45,0,0
219237,666.666666666667,4,1,1,45,1,0
219237,-200,4,1,1,45,0,0
223237,960,4,1,1,45,1,0
223237,-200,4,1,1,45,0,0
224760,1121.17547169811,4,1,1,45,1,0
225881,1056.73157894737,4,1,1,45,1,0
226937,1173.2705882353,4,1,1,45,1,0
228110,626.733031674208,4,1,1,45,1,0
229363,697.67441860465,4,1,1,45,1,0
250888,383.141762452107,4,1,1,55,1,1
250888,-76.9230769230769,4,1,1,55,0,1
253186,-90.9090909090909,4,1,1,55,0,1
253953,-76.9230769230769,4,1,1,55,0,1
256251,-90.9090909090909,4,1,1,55,0,1
257018,-76.9230769230769,4,1,1,55,0,1
259317,352.941176470588,4,1,1,55,1,1
259317,-90.9090909090909,4,1,1,55,0,1
260025,380.710659898477,4,1,1,55,1,1
260025,-76.9230769230769,4,1,1,55,0,1
262309,-90.9090909090909,4,1,1,55,0,1
263070,384.310659898477,4,1,1,55,1,0
269218,389.61038961039,4,1,1,55,1,0
274708,392.156862745098,4,1,1,55,1,0
288091,422.535211267606,4,1,1,55,1,1
288091,-83.3333333333333,4,1,1,55,0,1
288936,410.958904109589,4,1,1,55,1,1
288936,-83.3333333333333,4,1,1,55,0,1
290579,-100,4,1,1,55,0,1
291400,394.736842105263,4,1,1,55,1,1
291400,-83.3333333333333,4,1,1,55,0,1
293768,-100,4,1,1,55,0,1
294557,389.61038961039,4,1,1,55,1,1
294557,-83.3333333333333,4,1,1,55,0,1
296894,-100,4,1,1,55,0,1
297673,-83.3333333333333,4,1,1,55,0,1
300011,-100,4,1,1,55,0,1
300790,408.163265306122,4,1,1,55,1,0
313085,-100,4,1,1,30,0,0
313851,401.069518716578,4,1,1,55,1,0
325883,-100,4,1,1,55,0,0
326083,-100,4,1,1,5,0,0
326150,-100,4,1,1,55,0,0
326351,-100,4,1,1,5,0,0
326417,-100,4,1,1,55,0,0
326618,-100,4,1,1,5,0,0
326685,396.039603960396,4,1,1,55,1,0
337774,400,4,1,1,55,1,0
338974,-100,4,1,1,20,0,0
339354,410.958904109589,4,1,1,55,1,0
350449,413.793103448276,4,1,1,55,1,0
351276,447.761194029851,4,1,1,55,1,0
351723,428.571428571429,4,1,1,55,1,0
354294,422.535211267606,4,1,1,55,1,0
357229,416.666666666667,4,1,1,55,1,0
370145.977209116,496.277915632754,4,1,1,55,1,0
371717,-100,4,1,1,5,0,0
373123,-100,4,1,1,55,0,0
374695,-100,4,1,1,5,0,0
376093,505.263157894737,4,1,1,55,1,0
376093,-100,4,1,1,55,0,0
377693,-100,4,1,1,14,0,0
378114,-100,4,1,1,55,0,0
379693,-100,4,1,1,14,0,0
380135,491.803278688525,4,1,1,55,1,0
380135,-133.333333333333,4,1,1,55,0,0
383987,-133.333333333333,4,1,1,5,0,0
384069,508.474576271186,4,1,1,55,1,0
384069,-133.333333333333,4,1,1,55,0,0
385001,-133.333333333333,4,1,1,5,0,0
385085,-133.333333333333,4,1,1,55,0,0
386018,-133.333333333333,4,1,1,5,0,0
386102,-133.333333333333,4,1,1,55,0,0
387035,-133.333333333333,4,1,1,5,0,0
387119,-133.333333333333,4,1,1,55,0,0
387543,-133.333333333333,4,1,1,5,0,0
387628,480,4,1,1,55,1,0
387628,-100,4,1,1,55,0,0
387670,-100,4,1,1,14,0,0
388108,493.421052631579,4,1,1,55,1,0
388108,-117.647058823529,4,1,1,55,0,0
388519,-117.647058823529,4,1,1,5,0,0
388601,-117.647058823529,4,1,1,55,0,0
389012,-117.647058823529,4,1,1,5,0,0
389094,-117.647058823529,4,1,1,55,0,0
389506,-117.647058823529,4,1,1,5,0,0
389588,-117.647058823529,4,1,1,55,0,0
389999,-117.647058823529,4,1,1,5,0,0
390081,-117.647058823529,4,1,1,55,0,0
390986,-117.647058823529,4,1,1,5,0,0
391068,-117.647058823529,4,1,1,55,0,0
391561,500,4,1,1,55,1,0
396061,461.538461538462,4,1,1,55,1,0
396984,491.803278688525,4,1,1,55,1,0
399934,497.92531120332,4,1,1,55,1,0
399934,-71.4285714285714,4,1,1,55,0,0
401262,-62.5,4,1,1,55,0,0
401594,-71.4285714285714,4,1,1,55,0,0
402921,479.041916167665,4,1,1,55,1,0
403879,483.870967741935,4,1,1,55,1,0
403879,-71.4285714285714,4,1,1,55,0,0
405169,-62.5,4,1,1,55,0,0
405330,-71.4285714285714,4,1,1,55,0,0
413072,480,4,1,1,55,1,0
413552,468.75,4,1,1,55,1,0
413552,-71.4285714285714,4,1,1,55,0,0
415427,487.80487804878,4,1,1,55,1,0
415427,-71.4285714285714,4,1,1,55,0,0
416768,-71.4285714285714,4,1,1,30,0,0
416890,-71.4285714285714,4,1,1,55,0,0
420630,-71.4285714285714,4,1,1,30,0,0
420792,-71.4285714285714,4,1,1,55,0,0
431036,476.947535771065,4,1,1,55,1,0
431036,-142.857142857143,4,1,1,55,0,0
442499,468.75,4,1,1,55,1,0
442499,-74.0740740740741,4,1,1,55,0,0
447186,508.474576271186,4,1,1,55,1,0
447186,-66.6666666666667,4,1,1,55,0,0
447524,-74.0740740740741,4,1,1,55,0,0
449684,468.75,4,1,1,55,1,0
449684,-200,4,1,1,55,0,0
449762,-200,4,1,1,5,0,0
450196,447.761194029851,4,1,1,55,1,0
450196,-72.463768115942,4,1,1,55,0,0
451987,466.926070038911,4,1,1,55,1,0
451987,-71.4285714285714,4,1,1,55,0,0
456656,434.782608695652,4,1,1,55,1,0
457090,-100,4,1,1,55,0,0
457525,466.926070038911,4,1,1,55,1,0
457525,-71.4285714285714,4,1,1,55,0,0
463595,447.761194029851,4,1,1,55,1,0
463595,-71.4285714285714,4,1,1,55,0,0
464958,465.116279069767,4,1,1,55,1,0
464958,-71.4285714285714,4,1,1,55,0,0
470539,454.545454545455,4,1,1,55,1,0
470539,-71.4285714285714,4,1,1,55,0,0
472357,454.545454545455,4,1,1,55,1,1
472357,-66.6666666666667,4,1,1,55,0,1
473266,-76.9230769230769,4,1,1,55,0,1
474175,-66.6666666666667,4,1,1,55,0,1
475084,-76.9230769230769,4,1,1,55,0,1
475993,-71.4285714285714,4,1,1,55,0,1
479629,-66.6666666666667,4,1,1,55,0,1
480538,-76.9230769230769,4,1,1,55,0,1
481447,-66.6666666666667,4,1,1,55,0,1
483266,465.116279069767,4,1,1,55,1,0
483266,-166.666666666667,4,1,1,55,0,0
486521,-100,4,1,1,55,0,0
486986,-76.9230769230769,4,1,1,55,0,0
500010,-71.4285714285714,4,1,1,55,0,0
500320,-76.9230769230769,4,1,1,5,0,0
500475,-71.4285714285714,4,1,1,55,0,0
500785,-83.3333333333333,4,1,1,5,0,0
500940,444.444444444444,4,1,1,55,1,1
500940,-66.6666666666667,4,1,1,55,0,1
504347,-66.6666666666667,4,1,1,55,0,0
504495,291.26213592233,4,1,1,55,1,1
511485,291.26213592233,4,1,1,55,1,1
513572,-100,4,1,1,30,0,1
513815,300,4,1,1,55,1,1
521015,294.117647058824,4,1,1,55,1,1
523367,294.117647058824,4,1,1,55,1,0
532778,295.566502463054,4,1,1,55,1,0
541989,-100,4,1,1,14,0,0
542236,298.507462686567,4,1,1,55,1,1
551788,301.507537688442,4,1,1,55,1,1
561436,297.619047619048,4,1,1,55,1,0
568578,292.682926829268,4,1,1,55,1,0
584968,296.296296296296,4,1,1,55,1,0
594449,297.029702970297,4,1,1,55,1,1
601577,-90.9090909090909,4,1,1,55,0,0
603953,298.507462686567,4,1,1,55,1,1
603953,-100,4,1,1,55,0,1
613468,298.507462686567,4,1,1,55,1,0
619487,-100,4,1,1,14,0,0
632380,664.304694419841,4,1,1,55,1,0
632380,-200,4,1,1,55,0,0
672238,-100,4,1,1,5,0,0
674952,331.647458751347,4,1,1,55,1,0
674952,-100,4,1,1,55,0,1
696094,-100,4,1,1,55,0,0
696177,333.333333333333,4,1,1,55,1,1
698498,331.647458751347,4,1,1,55,1,0
701482,-100,4,1,1,55,0,1
704178,331.647458751347,4,1,1,55,1,0
706831,-100,4,1,1,55,0,1
709525,331.647458751347,4,1,1,55,1,0
712178,-100,4,1,1,55,0,1
714582,-100,4,1,1,55,0,0
714831,-133.333333333333,4,1,1,55,0,0
720137,331.647458751347,4,1,1,55,1,1
722790,-100,4,1,1,55,0,0
725443,-100,4,1,1,55,0,1
728096,-100,4,1,1,55,0,0
730749,-100,4,1,1,55,0,1
733444,331.647458751347,4,1,1,55,1,0
736097,-100,4,1,1,55,0,1
738750,-100,4,1,1,55,0,0
741403,333.333333333333,4,1,1,55,1,1
752069,329.67032967033,4,1,1,55,1,0
752069,-166.666666666667,4,1,1,55,0,0
754706,332.871012482663,4,1,1,55,1,0
754728,-100,4,1,1,55,0,0
773346,332.409972299169,4,1,1,55,1,0
783983,332.640332640333,4,1,1,55,1,1
786644,-100,4,1,1,55,0,0
789305,-100,4,1,1,55,0,1
791966,-100,4,1,1,55,0,0
794627,-100,4,1,1,55,0,1
797302,326.086956521739,4,1,1,55,1,0
799951,329.67032967033,4,1,1,55,1,1
801289,331.67495854063,4,1,1,55,1,0
802624,332.640332640333,4,1,1,55,1,1
807946,-100,4,1,2,55,0,1
813268,332.409972299169,4,1,1,55,1,0
836869,368.098159509202,4,1,1,55,1,0
839445,-133.333333333333,4,1,1,55,0,0
839813,-100,4,1,1,55,0,0
842758,370.37037037037,4,1,1,55,1,0
845350,-133.333333333333,4,1,1,55,0,0
845720,-100,4,1,1,55,0,0
848313,387.096774193548,4,1,1,55,1,0
848700,369.230769230769,4,1,1,55,1,1
848700,-133.333333333333,4,1,1,55,0,1
872330,-133.333333333333,4,1,1,55,0,0
876761,-66.6666666666667,4,1,1,55,0,1
877869,-166.666666666667,4,1,1,55,0,1
878238,-133.333333333333,4,1,1,55,0,0
895961,369.230769230769,4,1,1,55,1,0
898545,-133.333333333333,4,1,1,55,0,0
898914,-100,4,1,1,55,0,0
904453,-133.333333333333,4,1,1,55,0,0
904822,-100,4,1,1,55,0,0
966853,-100,4,1,2,55,0,1
978668,-100,4,1,2,55,0,0
989007,-100,4,1,1,55,0,0
989745,-100,4,1,1,55,0,0
991960,373.831775700935,4,1,1,55,1,0
993455,-181.818181818181,4,1,1,55,0,0
997941,365.853658536585,4,1,1,55,1,0
1000867,368.098159509202,4,1,1,55,1,1
1012646,389.61038961039,4,1,1,55,1,0
1013327,-100,4,1,1,5,0,0
1013425,-100,4,1,1,55,0,0
1014107,-100,4,1,1,5,0,0
1014204,-100,4,1,1,60,0,0

[Colours]
Combo1 : 128,128,128
Combo2 : 255,128,0
Combo3 : 128,0,0
Combo4 : 128,0,64
Combo5 : 64,0,64

[HitObjects]
73,305,1045,6,0,B|217:341,1,142.500005435944,4|8,0:0|0:0,0:0:0:0:
328,300,1699,1,0,0:0:0:0:
328,300,1863,1,0,0:0:0:0:
328,300,2026,2,0,P|299:236|333:159,1,142.500005435944,4|8,0:0|0:0,0:0:0:0:
397,232,2681,1,0,0:0:0:0:
397,232,2845,1,0,0:0:0:0:
235,141,3008,6,0,L|88:102,1,142.500005435944,4|8,0:0|0:0,0:0:0:0:
130,208,3990,2,0,L|277:247,1,142.500005435944,4|8,0:0|0:0,0:0:0:0:
171,314,4645,1,0,0:0:0:0:
171,314,4809,1,0,0:0:0:0:
44,255,4972,6,0,P|35:184|101:109,1,142.500005435944,4|8,0:0|0:0,0:0:0:0:
236,101,5627,1,0,0:0:0:0:
83,33,5791,1,0,0:0:0:0:
164,171,5954,2,0,P|239:202|313:168,1,142.500005435944,4|8,0:0|0:0,0:0:0:0:
395,116,6609,1,0,0:0:0:0:
236,101,6773,1,0,0:0:0:0:
449,192,6936,6,0,P|485:136|454:49,1,142.500005435944,4|8,0:0|0:0,0:0:0:0:
369,227,7918,2,0,P|333:283|364:370,1,142.500005435944,4|8,0:0|0:0,0:0:0:0:
438,301,8573,1,0,0:0:0:0:
438,301,8737,1,0,0:0:0:0:
256,306,8870,6,0,B|109:283,1,142.500005435944,4|8,0:0|0:0,0:0:0:0:
279,233,9524,1,0,0:0:0:0:
195,375,9688,1,0,0:0:0:0:
241,161,9851,2,0,P|315:159|366:245,1,142.500005435944,4|8,0:0|0:0,0:0:0:0:
365,366,10506,1,0,0:0:0:0:
279,233,10670,1,0,0:0:0:0:
433,138,10833,6,0,L|444:288,1,142.500005435944,4|8,0:0|0:0,0:0:0:0:
199,215,11815,2,0,L|188:65,1,142.500005435944,4|8,0:0|0:0,0:0:0:0:
78,192,12470,1,0,0:0:0:0:
78,192,12634,1,0,0:0:0:0:
278,86,12828,6,0,P|342:61|426:85,1,142.500005435944,4|8,0:0|0:0,0:0:0:0:
353,163,13482,1,0,0:0:0:0:
463,10,13646,1,0,0:0:0:0:
426,237,13809,2,0,P|362:262|278:238,1,142.500005435944,4|8,0:0|0:0,0:0:0:0:
185,112,14464,1,0,0:0:0:0:
353,163,14628,1,0,0:0:0:0:
112,160,14791,6,0,P|102:90|156:34,1,142.500005435944,4|8,0:0|0:0,0:0:0:0:
202,192,15773,2,0,P|212:262|158:318,1,142.500005435944,4|8,0:0|0:0,0:0:0:0:
56,298,16428,5,0,0:0:0:0:
56,298,16592,1,0,0:0:0:0:
443,291,16839,6,0,B|462:238|442:186|442:186|477:121|431:58,1,227.999993041992,4|8,0:0|0:0,0:0:0:0:
251,71,17257,1,8,0:0:0:0:
339,203,17397,5,8,0:0:0:0:
429,80,17536,1,8,0:0:0:0:
227,67,17676,1,8,0:0:0:0:
317,217,17815,1,8,0:0:0:0:
344,54,17955,5,8,0:0:0:0:
154,115,18094,1,8,0:0:0:0:
293,230,18234,1,8,0:0:0:0:
324,45,18373,1,8,0:0:0:0:
200,201,18513,5,8,0:0:0:0:
405,190,18652,1,8,0:0:0:0:
211,55,18792,1,8,0:0:0:0:
227,284,18932,1,8,0:0:0:0:
495,241,19071,6,0,B|508:225|508:225|432:246|377:232|377:232|421:208,1,190,4|8,0:0|0:0,0:0:0:0:
466,99,19490,1,8,0:0:0:0:
426,347,19629,1,8,0:0:0:0:
426,347,19769,1,8,0:0:0:0:
300,277,19908,5,8,0:0:0:0:
295,277,19978,1,0,0:0:0:0:
290,277,20048,1,8,0:0:0:0:
122,350,20187,1,8,0:0:0:0:
125,346,20257,1,0,0:0:0:0:
128,342,20327,1,8,0:0:0:0:
154,170,20466,6,0,L|216:177,2,47.5,8|0|8,0:0|0:0|0:0,0:0:0:0:
262,359,20745,2,0,L|310:365,2,47.5,8|0|8,0:0|0:0|0:0,0:0:0:0:
70,246,21025,1,8,0:0:0:0:
74,245,21094,1,0,0:0:0:0:
78,246,21164,1,8,0:0:0:0:
274,208,21304,6,0,P|258:125|156:113,1,190,4|8,0:0|0:0,0:0:0:0:
234,283,21722,1,8,0:0:0:0:
367,120,21862,5,8,0:0:0:0:
148,114,22001,1,8,0:0:0:0:
242,299,22141,1,8,0:0:0:0:
380,136,22280,1,8,0:0:0:0:
147,226,22420,5,8,0:0:0:0:
378,261,22559,1,8,0:0:0:0:
269,149,22699,1,8,0:0:0:0:
330,356,22838,1,8,0:0:0:0:
484,181,22978,5,8,0:0:0:0:
297,231,23118,1,8,0:0:0:0:
447,338,23257,1,8,0:0:0:0:
463,162,23397,1,8,0:0:0:0:
287,141,23536,5,8,0:0:0:0:
378,261,23676,1,8,0:0:0:0:
365,102,23815,1,8,0:0:0:0:
313,311,23955,1,8,0:0:0:0:
452,48,24094,6,0,P|360:14|273:54,1,190,4|8,0:0|0:0,0:0:0:0:
378,261,24513,1,8,0:0:0:0:
365,102,24652,1,0,0:0:0:0:
364,97,24722,1,0,0:0:0:0:
363,92,24792,1,0,0:0:0:0:
280,259,24932,1,0,0:0:0:0:
281,264,25001,1,0,0:0:0:0:
282,269,25071,1,0,0:0:0:0:
187,80,25211,5,8,0:0:0:0:
135,83,25280,1,8,0:0:0:0:
104,125,25350,1,8,0:0:0:0:
108,177,25420,1,8,0:0:0:0:
148,209,25490,5,4,0:0:0:0:
185,244,25559,1,0,0:0:0:0:
186,296,25629,1,0,0:0:0:0:
150,334,25699,1,0,0:0:0:0:
100,339,25769,5,0,0:0:0:0:
18,252,25882,6,0,L|119:270,1,95,8|0,0:0|0:0,0:0:0:0:
375,285,26174,2,0,L|274:267,1,95,8|0,0:0|0:0,0:0:0:0:
50,71,26467,2,0,P|25:130|46:174,1,95,8|0,0:0|0:0,0:0:0:0:
340,200,26761,2,0,P|365:141|344:97,1,95,8|0,0:0|0:0,0:0:0:0:
206,281,27054,2,0,P|240:334|289:341,1,95,8|0,0:0|0:0,0:0:0:0:
510,285,27347,2,0,P|475:231|426:224,1,95,8|0,0:0|0:0,0:0:0:0:
281,268,27641,5,8,0:0:0:0:
255,222,27712,1,8,0:0:0:0:
267,171,27785,1,8,0:0:0:0:
302,132,27858,1,8,0:0:0:0:
350,114,27931,6,0,L|413:138,3,47.5,4|0|0|0,0:0|0:0|0:0|0:0,0:0:0:0:
472,79,28222,6,0,L|390:49,1,47.5,12|0,0:0|0:0,0:0:0:0:
273,53,28367,1,8,0:0:0:0:
268,54,28440,1,0,0:0:0:0:
263,55,28513,1,0,0:0:0:0:
258,56,28586,1,0,0:0:0:0:
253,57,28658,1,8,0:0:0:0:
248,58,28731,1,0,0:0:0:0:
243,58,28804,6,0,L|350:19,1,95,0|8,0:0|0:0,0:0:0:0:
487,184,29095,2,0,L|379:222,1,95,0|8,0:0|0:0,0:0:0:0:
223,265,29393,2,0,P|191:231|194:172,1,95,0|8,0:0|0:0,0:0:0:0:
363,136,29688,2,0,P|395:170|392:229,1,95,0|8,0:0|0:0,0:0:0:0:
102,132,29984,2,0,B|183:107|183:107|163:132,1,95,0|8,0:0|0:0,0:0:0:0:
275,336,30279,2,0,B|194:361|194:361|214:336,1,95
296,202,30614,5,12,0:0:0:0:
296,202,30760,1,0,0:0:0:0:
365,365,30906,1,8,0:0:0:0:
365,365,31053,1,0,0:0:0:0:
481,257,31199,2,0,L|494:148,1,95,8|0,0:0|0:0,0:0:0:0:
216,254,31492,2,0,L|203:145,1,95,8|0,0:0|0:0,0:0:0:0:
461,234,31784,2,0,L|473:140,1,95,8|0,0:0|0:0,0:0:0:0:
265,321,32077,2,0,P|221:337|176:326,1,95,8|0,0:0|0:0,0:0:0:0:
102,273,32370,5,8,0:0:0:0:
101,268,32443,1,8,0:0:0:0:
100,263,32516,1,8,0:0:0:0:
99,258,32589,1,8,0:0:0:0:
98,253,32662,1,12,0:0:0:0:
102,64,32920,6,0,L|234:71,1,95,12|8,0:0|0:0,0:0:0:0:
360,180,33211,6,0,L|378:96,3,47.5,0|0|8|0,0:0|0:0|0:0|0:0,0:0:0:0:
283,145,33502,2,0,L|151:138,1,95,0|8,0:0|0:0,0:0:0:0:
115,314,33793,1,0,0:0:0:0:
115,314,33866,1,0,0:0:0:0:
115,314,33939,2,0,L|196:313,1,47.5,8|0,0:0|0:0,0:0:0:0:
225,357,34085,6,0,P|238:299|222:264,1,95,0|8,0:0|0:0,0:0:0:0:
130,98,34376,2,0,P|117:156|133:191,1,95,0|8,0:0|0:0,0:0:0:0:
302,319,34667,2,0,B|377:323|377:323|338:298,1,95,0|8,0:0|0:0,0:0:0:0:
377,322,34958,2,0,L|379:201,1,95
384,118,35250,5,8,0:0:0:0:
142,112,35395,1,0,0:0:0:0:
397,132,35541,1,8,0:0:0:0:
128,96,35686,2,0,L|206:103,1,47.5
246,146,35832,6,0,P|264:88|236:40,1,95,8|0,0:0|0:0,0:0:0:0:
178,206,36123,2,0,P|225:234|290:224,1,95,8|0,0:0|0:0,0:0:0:0:
344,220,36342,1,0,0:0:0:0:
344,220,36415,1,8,0:0:0:0:
409,285,36560,2,0,L|440:223,1,47.5
417,171,36706,2,0,P|373:137|308:139,1,95,8|0,0:0|0:0,0:0:0:0:
243,315,36997,5,8,0:0:0:0:
207,339,37070,1,8,0:0:0:0:
164,341,37143,1,8,0:0:0:0:
121,332,37216,1,8,0:0:0:0:
92,302,37288,1,4,0:0:0:0:
77,261,37361,1,0,0:0:0:0:
82,218,37434,1,0,0:0:0:0:
105,182,37507,1,0,0:0:0:0:
145,168,37580,6,0,L|253:169,1,95,12|8,0:0|0:0,0:0:0:0:
417,171,37871,1,0,0:0:0:0:
417,171,37944,1,0,0:0:0:0:
417,171,38017,1,8,0:0:0:0:
337,315,38162,6,0,L|229:314,1,95,0|8,0:0|0:0,0:0:0:0:
77,261,38453,2,0,L|185:262,1,95,0|8,0:0|0:0,0:0:0:0:
414,264,38745,1,0,0:0:0:0:
416,268,38818,1,0,0:0:0:0:
418,272,38890,1,8,0:0:0:0:
339,202,39036,6,0,P|322:148|340:107,1,95,0|8,0:0|0:0,0:0:0:0:
418,83,39327,1,0,0:0:0:0:
418,83,39400,1,0,0:0:0:0:
418,83,39473,1,8,0:0:0:0:
337,315,39619,1,0,0:0:0:0:
334,113,39910,5,8,0:0:0:0:
334,113,40055,1,0,0:0:0:0:
162,23,40201,2,0,P|145:75|183:141,1,95,8|0,0:0|0:0,0:0:0:0:
405,177,40492,1,8,0:0:0:0:
242,266,40638,1,0,0:0:0:0:
242,266,40711,1,0,0:0:0:0:
242,266,40784,2,0,L|124:262,1,95,8|0,0:0|0:0,0:0:0:0:
82,317,41075,6,0,P|67:232|95:196,1,95,8|0,0:0|0:0,0:0:0:0:
318,211,41366,2,0,P|333:296|305:332,1,95,8|0,0:0|0:0,0:0:0:0:
16,160,41657,2,0,P|58:147|130:163,1,95,8|0,0:0|0:0,0:0:0:0:
242,358,41949,6,0,L|171:358,1,71.25,8|0,0:0|0:0,0:0:0:0:
405,356,42240,6,0,L|410:299,1,47.5,4|0,0:0|0:0,0:0:0:0:
419,342,42382,2,0,L|424:285,1,47.5
434,98,42525,1,8,0:0:0:0:
498,245,42668,1,8,0:0:0:0:
423,84,42811,6,0,L|284:69,1,95,8|8,0:0|0:0,0:0:0:0:
178,162,43097,1,8,0:0:0:0:
333,219,43240,1,8,0:0:0:0:
311,64,43382,5,8,0:0:0:0:
159,154,43525,1,8,0:0:0:0:
314,211,43668,1,8,0:0:0:0:
291,58,43811,1,8,0:0:0:0:
139,147,43954,5,8,0:0:0:0:
138,147,44097,1,8,0:0:0:0:
237,278,44240,2,0,L|335:311,1,95,8|8,0:0|0:0,0:0:0:0:
430,338,44525,5,8,0:0:0:0:
430,338,44668,1,8,0:0:0:0:
456,136,44811,1,8,0:0:0:0:
493,253,44954,1,8,0:0:0:0:
382,86,45097,6,0,P|420:54|493:55,1,95,4|0,0:0|0:0,0:0:0:0:
404,241,45382,2,0,L|306:208,1,95,0|0,0:0|0:0,0:0:0:0:
167,168,45668,1,8,0:0:0:0:
162,166,45740,1,0,0:0:0:0:
157,164,45811,1,8,0:0:0:0:
98,269,45954,2,0,L|116:330,2,47.5,8|0|8,0:0|0:0|0:0,0:0:0:0:
220,361,46240,6,0,L|283:351,2,47.5,8|0|8,0:0|0:0|0:0,0:0:0:0:
313,210,46525,2,0,L|250:220,2,47.5,8|0|8,0:0|0:0|0:0,0:0:0:0:
431,332,46811,6,0,B|439:350|439:350|452:296|452:296|420:242|454:164,1,190,4|8,0:0|0:0,0:0:0:0:
429,17,47240,1,8,0:0:0:0:
279,130,47382,1,8,0:0:0:0:
434,181,47525,1,8,0:0:0:0:
331,50,47668,5,8,0:0:0:0:
348,261,47811,1,8,0:0:0:0:
504,129,47954,2,0,L|386:84,1,95,8|8,0:0|0:0,0:0:0:0:
159,193,48240,2,0,L|277:238,1,95,8|8,0:0|0:0,0:0:0:0:
348,261,48525,5,8,0:0:0:0:
348,261,48668,1,8,0:0:0:0:
315,47,48811,1,8,0:0:0:0:
315,47,48954,1,8,0:0:0:0:
78,166,49097,6,0,B|73:246|73:246|84:227,1,95,8|8,0:0|0:0,0:0:0:0:
289,132,49382,1,8,0:0:0:0:
101,78,49525,1,8,0:0:0:0:
199,186,49668,1,8,0:0:0:0:
181,22,49811,1,8,0:0:0:0:
56,185,49954,6,0,L|48:288,1,95,4|0,0:0|0:0,0:0:0:0:
253,359,50240,2,0,L|261:256,1,95,4|0,0:0|0:0,0:0:0:0:
403,319,50532,1,8,0:0:0:0:
403,319,50605,1,0,0:0:0:0:
403,319,50679,1,8,0:0:0:0:
464,232,50825,2,0,B|428:80,1,142.5,12|0,0:0|0:0,0:0:0:0:
370,180,51118,2,0,B|403:319,1,142.5,12|0,0:0|0:0,0:0:0:0:
340,83,51460,5,8,0:0:0:0:
340,83,51606,1,0,0:0:0:0:
234,106,51752,2,0,B|127:131,1,95,8|0,0:0|0:0,0:0:0:0:
43,248,52045,1,8,0:0:0:0:
43,248,52191,1,0,0:0:0:0:
184,305,52338,2,0,B|290:279,1,95,8|0,0:0|0:0,0:0:0:0:
213,98,52630,6,0,B|140:115|140:115|164:119,1,95,8|0,0:0|0:0,0:0:0:0:
316,191,52923,1,8,0:0:0:0:
340,83,53069,1,0,0:0:0:0:
196,231,53216,2,0,L|280:286,1,95,8|0,0:0|0:0,0:0:0:0:
411,351,53508,5,8,0:0:0:0:
414,353,53581,1,8,0:0:0:0:
418,355,53655,1,8,0:0:0:0:
421,357,53728,1,8,0:0:0:0:
424,359,53801,6,0,L|424:245,1,95,4|8,0:0|0:0,0:0:0:0:
460,116,54096,2,0,L|431:153,1,47.5
274,202,54244,2,0,L|302:164,1,47.5,8|0,0:0|0:0,0:0:0:0:
480,96,54392,6,0,L|362:86,1,95,0|8,0:0|0:0,0:0:0:0:
243,80,54687,1,0,0:0:0:0:
366,210,54835,1,8,0:0:0:0:
466,74,54983,6,0,L|348:64,1,95,0|8,0:0|0:0,0:0:0:0:
114,146,55278,2,0,L|232:156,1,95,0|8,0:0|0:0,0:0:0:0:
366,210,55574,2,0,B|358:288|358:288|347:256,1,95,0|8,0:0|0:0,0:0:0:0:
371,65,55869,1,4,0:0:0:0:
208,154,56194,5,12,0:0:0:0:
440,136,56340,1,0,0:0:0:0:
149,59,56487,2,0,L|23:74,1,95,8|0,0:0|0:0,0:0:0:0:
54,70,56707,1,0,0:0:0:0:
54,70,56780,1,8,0:0:0:0:
196,248,56927,1,0,0:0:0:0:
196,248,57000,1,0,0:0:0:0:
196,248,57074,6,0,L|211:122,1,95,8|0,0:0|0:0,0:0:0:0:
82,238,57367,2,0,L|67:364,1,95,8|0,0:0|0:0,0:0:0:0:
291,358,57660,2,0,L|306:232,1,95,8|0,0:0|0:0,0:0:0:0:
325,131,57954,5,8,0:0:0:0:
361,109,58027,1,8,0:0:0:0:
404,110,58101,1,8,0:0:0:0:
445,120,58174,1,8,0:0:0:0:
470,153,58247,5,12,0:0:0:0:
469,148,58321,1,0,0:0:0:0:
468,143,58394,1,0,0:0:0:0:
468,138,58467,1,0,0:0:0:0:
468,133,58541,6,0,L|463:12,1,95,4|8,0:0|0:0,0:0:0:0:
411,237,58834,1,0,0:0:0:0:
410,241,58907,1,0,0:0:0:0:
409,245,58981,1,8,0:0:0:0:
344,327,59127,6,0,L|437:342,1,95,0|8,0:0|0:0,0:0:0:0:
470,153,59421,2,0,L|376:137,1,95,0|8,0:0|0:0,0:0:0:0:
209,158,59714,1,0,0:0:0:0:
210,162,59788,1,0,0:0:0:0:
211,166,59861,1,8,0:0:0:0:
279,228,60008,6,0,P|300:164|286:119,1,95,0|8,0:0|0:0,0:0:0:0:
70,191,60301,2,0,L|127:275,1,95,0|8,0:0|0:0,0:0:0:0:
376,137,60594,2,0,L|319:53,1,95,0|8,0:0|0:0,0:0:0:0:
213,272,60888,6,0,P|253:305|307:299,1,95,12|0,0:0|0:0,0:0:0:0:
406,279,61181,1,8,0:0:0:0:
406,279,61328,1,0,0:0:0:0:
480,152,61475,1,8,0:0:0:0:
279,228,61621,1,0,0:0:0:0:
451,343,61768,2,0,P|481:301|478:244,1,95,8|0,0:0|0:0,0:0:0:0:
483,259,61988,1,0,0:0:0:0:
483,259,62061,5,8,0:0:0:0:
279,228,62208,1,0,0:0:0:0:
375,367,62355,1,8,0:0:0:0:
375,367,62502,1,0,0:0:0:0:
347,155,62648,5,8,0:0:0:0:
301,139,62722,1,8,0:0:0:0:
253,138,62795,1,8,0:0:0:0:
213,164,62868,1,8,0:0:0:0:
191,206,62942,5,0,0:0:0:0:
160,241,63015,1,0,0:0:0:0:
114,253,63088,1,0,0:0:0:0:
67,242,63162,1,0,0:0:0:0:
35,206,63235,6,0,L|51:94,1,95,12|8,0:0|0:0,0:0:0:0:
148,37,63528,1,0,0:0:0:0:
161,38,63602,1,0,0:0:0:0:
174,40,63675,1,8,0:0:0:0:
187,41,63749,1,0,0:0:0:0:
201,42,63822,6,0,L|328:53,1,95,0|8,0:0|0:0,0:0:0:0:
447,66,64115,1,0,0:0:0:0:
451,67,64189,1,0,0:0:0:0:
455,68,64262,1,8,0:0:0:0:
372,176,64409,2,0,L|245:165,1,95,0|8,0:0|0:0,0:0:0:0:
125,153,64702,1,0,0:0:0:0:
121,152,64775,1,0,0:0:0:0:
117,151,64849,1,8,0:0:0:0:
153,300,64995,6,0,P|184:243|175:198,1,95,0|8,0:0|0:0,0:0:0:0:
79,19,65289,2,0,P|48:76|57:121,1,95,0|8,0:0|0:0,0:0:0:0:
206,122,65582,6,0,L|314:84,1,95,12|0,0:0|0:0,0:0:0:0:
295,90,65802,1,0,0:0:0:0:
295,90,65876,1,8,0:0:0:0:
480,234,66022,1,0,0:0:0:0:
339,255,66169,2,0,P|294:212|290:172,1,95,8|0,0:0|0:0,0:0:0:0:
335,23,66462,2,0,P|380:66|384:106,1,95,8|0,0:0|0:0,0:0:0:0:
205,274,66756,6,0,L|91:249,1,95,8|0,0:0|0:0,0:0:0:0:
172,184,67049,2,0,L|79:163,1,95,8|0,0:0|0:0,0:0:0:0:
44,336,67343,2,0,L|20:236,1,95,12|0,0:0|0:0,0:0:0:0:
339,255,67636,2,0,L|360:345,1,71.25,12|0,0:0|0:0,0:0:0:0:
144,320,67929,6,0,L|183:150,1,158.333333333333,12|0,0:0|0:0,0:0:0:0:
209,56,68514,1,0,0:0:0:0:
211,50,68709,1,0,0:0:0:0:
213,44,68904,1,0,0:0:0:0:
136,328,69099,6,0,L|175:158,1,158.333333333333,12|0,0:0|0:0,0:0:0:0:
201,64,69685,1,0,0:0:0:0:
203,58,69880,1,0,0:0:0:0:
205,52,70075,1,0,0:0:0:0:
128,336,70270,6,0,L|168:160,1,156.750004783631,12|0,0:0|0:0,0:0:0:0:
193,72,70807,1,0,0:0:0:0:
195,66,71002,1,0,0:0:0:0:
197,60,71197,1,0,0:0:0:0:
120,344,71392,6,0,L|159:174,1,158.333333333333,12|8,0:0|0:0,0:0:0:0:
192,80,71977,2,0,L|197:60,6,17.812500679493,8|0|0|0|0|0|0,0:0|0:0|0:0|0:0|0:0|0:0|0:0,0:0:0:0:
109,123,72563,6,0,L|94:49,1,47.5,4|0,0:0|0:0,0:0:0:0:
238,157,72708,5,8,0:0:0:0:
263,168,72783,1,0,0:0:0:0:
291,172,72859,1,0,0:0:0:0:
318,168,72934,1,0,0:0:0:0:
344,157,73010,1,8,0:0:0:0:
365,138,73086,1,0,0:0:0:0:
377,112,73162,6,0,L|367:49,3,47.5,4|0|8|0,0:0|0:0|0:0|0:0,0:0:0:0:
453,191,73465,2,0,L|463:128,3,47.5,4|0|8|0,0:0|0:0|0:0|0:0,0:0:0:0:
459,314,73768,5,4,0:0:0:0:
430,283,73843,1,0,0:0:0:0:
388,271,73919,1,8,0:0:0:0:
345,274,73995,1,0,0:0:0:0:
310,299,74071,1,0,0:0:0:0:
273,321,74146,1,0,0:0:0:0:
230,328,74222,1,8,0:0:0:0:
189,313,74298,1,0,0:0:0:0:
163,278,74374,6,0,L|178:196,3,47.5,4|0|8|0,0:0|0:0|0:0|0:0,0:0:0:0:
79,295,74677,2,0,L|64:377,3,47.5,4|0|8|0,0:0|0:0|0:0|0:0,0:0:0:0:
65,199,74980,5,4,0:0:0:0:
90,186,75055,1,0,0:0:0:0:
113,169,75131,1,8,0:0:0:0:
128,145,75207,1,0,0:0:0:0:
133,116,75283,1,0,0:0:0:0:
127,87,75359,1,0,0:0:0:0:
110,64,75434,1,8,0:0:0:0:
85,49,75510,1,0,0:0:0:0:
55,45,75586,6,0,L|-9:78,3,47.5,4|0|8|0,0:0|0:0|0:0|0:0,0:0:0:0:
65,199,75889,2,0,L|110:213,3,47.5,4|0|8|0,0:0|0:0|0:0|0:0,0:0:0:0:
216,115,76192,5,4,0:0:0:0:
247,86,76268,1,0,0:0:0:0:
287,75,76343,1,8,0:0:0:0:
328,87,76419,1,0,0:0:0:0:
356,119,76495,1,0,0:0:0:0:
366,160,76571,1,0,0:0:0:0:
397,187,76646,1,8,0:0:0:0:
438,196,76722,1,0,0:0:0:0:
479,183,76798,6,0,L|503:130,3,47.5,4|0|8|0,0:0|0:0|0:0|0:0,0:0:0:0:
491,292,77101,2,0,L|471:335,3,47.5,4|0|8|0,0:0|0:0|0:0|0:0,0:0:0:0:
377,310,77404,5,4,0:0:0:0:
356,289,77480,1,0,0:0:0:0:
329,280,77555,1,8,0:0:0:0:
300,279,77631,1,0,0:0:0:0:
273,288,77707,1,0,0:0:0:0:
249,303,77783,1,0,0:0:0:0:
221,309,77859,1,8,0:0:0:0:
192,307,77934,1,0,0:0:0:0:
167,292,78010,6,0,L|142:236,3,47.5,4|0|8|0,0:0|0:0|0:0|0:0,0:0:0:0:
61,306,78313,2,0,L|36:362,3,47.5,4|0|8|0,0:0|0:0|0:0|0:0,0:0:0:0:
13,129,78616,5,4,0:0:0:0:
37,164,78692,1,0,0:0:0:0:
76,179,78768,1,8,0:0:0:0:
118,175,78843,1,0,0:0:0:0:
155,153,78919,1,0,0:0:0:0:
192,131,78995,1,0,0:0:0:0:
234,132,79071,1,8,0:0:0:0:
271,151,79146,1,0,0:0:0:0:
302,180,79222,6,0,L|296:268,3,47.5,4|0|8|0,0:0|0:0|0:0|0:0,0:0:0:0:
385,121,79525,2,0,L|391:33,3,47.5,4|0|8|0,0:0|0:0|0:0|0:0,0:0:0:0:
402,217,79828,5,4,0:0:0:0:
423,235,79904,1,0,0:0:0:0:
439,258,79980,1,8,0:0:0:0:
442,285,80055,1,0,0:0:0:0:
438,313,80131,1,0,0:0:0:0:
423,337,80207,1,0,0:0:0:0:
399,353,80283,1,8,0:0:0:0:
371,360,80359,1,0,0:0:0:0:
342,361,80434,6,0,L|285:308,3,47.5,4|0|8|0,0:0|0:0|0:0|0:0,0:0:0:0:
248,262,80737,1,4,0:0:0:0:
248,262,81041,6,0,L|235:177,3,61.7499971733095
125,282,81675,2,0,L|112:197,3,61.7499971733095
95,112,82310,5,4,0:0:0:0:
94,108,82469,1,0,0:0:0:0:
94,105,82628,1,0,0:0:0:0:
92,100,82787,1,0,0:0:0:0:
207,153,82945,5,0,0:0:0:0:
206,149,83104,1,0,0:0:0:0:
206,146,83263,1,0,0:0:0:0:
204,141,83421,1,0,0:0:0:0:
385,229,83580,6,0,L|375:290,3,61.7499971733095,4|0|0|0,0:0|0:0|0:0|0:0,0:0:0:0:
295,280,84215,2,0,L|285:341,3,61.7499971733095
176,278,84850,5,4,0:0:0:0:
175,274,85009,1,0,0:0:0:0:
174,270,85167,1,0,0:0:0:0:
173,266,85326,1,0,0:0:0:0:
47,153,85485,6,0,B|97:152|97:152|153:145,1,76
236,90,85800,1,0,0:0:0:0:
236,90,85958,1,0,0:0:0:0:
424,34,86116,6,0,B|374:35|374:35|318:42,1,95,4|8,0:0|0:0,0:0:0:0:
401,216,86425,1,0,0:0:0:0:
480,105,86579,1,8,0:0:0:0:
313,183,86734,1,0,0:0:0:0:
313,183,86889,1,8,0:0:0:0:
456,303,87043,1,0,0:0:0:0:
297,345,87198,1,8,0:0:0:0:
233,221,87353,6,0,P|229:163|262:103,1,95,4|8,0:0|0:0,0:0:0:0:
386,90,87662,1,0,0:0:0:0:
386,90,87817,1,8,0:0:0:0:
313,183,87971,1,0,0:0:0:0:
329,20,88126,1,8,0:0:0:0:
494,114,88280,1,8,0:0:0:0:
491,124,88358,1,8,0:0:0:0:
489,135,88435,1,8,0:0:0:0:
487,146,88512,1,8,0:0:0:0:
485,156,88590,6,0,L|373:136,1,95,4|8,0:0|0:0,0:0:0:0:
241,129,88902,1,0,0:0:0:0:
363,262,89058,1,8,0:0:0:0:
213,259,89215,1,0,0:0:0:0:
213,259,89371,1,8,0:0:0:0:
150,384,89527,1,0,0:0:0:0:
71,252,89683,1,8,0:0:0:0:
146,120,89840,6,0,B|209:125|209:125|254:130,1,95,4|8,0:0|0:0,0:0:0:0:
398,142,90152,1,0,0:0:0:0:
246,49,90308,1,8,0:0:0:0:
281,208,90465,1,0,0:0:0:0:
384,52,90621,1,8,0:0:0:0:
466,210,90777,1,0,0:0:0:0:
466,210,90933,1,8,0:0:0:0:
233,286,91090,6,0,P|196:232|205:171,1,95,4|8,0:0|0:0,0:0:0:0:
246,49,91399,1,0,0:0:0:0:
342,153,91553,1,8,0:0:0:0:
153,92,91708,1,0,0:0:0:0:
322,154,91863,1,8,0:0:0:0:
107,210,92017,1,0,0:0:0:0:
107,210,92172,1,8,0:0:0:0:
233,286,92327,6,0,L|340:299,1,95,4|8,0:0|0:0,0:0:0:0:
493,248,92636,1,0,0:0:0:0:
322,154,92791,1,8,0:0:0:0:
408,275,92945,1,0,0:0:0:0:
405,130,93100,1,8,0:0:0:0:
241,185,93254,1,0,0:0:0:0:
290,32,93409,1,8,0:0:0:0:
488,110,93564,6,0,P|479:173|439:208,1,95,4|8,0:0|0:0,0:0:0:0:
241,185,93876,1,0,0:0:0:0:
405,130,94032,1,8,0:0:0:0:
219,104,94189,1,0,0:0:0:0:
219,104,94345,1,8,0:0:0:0:
275,303,94501,1,0,0:0:0:0:
335,192,94657,1,8,0:0:0:0:
164,275,94814,6,0,L|211:375,1,95,4|8,0:0|0:0,0:0:0:0:
384,282,95126,1,0,0:0:0:0:
315,104,95282,1,8,0:0:0:0:
432,196,95439,1,0,0:0:0:0:
432,196,95595,1,8,0:0:0:0:
333,360,95751,1,0,0:0:0:0:
406,106,95907,1,8,0:0:0:0:
478,293,96064,6,0,B|431:286|431:286|375:281,1,95,4|8,0:0|0:0,0:0:0:0:
210,259,96377,1,0,0:0:0:0:
323,213,96534,1,8,0:0:0:0:
168,341,96690,1,0,0:0:0:0:
168,341,96847,1,8,0:0:0:0:
126,122,97004,1,0,0:0:0:0:
126,122,97160,1,8,0:0:0:0:
30,239,97317,6,0,L|133:251,1,95,4|8,0:0|0:0,0:0:0:0:
323,213,97630,1,0,0:0:0:0:
323,213,97787,1,8,0:0:0:0:
198,159,97944,1,0,0:0:0:0:
198,159,98101,1,8,0:0:0:0:
322,361,98257,1,0,0:0:0:0:
322,361,98414,1,8,0:0:0:0:
459,185,98571,6,0,L|450:83,1,95,4|8,0:0|0:0,0:0:0:0:
229,73,98883,1,0,0:0:0:0:
364,135,99039,1,8,0:0:0:0:
304,6,99196,1,0,0:0:0:0:
304,6,99352,1,8,0:0:0:0:
333,264,99508,1,0,0:0:0:0:
367,121,99664,1,8,0:0:0:0:
449,319,99821,6,0,B|383:338|383:338|348:345,1,95,4|8,0:0|0:0,0:0:0:0:
183,366,100133,1,0,0:0:0:0:
269,247,100289,1,8,0:0:0:0:
126,237,100446,1,0,0:0:0:0:
126,237,100602,1,8,0:0:0:0:
355,195,100758,1,0,0:0:0:0:
355,195,100914,1,8,0:0:0:0:
39,294,101071,6,0,L|40:180,1,95,4|8,0:0|0:0,0:0:0:0:
264,170,101383,1,0,0:0:0:0:
134,247,101539,1,8,0:0:0:0:
225,91,101696,1,0,0:0:0:0:
189,317,101852,1,8,0:0:0:0:
128,145,102008,1,0,0:0:0:0:
128,145,102164,1,8,0:0:0:0:
361,254,102321,6,0,L|266:260,1,95,4|8,0:0|0:0,0:0:0:0:
134,247,102633,1,0,0:0:0:0:
134,247,102789,1,8,0:0:0:0:
312,161,102946,1,0,0:0:0:0:
312,161,103102,1,8,0:0:0:0:
316,355,103258,1,0,0:0:0:0:
316,355,103414,1,8,0:0:0:0:
267,75,103571,6,0,B|317:74|317:74|397:78,1,95,4|8,0:0|0:0,0:0:0:0:
476,167,103877,1,0,0:0:0:0:
271,239,104030,1,8,0:0:0:0:
391,151,104183,1,0,0:0:0:0:
402,282,104336,1,8,0:0:0:0:
189,202,104489,1,0,0:0:0:0:
189,202,104642,1,8,0:0:0:0:
232,363,104795,6,0,B|298:329|298:329|316:320,1,95,4|8,0:0|0:0,0:0:0:0:
487,234,105101,1,0,0:0:0:0:
487,234,105254,1,8,0:0:0:0:
444,370,105407,1,0,0:0:0:0:
444,370,105560,1,8,0:0:0:0:
432,114,105713,1,0,0:0:0:0:
432,114,105866,1,8,0:0:0:0:
487,234,106019,6,0,L|364:227,1,95,4|8,0:0|0:0,0:0:0:0:
214,221,106326,1,0,0:0:0:0:
343,74,106480,1,8,0:0:0:0:
278,316,106634,1,0,0:0:0:0:
161,154,106788,1,8,0:0:0:0:
392,228,106942,1,8,0:0:0:0:
392,228,107019,1,8,0:0:0:0:
392,228,107095,1,8,0:0:0:0:
425,345,107249,5,8,0:0:0:0:
448,92,107406,1,8,0:0:0:0:
422,334,107564,1,8,0:0:0:0:
257,124,107722,1,8,0:0:0:0:
493,190,107880,6,8,L|509:269,3,47.5,12|8|8|8,0:0|0:0|0:0|0:0,0:0:0:0:
410,225,108196,5,4,0:0:0:0:
405,226,108275,1,0,0:0:0:0:
400,227,108354,1,0,0:0:0:0:
395,228,108433,1,0,0:0:0:0:
392,228,108512,1,4,0:0:0:0:
256,192,108592,12,0,113581,0:0:0:0:
172,300,113686,5,8,0:0:0:0:
434,237,113834,1,8,0:0:0:0:
231,222,113983,1,8,0:0:0:0:
430,246,114131,1,8,0:0:0:0:
306,365,114280,6,8,L|301:268,1,95,12|8,0:0|0:0,0:0:0:0:
292,87,114577,1,8,0:0:0:0:
231,222,114725,1,8,0:0:0:0:
382,129,114874,1,8,0:0:0:0:
231,222,115022,1,8,0:0:0:0:
402,142,115171,1,8,0:0:0:0:
182,133,115319,1,8,0:0:0:0:
476,182,115468,6,8,L|487:79,1,95,12|8,0:0|0:0,0:0:0:0:
292,87,115765,1,8,0:0:0:0:
486,87,115913,1,8,0:0:0:0:
309,176,116062,1,8,0:0:0:0:
371,27,116210,1,8,0:0:0:0:
356,262,116359,1,8,0:0:0:0:
212,151,116507,1,8,0:0:0:0:
471,102,116656,6,8,L|461:197,1,95,12|8,0:0|0:0,0:0:0:0:
269,250,116953,1,8,0:0:0:0:
462,294,117101,1,8,0:0:0:0:
227,335,117250,6,12,L|165:231,1,95,12|8,0:0|0:0,0:0:0:0:
117,117,117547,1,8,0:0:0:0:
124,327,117695,1,8,0:0:0:0:
9,223,117844,6,12,L|116:200,1,95,12|8,0:0|0:0,0:0:0:0:
302,160,118139,1,8,0:0:0:0:
117,117,118286,1,8,0:0:0:0:
244,238,118433,1,8,0:0:0:0:
238,39,118581,1,8,0:0:0:0:
236,245,118728,1,8,0:0:0:0:
404,212,118875,1,8,0:0:0:0:
263,349,119023,6,12,L|169:331,1,95,12|8,0:0|0:0,0:0:0:0:
24,283,119318,1,8,0:0:0:0:
237,243,119465,1,8,0:0:0:0:
89,348,119613,1,8,0:0:0:0:
204,161,119760,1,8,0:0:0:0:
162,317,119907,1,8,0:0:0:0:
60,182,120055,1,8,0:0:0:0:
313,203,120202,6,0,P|321:249|305:293,1,95,12|8,0:0|0:0,0:0:0:0:
138,224,120497,1,8,0:0:0:0:
385,143,120644,1,8,0:0:0:0:
237,243,120792,1,8,0:0:0:0:
398,127,120939,1,8,0:0:0:0:
401,294,121087,1,8,0:0:0:0:
255,157,121234,1,8,0:0:0:0:
494,175,121382,6,8,L|486:285,1,95,12|8,0:0|0:0,0:0:0:0:
287,331,121676,1,8,0:0:0:0:
482,358,121824,1,8,0:0:0:0:
248,251,121971,6,8,L|256:141,1,95,12|8,0:0|0:0,0:0:0:0:
455,95,122266,1,8,0:0:0:0:
260,68,122414,1,8,0:0:0:0:
392,257,122561,6,8,L|501:271,1,95,12|8,0:0|0:0,0:0:0:0:
371,160,122856,1,8,0:0:0:0:
432,359,123003,1,8,0:0:0:0:
480,160,123151,1,8,0:0:0:0:
299,297,123298,1,8,0:0:0:0:
488,152,123445,1,8,0:0:0:0:
392,257,123593,1,8,0:0:0:0:
496,144,123740,6,12,L|429:43,1,95,12|8,0:0|0:0,0:0:0:0:
236,186,124035,1,8,0:0:0:0:
392,257,124183,1,8,0:0:0:0:
371,100,124330,1,8,0:0:0:0:
245,207,124477,1,8,0:0:0:0:
401,278,124625,1,8,0:0:0:0:
380,121,124772,1,8,0:0:0:0:
204,291,124920,6,8,L|319:320,1,95,12|8,0:0|0:0,0:0:0:0:
454,192,125215,1,8,0:0:0:0:
245,207,125362,1,8,0:0:0:0:
401,278,125509,1,8,0:0:0:0:
299,139,125657,1,8,0:0:0:0:
296,314,125804,1,8,0:0:0:0:
358,74,125952,1,8,0:0:0:0:
164,137,126099,6,8,L|151:261,1,95,12|8,0:0|0:0,0:0:0:0:
404,256,126394,1,8,0:0:0:0:
245,207,126541,1,8,0:0:0:0:
439,354,126689,6,8,L|515:274,1,95,12|8,0:0|0:0,0:0:0:0:
483,131,126984,1,8,0:0:0:0:
404,256,127131,1,8,0:0:0:0:
483,131,127278,6,8,B|455:128|440:118|440:118|394:133|359:126|359:126|348:103,1,142.500005435944,12|12,0:0|0:0,0:0:0:0:
272,70,127870,5,4,0:0:0:0:
236,58,127942,1,0,0:0:0:0:
198,64,128014,1,8,0:0:0:0:
169,88,128086,1,0,0:0:0:0:
144,117,128159,1,0,0:0:0:0:
113,138,128231,1,0,0:0:0:0:
76,146,128303,1,8,0:0:0:0:
38,138,128376,1,0,0:0:0:0:
15,107,128448,6,0,L|24:3,1,95,4|8,0:0|0:0,0:0:0:0:
113,138,128737,2,0,L|104:242,1,95,4|8,0:0|0:0,0:0:0:0:
132,332,129026,5,4,0:0:0:0:
165,313,129098,1,0,0:0:0:0:
203,313,129171,1,8,0:0:0:0:
237,328,129243,1,0,0:0:0:0:
258,358,129315,1,0,0:0:0:0:
293,371,129388,1,0,0:0:0:0:
330,373,129460,1,8,0:0:0:0:
363,356,129532,1,0,0:0:0:0:
395,335,129604,6,0,P|405:296|397:257,1,80.750001540184,4|8,0:0|0:0,0:0:0:0:
351,127,129894,2,0,P|344:78|363:36,1,80.750001540184,4|8,0:0|0:0,0:0:0:0:
425,88,130183,6,0,L|489:102,3,47.5,4|0|8|0,0:0|0:0|0:0|0:0,0:0:0:0:
436,199,130472,5,0,0:0:0:0:
393,229,130544,1,0,0:0:0:0:
341,237,130616,1,8,0:0:0:0:
291,219,130689,1,0,0:0:0:0:
257,179,130761,6,0,L|259:107,3,47.5,4|0|8|0,0:0|0:0|0:0|0:0,0:0:0:0:
351,127,131050,5,0,0:0:0:0:
330,78,131123,1,0,0:0:0:0:
281,58,131195,1,8,0:0:0:0:
229,63,131267,1,0,0:0:0:0:
181,85,131339,6,0,B|129:110|78:56,1,95,4|8,0:0|0:0,0:0:0:0:
42,189,131629,5,0,0:0:0:0:
55,186,131701,1,0,0:0:0:0:
68,183,131773,1,8,0:0:0:0:
82,180,131845,1,0,0:0:0:0:
139,220,131918,6,0,L|153:155,3,47.5,4|0|8|0,0:0|0:0|0:0|0:0,0:0:0:0:
77,290,132207,2,0,L|91:355,3,47.5,0|0|8|0,0:0|0:0|0:0|0:0,0:0:0:0:
177,301,132496,6,0,P|218:291|285:328,1,95,4|8,0:0|0:0,0:0:0:0:
369,361,132785,1,0,0:0:0:0:
420,371,132857,1,0,0:0:0:0:
467,348,132930,1,8,0:0:0:0:
487,300,133002,1,0,0:0:0:0:
468,251,133074,6,0,L|360:219,1,95,4|8,0:0|0:0,0:0:0:0:
324,108,133363,2,0,L|432:140,1,95,4|8,0:0|0:0,0:0:0:0:
266,308,133653,6,0,P|248:250|270:198,1,95,4|8,0:0|0:0,0:0:0:0:
308,142,133942,5,0,0:0:0:0:
324,108,134015,1,0,0:0:0:0:
324,69,134088,1,8,0:0:0:0:
312,32,134161,1,0,0:0:0:0:
278,13,134234,2,0,L|180:45,1,95,4|8,0:0|0:0,0:0:0:0:
166,247,134527,2,0,L|264:215,1,95,4|8,0:0|0:0,0:0:0:0:
450,131,134830,5,4,0:0:0:0:
485,267,135027,1,4,0:0:0:0:
341,250,135224,1,4,0:0:0:0:
419,212,135421,5,4,0:0:0:0:
454,348,135618,1,4,0:0:0:0:
310,331,135815,1,4,0:0:0:0:
485,267,136012,5,4,0:0:0:0:
225,290,136455,1,8,0:0:0:0:
220,288,136529,1,0,0:0:0:0:
215,286,136603,1,8,0:0:0:0:
215,286,137194,6,0,L|212:380,1,95,4|8,0:0|0:0,0:0:0:0:
357,279,137490,1,0,0:0:0:0:
138,332,137637,1,8,0:0:0:0:
320,359,137785,1,0,0:0:0:0:
320,359,137859,1,0,0:0:0:0:
320,359,137933,1,8,0:0:0:0:
425,228,138081,6,0,P|395:206|326:197,1,80.750001540184,4|8,0:0|0:0,0:0:0:0:
437,312,138376,2,0,P|470:301|508:245,1,95,4|8,0:0|0:0,0:0:0:0:
381,84,138672,1,0,0:0:0:0:
346,68,138746,1,0,0:0:0:0:
307,66,138820,1,8,0:0:0:0:
273,83,138894,1,0,0:0:0:0:
253,114,138967,6,0,L|272:232,1,95,4|8,0:0|0:0,0:0:0:0:
469,132,139263,2,0,L|450:14,1,95,4|8,0:0|0:0,0:0:0:0:
234,286,139559,6,0,B|284:284|284:284|341:258,1,95,4|8,0:0|0:0,0:0:0:0:
420,234,139854,1,0,0:0:0:0:
469,249,139928,1,0,0:0:0:0:
493,295,140002,1,8,0:0:0:0:
483,345,140076,1,0,0:0:0:0:
438,372,140150,2,0,B|408:367|408:367|371:371|371:371|315:366,1,95,4|8,0:0|0:0,0:0:0:0:
193,353,140445,5,0,0:0:0:0:
143,338,140519,1,0,0:0:0:0:
107,298,140593,1,8,0:0:0:0:
103,246,140667,1,0,0:0:0:0:
128,200,140741,2,0,B|164:189|164:189|190:187|190:187|243:176,1,95,4|8,0:0|0:0,0:0:0:0:
412,148,141036,1,0,0:0:0:0:
458,114,141110,1,0,0:0:0:0:
466,57,141184,1,8,0:0:0:0:
429,13,141258,1,0,0:0:0:0:
376,16,141332,6,0,L|308:59,3,47.5,4|0|8|0,0:0|0:0|0:0|0:0,0:0:0:0:
224,63,141628,2,0,L|264:88,3,47.5,0|0|8|0,0:0|0:0|0:0|0:0,0:0:0:0:
339,129,141923,6,0,P|343:187|379:217,1,95,4|8,0:0|0:0,0:0:0:0:
477,241,142219,1,0,0:0:0:0:
507,283,142293,1,0,0:0:0:0:
491,332,142366,1,8,0:0:0:0:
443,353,142440,1,0,0:0:0:0:
391,346,142514,6,0,L|286:331,1,95,4|8,0:0|0:0,0:0:0:0:
412,148,142810,2,0,L|517:163,1,95,4|8,0:0|0:0,0:0:0:0:
292,231,143105,5,4,0:0:0:0:
291,235,143179,1,0,0:0:0:0:
290,239,143253,1,8,0:0:0:0:
289,243,143327,1,0,0:0:0:0:
288,247,143401,5,0,0:0:0:0:
246,270,143475,1,0,0:0:0:0:
199,275,143549,1,8,0:0:0:0:
153,261,143623,1,0,0:0:0:0:
124,223,143696,6,0,L|139:118,1,95,4|8,0:0|0:0,0:0:0:0:
382,239,143992,2,0,B|376:285|376:285|376:306|376:306|368:363,1,95,4|8,0:0|0:0,0:0:0:0:
252,363,144288,5,4,0:0:0:0:
158,348,144485,1,4,0:0:0:0:
64,333,144682,1,4,0:0:0:0:
261,359,144879,5,4,0:0:0:0:
167,344,145076,1,4,0:0:0:0:
73,329,145273,1,4,0:0:0:0:
228,263,145470,5,4,0:0:0:0:
51,211,145913,5,12,0:0:0:0:
50,208,145987,1,8,0:0:0:0:
49,205,146061,2,0,L|65:232,11,23.7500009059906,8|0|0|0|0|0|0|0|0|0|0|0,0:0|0:0|0:0|0:0|0:0|0:0|0:0|0:0|0:0|0:0|0:0|0:0,0:0:0:0:
97,293,146652,6,0,L|76:305,7,23.75,4|0|0|0|0|0|0|0,0:0|0:0|0:0|0:0|0:0|0:0|0:0|0:0,0:0:0:0:
233,205,147237,2,4,L|119:192,1,95,12|4,0:0|0:0,0:0:0:0:
292,288,147676,1,0,0:0:0:0:
292,288,147749,1,0,0:0:0:0:
292,288,147822,6,0,L|295:259,7,23.75
321,150,148408,2,4,L|435:137,1,95,12|4,0:0|0:0,0:0:0:0:
233,205,148847,1,0,0:0:0:0:
233,205,148920,1,0,0:0:0:0:
233,205,148993,6,0,L|229:176,7,23.75
292,288,149578,6,0,P|257:282|190:303,1,76,4|0,0:0|0:0,0:0:0:0:
353,355,149871,5,0,0:0:0:0:
357,356,149944,1,0,0:0:0:0:
361,357,150017,1,0,0:0:0:0:
365,358,150091,1,0,0:0:0:0:
369,359,150164,2,0,L|460:348,1,76,4|0,0:0|0:0,0:0:0:0:
471,225,150456,5,0,0:0:0:0:
467,224,150529,1,0,0:0:0:0:
463,223,150602,1,0,0:0:0:0:
459,222,150676,1,0,0:0:0:0:
455,221,150749,2,0,L|364:232,1,76,4|0,0:0|0:0,0:0:0:0:
231,191,151042,5,0,0:0:0:0:
219,181,151115,1,0,0:0:0:0:
210,168,151188,1,0,0:0:0:0:
207,152,151261,1,0,0:0:0:0:
210,137,151334,6,0,L|222:108,7,23.75
139,76,151920,2,0,P|96:92|40:85,1,95,4|0,0:0|0:0,0:0:0:0:
47,183,152359,1,0,0:0:0:0:
47,183,152432,1,0,0:0:0:0:
47,183,152505,6,0,L|53:225,7,23.75
122,294,153091,2,0,L|146:195,1,95,12|0,0:0|0:0,0:0:0:0:
48,351,153530,1,0,0:0:0:0:
48,351,153603,1,0,0:0:0:0:
48,351,153676,6,0,L|89:363,7,23.75,8|0|0|0|8|0|0|0,0:0|0:0|0:0|0:0|0:0|0:0|0:0|0:0,0:0:0:0:
122,294,154247,6,0,P|165:288|211:308,1,76,8|0,0:0|0:0,0:0:0:0:
302,339,154533,5,8,0:0:0:0:
323,347,154604,1,0,0:0:0:0:
345,350,154676,1,0,0:0:0:0:
367,348,154747,1,0,0:0:0:0:
388,341,154818,2,0,L|421:254,1,76,12|0,0:0|0:0,0:0:0:0:
337,155,155104,5,8,0:0:0:0:
316,147,155175,1,8,0:0:0:0:
294,144,155247,1,8,0:0:0:0:
272,146,155318,1,8,0:0:0:0:
252,160,155390,2,0,L|217:250,1,76,4|0,0:0|0:0,0:0:0:0:
414,269,155676,5,8,0:0:0:0:
436,264,155747,1,8,0:0:0:0:
458,259,155818,1,8,0:0:0:0:
480,255,155890,1,8,0:0:0:0:
507,251,155961,6,0,L|498:207,7,23.75
430,135,156546,2,0,L|336:154,1,95,4|0,0:0|0:0,0:0:0:0:
240,134,156985,1,0,0:0:0:0:
240,134,157058,1,0,0:0:0:0:
240,134,157131,6,0,L|231:90,7,23.75
342,244,157717,2,0,L|435:263,1,95,4|4,0:0|0:0,0:0:0:0:
285,334,158156,1,0,0:0:0:0:
285,334,158229,1,0,0:0:0:0:
285,334,158302,6,0,L|241:343,7,23.75
177,338,158887,6,0,P|168:292|186:244,1,76,12|0,0:0|0:0,0:0:0:0:
227,158,159180,1,0,0:0:0:0:
235,136,159253,1,0,0:0:0:0:
235,113,159326,1,0,0:0:0:0:
229,90,159400,1,0,0:0:0:0:
222,67,159473,2,0,L|130:49,1,71.2500027179719,4|0,0:0|0:0,0:0:0:0:
22,142,159736,5,0,0:0:0:0:
14,164,159801,1,0,0:0:0:0:
14,187,159867,1,0,0:0:0:0:
20,210,159933,1,0,0:0:0:0:
27,233,159999,2,4,L|119:251,1,76
292,225,160284,1,4,0:0:0:0:
155,321,160427,5,0,0:0:0:0:
155,321,160499,1,0,0:0:0:0:
155,321,160570,2,0,L|160:357,7,23.75,4|0|0|0|0|0|0|0,0:0|0:0|0:0|0:0|0:0|0:0|0:0|0:0,0:0:0:0:
13,341,161155,2,0,L|29:225,1,95,12|0,0:0|0:0,0:0:0:0:
54,116,161594,1,0,0:0:0:0:
54,116,161667,1,0,0:0:0:0:
54,116,161740,6,0,L|31:86,7,23.75
121,170,162326,6,0,P|163:181|232:159,1,95,4|0,0:0|0:0,0:0:0:0:
298,92,162765,1,0,0:0:0:0:
298,92,162838,1,0,0:0:0:0:
298,92,162911,6,0,L|321:62,7,23.75,12|0|0|0|8|0|0|0,0:0|0:0|0:0|0:0|0:0|0:0|0:0|0:0,0:0:0:0:
212,170,163496,6,0,L|199:284,1,95,12|0,0:0|0:0,0:0:0:0:
316,282,163789,5,8,0:0:0:0:
334,284,163862,1,8,0:0:0:0:
353,286,163935,1,8,0:0:0:0:
371,289,164009,1,8,0:0:0:0:
389,291,164082,1,8,0:0:0:0:
444,220,164374,5,8,0:0:0:0:
446,190,164448,1,8,0:0:0:0:
449,161,164521,1,8,0:0:0:0:
452,131,164594,1,8,0:0:0:0:
432,73,164667,6,0,P|390:53|305:69,1,95,4|0,0:0|0:0,0:0:0:0:
240,144,164960,2,0,P|282:164|367:148,1,95,4|0,0:0|0:0,0:0:0:0:
424,296,165235,6,0,P|382:276|297:292,1,95,4|8,0:0|0:0,0:0:0:0:
202,305,165529,1,0,0:0:0:0:
166,319,165603,1,0,0:0:0:0:
128,314,165676,1,8,0:0:0:0:
95,294,165749,1,0,0:0:0:0:
79,259,165823,6,0,L|74:164,1,95,4|8,0:0|0:0,0:0:0:0:
225,24,166117,2,0,L|230:119,1,95,4|8,0:0|0:0,0:0:0:0:
273,205,166411,5,4,0:0:0:0:
306,222,166485,1,0,0:0:0:0:
344,223,166558,1,8,0:0:0:0:
379,212,166632,1,0,0:0:0:0:
405,183,166705,6,0,L|416:121,3,47.5,0|0|8|0,0:0|0:0|0:0|0:0,0:0:0:0:
331,71,166999,5,4,0:0:0:0:
331,71,167146,1,8,0:0:0:0:
493,163,167293,2,0,L|476:274,1,80.750001540184,4|8,0:0|0:0,0:0:0:0:
263,264,167587,2,0,L|280:153,1,95,4|8,0:0|0:0,0:0:0:0:
353,337,167881,5,0,0:0:0:0:
306,344,167955,1,0,0:0:0:0:
259,351,168028,1,8,0:0:0:0:
211,358,168102,1,0,0:0:0:0:
163,361,168175,2,0,L|99:349,3,47.5,4|0|8|0,0:0|0:0|0:0|0:0,0:0:0:0:
154,275,168468,5,0,0:0:0:0:
124,238,168542,1,0,0:0:0:0:
115,191,168616,1,8,0:0:0:0:
129,145,168689,1,0,0:0:0:0:
162,112,168763,2,0,L|261:92,1,95,4|8,0:0|0:0,0:0:0:0:
454,155,169057,5,0,0:0:0:0:
484,192,169131,1,0,0:0:0:0:
493,239,169204,1,8,0:0:0:0:
479,285,169278,1,0,0:0:0:0:
446,318,169351,2,0,L|347:338,1,95,4|8,0:0|0:0,0:0:0:0:
256,346,169645,5,0,0:0:0:0:
252,327,169719,1,0,0:0:0:0:
248,308,169792,1,8,0:0:0:0:
244,289,169866,1,0,0:0:0:0:
240,269,169939,6,0,L|221:156,1,95,4|8,0:0|0:0,0:0:0:0:
114,29,170233,1,0,0:0:0:0:
78,42,170307,1,0,0:0:0:0:
54,71,170380,1,8,0:0:0:0:
46,108,170454,1,0,0:0:0:0:
58,143,170527,6,0,P|92:170|149:174,1,95,4|8,0:0|0:0,0:0:0:0:
353,80,170821,2,0,P|309:84|266:122,1,95,4|8,0:0|0:0,0:0:0:0:
227,324,171114,2,0,P|253:290|258:232,1,95,4|8,0:0|0:0,0:0:0:0:
14,322,171409,5,0,0:0:0:0:
26,328,171483,1,0,0:0:0:0:
38,334,171556,1,8,0:0:0:0:
50,340,171630,1,0,0:0:0:0:
63,346,171704,6,0,L|177:364,1,95,4|8,0:0|0:0,0:0:0:0:
431,270,171998,2,0,L|317:252,1,95,4|8,0:0|0:0,0:0:0:0:
126,218,172292,5,4,0:0:0:0:
317,86,172491,1,4,0:0:0:0:
316,343,172691,1,4,0:0:0:0:
143,213,172891,5,4,0:0:0:0:
334,81,173091,1,4,0:0:0:0:
333,338,173290,1,4,0:0:0:0:
194,109,173490,6,0,L|344:78,1,142.5,4|0,0:0|0:0,0:0:0:0:
334,81,174014,1,0,0:0:0:0:
334,81,174089,1,8,0:0:0:0:
470,159,174389,1,8,0:0:0:0:
451,310,174689,5,4,0:0:0:0:
418,336,174761,1,0,0:0:0:0:
377,351,174834,1,8,0:0:0:0:
334,346,174907,1,0,0:0:0:0:
296,324,174980,5,0,0:0:0:0:
258,303,175053,1,0,0:0:0:0:
215,293,175125,1,8,0:0:0:0:
172,297,175198,1,0,0:0:0:0:
134,318,175271,6,0,B|80:374|80:374|110:361,1,95,4|8,0:0|0:0,0:0:0:0:
286,228,175562,2,0,B|340:172|340:172|324:178,1,95,4|8,0:0|0:0,0:0:0:0:
79,247,175854,5,4,0:0:0:0:
79,247,175999,1,8,0:0:0:0:
296,324,176145,1,0,0:0:0:0:
213,138,176290,1,8,0:0:0:0:
121,325,176436,6,0,L|209:360,1,95,4|8,0:0|0:0,0:0:0:0:
376,355,176727,2,0,P|380:300|349:254,1,80.750001540184,4|8,0:0|0:0,0:0:0:0:
213,138,177019,2,0,L|198:267,1,95,4|8,0:0|0:0,0:0:0:0:
296,324,177310,5,0,0:0:0:0:
336,338,177383,1,0,0:0:0:0:
378,336,177455,1,8,0:0:0:0:
414,312,177528,1,0,0:0:0:0:
437,276,177601,2,0,L|438:214,3,47.5,4|0|8|0,0:0|0:0|0:0|0:0,0:0:0:0:
425,84,177892,1,0,0:0:0:0:
397,39,177965,1,0,0:0:0:0:
346,26,178038,1,8,0:0:0:0:
296,42,178111,1,0,0:0:0:0:
260,80,178184,6,0,P|213:95|156:61,1,95,4|8,0:0|0:0,0:0:0:0:
121,173,178475,5,0,0:0:0:0:
73,195,178548,1,0,0:0:0:0:
52,242,178621,1,8,0:0:0:0:
63,292,178693,1,0,0:0:0:0:
98,330,178766,5,4,0:0:0:0:
124,339,178839,1,0,0:0:0:0:
150,348,178912,1,8,0:0:0:0:
176,358,178985,1,0,0:0:0:0:
208,365,179057,6,0,L|259:370,1,47.5,4|0,0:0|0:0,0:0:0:0:
337,291,179203,2,0,L|289:286,1,47.5,8|0,0:0|0:0,0:0:0:0:
411,345,179349,6,0,L|426:238,1,95,4|8,0:0|0:0,0:0:0:0:
447,110,179640,1,0,0:0:0:0:
427,66,179713,1,0,0:0:0:0:
383,47,179786,1,8,0:0:0:0:
335,46,179858,1,0,0:0:0:0:
293,69,179931,6,0,B|287:120|287:120|313:181,1,95,4|8,0:0|0:0,0:0:0:0:
498,293,180222,2,0,B|504:242|504:242|478:181,1,95,4|8,0:0|0:0,0:0:0:0:
241,251,180514,2,0,L|344:266,1,95,4|8,0:0|0:0,0:0:0:0:
444,284,180805,5,0,0:0:0:0:
462,286,180878,1,0,0:0:0:0:
481,289,180951,1,8,0:0:0:0:
498,293,181023,1,0,0:0:0:0:
501,369,181096,6,0,L|398:354,1,95,4|8,0:0|0:0,0:0:0:0:
229,236,181388,2,0,L|332:251,1,95,4|8,0:0|0:0,0:0:0:0:
259,336,181679,5,4,0:0:0:0:
156,323,181873,1,4,0:0:0:0:
56,310,182067,1,4,0:0:0:0:
187,144,182261,5,4,0:0:0:0:
290,157,182455,1,4,0:0:0:0:
390,170,182649,1,4,0:0:0:0:
54,190,182844,5,4,0:0:0:0:
83,73,183353,1,8,0:0:0:0:
83,73,183426,1,8,0:0:0:0:
83,73,183499,2,0,L|125:57,11,31.6666666666667,8|0|0|0|0|0|0|0|0|0|0|0,0:0|0:0|0:0|0:0|0:0|0:0|0:0|0:0|0:0|0:0|0:0|0:0,0:0:0:0:
211,118,184100,6,0,L|385:123,1,142.500005435944,4|8,0:0|0:0,0:0:0:0:
450,192,184862,1,0,0:0:0:0:
450,192,185053,1,0,0:0:0:0:
355,250,185244,2,0,L|181:245,1,142.500005435944,4|8,0:0|0:0,0:0:0:0:
109,196,186007,1,0,0:0:0:0:
191,342,186198,1,0,0:0:0:0:
436,326,186388,6,0,P|463:256|438:173,1,142.500005435944,4|8,0:0|0:0,0:0:0:0:
292,40,187533,2,8,P|265:110|290:193,1,142.500005435944,4|8,0:0|0:0,0:0:0:0:
449,191,188296,1,0,0:0:0:0:
347,111,188487,1,0,0:0:0:0:
261,320,188677,6,0,L|396:229,1,142.500005435944,4|8,0:0|0:0,0:0:0:0:
450,98,189425,1,0,0:0:0:0:
450,98,189612,1,0,0:0:0:0:
287,100,189799,2,0,L|163:183,1,142.500005435944,4|8,0:0|0:0,0:0:0:0:
359,161,190547,1,0,0:0:0:0:
83,143,190734,1,0,0:0:0:0:
222,368,190922,6,0,P|247:298|217:230,1,142.500005435944,4|8,0:0|0:0,0:0:0:0:
83,143,192044,2,0,P|56:216|88:287,1,142.500005435944,4|8,0:0|0:0,0:0:0:0:
269,337,192792,1,0,0:0:0:0:
329,138,192980,1,0,0:0:0:0:
141,211,193167,6,0,L|304:238,1,142.500005435944,4|8,0:0|0:0,0:0:0:0:
269,337,193915,1,8,0:0:0:0:
393,213,194102,1,8,0:0:0:0:
173,306,194289,2,0,L|10:279,1,142.500005435944,4|8,0:0|0:0,0:0:0:0:
168,231,195038,1,0,0:0:0:0:
63,372,195225,1,0,0:0:0:0:
126,153,195412,6,0,P|214:155|259:209,1,142.500005435944,4|8,0:0|0:0,0:0:0:0:
368,315,196534,2,0,P|280:313|235:259,1,142.500005435944,4|8,0:0|0:0,0:0:0:0:
413,167,197283,1,0,0:0:0:0:
454,343,197470,1,0,0:0:0:0:
173,349,197657,6,0,L|162:196,1,142.500005435944,4|8,0:0|0:0,0:0:0:0:
248,112,198405,1,0,0:0:0:0:
248,112,198592,1,0,0:0:0:0:
334,197,198779,2,4,L|345:350,1,142.500005435944,4|8,0:0|0:0,0:0:0:0:
167,278,199528,1,0,0:0:0:0:
435,297,199715,1,0,0:0:0:0:
134,360,199902,6,0,P|85:302|104:219,1,142.500005435944,4|8,0:0|0:0,0:0:0:0:
228,108,201102,2,0,P|276:165|267:218,1,118.750004529953,4|0,0:0|0:0,0:0:0:0:
184,272,201702,5,4,0:0:0:0:
178,274,201937,1,4,0:0:0:0:
167,278,202172,1,4,0:0:0:0:
368,352,202483,6,0,L|384:160,1,190,8|8,0:0|0:0,0:0:0:0:
320,96,205013,1,0,0:0:0:0:
294,91,205193,1,0,0:0:0:0:
268,86,205374,1,0,0:0:0:0:
249,172,206458,2,0,L|258:234,1,47.5,0|8,0:0|0:0,0:0:0:0:
280,354,207543,1,8,0:0:0:0:
349,266,207904,1,4,0:0:0:0:
61,245,208266,6,0,P|124:239|184:283,1,142.5
220,371,209486,1,0,0:0:0:0:
220,371,209661,1,8,0:0:0:0:
397,213,210707,5,0,0:0:0:0:
440,76,210882,1,0,0:0:0:0:
376,135,211056,2,0,P|306:142|236:96,1,142.5
321,38,212249,1,0,0:0:0:0:
321,38,212419,1,8,0:0:0:0:
191,193,213101,1,0,0:0:0:0:
163,67,213442,1,0,0:0:0:0:
93,168,213783,6,0,L|108:277,1,95,0|8,0:0|0:0,0:0:0:0:
153,339,215162,2,0,P|193:322|242:330,1,95,0|8,0:0|0:0,0:0:0:0:
390,228,216196,5,0,0:0:0:0:
369,317,216369,1,0,0:0:0:0:
412,137,216541,2,0,L|304:143,1,95,0|8,0:0|0:0,0:0:0:0:
223,229,217552,5,0,0:0:0:0:
242,330,217889,1,8,0:0:0:0:
139,186,218563,6,0,L|132:249,1,47.5,0|8,0:0|0:0,0:0:0:0:
343,343,219237,6,0,B|349:298|349:298|353:227,1,95,0|8,0:0|0:0,0:0:0:0:
258,268,220570,6,0,B|256:222|256:222|257:166,1,95,0|8,0:0|0:0,0:0:0:0:
376,247,221903,6,0,B|378:201|378:201|378:145,1,95,0|8,0:0|0:0,0:0:0:0:
240,189,223237,6,0,B|235:151|235:151|234:107,1,71.25,0|8,0:0|0:0,0:0:0:0:
291,283,224317,1,8,0:0:0:0:
129,242,224760,5,4,0:0:0:0:
256,192,224853,12,4,229363,0:0:0:0:
360,296,250888,6,0,L|385:109,1,164.666659128825,4|0,0:0|0:0,0:0:0:0:
284,62,251271,1,8,0:0:0:0:
270,168,251398,1,8,0:0:0:0:
256,274,251526,1,8,0:0:0:0:
130,251,251654,6,0,L|152:88,1,164.666659128825,4|0,0:0|0:0,0:0:0:0:
295,49,252037,1,8,0:0:0:0:
415,136,252165,1,8,0:0:0:0:
270,168,252292,1,8,0:0:0:0:
433,50,252420,6,0,P|497:112|466:201,1,164.666659128825,4|0,0:0|0:0,0:0:0:0:
302,276,252803,1,8,0:0:0:0:
406,148,252931,1,8,0:0:0:0:
385,339,253059,1,8,0:0:0:0:
209,231,253186,6,0,L|244:87,1,139.333337585449,4|0,0:0|0:0,0:0:0:0:
335,212,253569,2,0,L|300:356,1,139.333337585449,4|0,0:0|0:0,0:0:0:0:
64,306,253953,6,0,L|109:119,1,164.666659128825,4|0,0:0|0:0,0:0:0:0:
141,27,254336,1,8,0:0:0:0:
260,60,254463,1,8,0:0:0:0:
379,93,254591,1,8,0:0:0:0:
349,213,254719,6,0,L|303:399,1,164.666659128825,4|0,0:0|0:0,0:0:0:0:
204,281,255102,1,8,0:0:0:0:
402,286,255230,1,8,0:0:0:0:
268,171,255357,1,8,0:0:0:0:
476,254,255485,6,0,P|464:333|384:364,1,164.666659128825,4|0,0:0|0:0,0:0:0:0:
187,303,255868,1,8,0:0:0:0:
402,286,255996,1,8,0:0:0:0:
177,206,256124,1,8,0:0:0:0:
447,181,256251,6,0,L|402:44,1,139.333337585449,4|0,0:0|0:0,0:0:0:0:
308,148,256635,2,0,L|353:285,1,139.333337585449,4|0,0:0|0:0,0:0:0:0:
436,304,257018,6,0,P|365:298|316:385,1,164.666659128825,4|0,0:0|0:0,0:0:0:0:
113,354,257401,1,8,0:0:0:0:
243,295,257529,1,8,0:0:0:0:
60,248,257656,1,8,0:0:0:0:
142,175,257784,6,0,P|177:101|128:22,1,164.666659128825,4|0,0:0|0:0,0:0:0:0:
53,150,258167,1,8,0:0:0:0:
155,274,258295,1,8,0:0:0:0:
253,163,258423,1,8,0:0:0:0:
60,248,258550,6,0,P|68:329|150:371,1,164.666659128825,4|0,0:0|0:0,0:0:0:0:
232,384,258933,1,8,0:0:0:0:
394,294,259061,1,8,0:0:0:0:
250,272,259189,1,8,0:0:0:0:
463,364,259317,6,0,P|491:301|434:203,1,139.333337585449,4|0,0:0|0:0,0:0:0:0:
408,177,259669,2,0,P|380:114|437:16,1,139.333337585449,4|0,0:0|0:0,0:0:0:0:
393,259,260025,6,0,P|308:299|233:248,1,164.666659128825,4|0,0:0|0:0,0:0:0:0:
179,174,260405,1,8,0:0:0:0:
293,89,260532,1,8,0:0:0:0:
317,214,260659,1,8,0:0:0:0:
140,277,260786,6,0,L|128:96,1,164.666659128825,4|0,0:0|0:0,0:0:0:0:
34,161,261167,1,8,0:0:0:0:
202,183,261294,1,8,0:0:0:0:
51,290,261420,1,8,0:0:0:0:
207,350,261547,6,0,P|296:375|361:339,1,164.666659128825,4|0,0:0|0:0,0:0:0:0:
443,154,261928,1,8,0:0:0:0:
491,296,262055,1,8,0:0:0:0:
350,150,262309,6,0,P|376:87|439:60,1,139.333337585449,4|0,0:0|0:0,0:0:0:0:
359,235,262690,2,0,P|291:242|237:202,1,139.333337585449,4|0,0:0|0:0,3:0:0:0:
154,150,263070,6,0,L|134:238,2,63.3333333333333,4|0|0,0:0|0:0|0:0,0:0:0:0:
52,242,263454,1,8,0:0:0:0:
54,247,263582,1,0,0:0:0:0:
56,252,263710,1,8,0:0:0:0:
110,334,263838,6,0,L|201:365,2,63.3333333333333,4|0|0,0:0|0:0|0:0,0:0:0:0:
270,247,264222,1,8,0:0:0:0:
279,375,264351,1,0,0:0:0:0:
394,307,264479,1,0,0:0:0:0:
258,252,264607,6,0,L|167:280,2,63.3333333333333,4|0|0,0:0|0:0|0:0,0:0:0:0:
361,206,264991,5,8,0:0:0:0:
402,120,265119,1,0,0:0:0:0:
455,198,265247,1,0,0:0:0:0:
220,157,265375,5,0,0:0:0:0:
237,63,265503,1,0,0:0:0:0:
308,124,265631,1,0,0:0:0:0:
143,223,265760,6,0,L|110:137,1,63.3333333333333,8|0,0:0|0:0,0:0:0:0:
90,82,266016,1,8,0:0:0:0:
42,306,266144,6,0,P|79:301|142:325,2,63.3333333333333,4|0|0,0:0|0:0|0:0,0:0:0:0:
208,353,266528,1,8,0:0:0:0:
210,340,266656,1,0,0:0:0:0:
212,327,266785,1,0,0:0:0:0:
315,270,266913,6,0,L|305:334,2,63.3333333333333,4|0|0,0:0|0:0|0:0,0:0:0:0:
453,203,267297,1,8,0:0:0:0:
371,194,267425,1,0,0:0:0:0:
289,185,267553,1,0,0:0:0:0:
407,310,267681,6,0,P|454:314|485:327,2,63.3333333333333,4|0|0,0:0|0:0|0:0,0:0:0:0:
305,309,268066,5,8,0:0:0:0:
224,359,268194,1,0,0:0:0:0:
224,264,268322,1,0,0:0:0:0:
136,311,268450,5,0,0:0:0:0:
44,289,268578,1,0,0:0:0:0:
110,221,268706,1,0,0:0:0:0:
73,139,268834,5,8,0:0:0:0:
23,58,268962,1,0,0:0:0:0:
118,56,269090,1,8,0:0:0:0:
171,134,269218,6,0,P|199:126|249:142,2,63.3333333333333,4|0|0,0:0|0:0|0:0,0:0:0:0:
307,203,269607,1,8,0:0:0:0:
319,134,269737,1,0,0:0:0:0:
331,65,269867,1,0,0:0:0:0:
432,85,269997,6,0,L|422:22,2,63.3333333333333,4|0|0,0:0|0:0|0:0,0:0:0:0:
489,161,270386,1,8,0:0:0:0:
477,230,270516,1,0,0:0:0:0:
465,299,270646,1,0,0:0:0:0:
367,317,270776,6,0,P|340:305|283:314,2,63.3333333333333,4|0|0,0:0|0:0|0:0,0:0:0:0:
217,341,271166,5,8,0:0:0:0:
140,284,271295,1,0,0:0:0:0:
227,246,271425,1,0,0:0:0:0:
152,196,271555,5,0,0:0:0:0:
137,101,271685,1,0,0:0:0:0:
226,135,271815,1,0,0:0:0:0:
310,187,271945,5,8,0:0:0:0:
366,109,272075,1,0,0:0:0:0:
405,196,272205,1,8,0:0:0:0:
357,352,272334,6,0,P|347:313|358:276,2,63.3333333333333,4|0|0,0:0|0:0|0:0,0:0:0:0:
480,320,272724,1,8,0:0:0:0:
484,237,272854,1,0,0:0:0:0:
488,154,272984,1,0,0:0:0:0:
470,73,273114,6,0,L|427:8,2,63.3333333333333,4|0|0,0:0|0:0|0:0,0:0:0:0:
352,66,273503,1,8,0:0:0:0:
296,203,273633,1,0,0:0:0:0:
399,154,273763,1,0,0:0:0:0:
213,157,273893,6,0,L|193:234,2,63.3333333333333,4|0|0,0:0|0:0|0:0,0:0:0:0:
162,72,274282,2,0,L|80:53,1,63.3333333333333,8|0,0:0|0:0,0:0:0:0:
113,154,274708,5,4,0:0:0:0:
296,203,274838,1,4,0:0:0:0:
116,265,274969,1,4,0:0:0:0:
310,198,275100,1,4,0:0:0:0:
193,341,275492,6,0,L|284:346,2,63.3333333333333,4|0|0,0:0|0:0|0:0,0:0:0:0:
363,347,275884,1,8,0:0:0:0:
456,292,276015,1,0,0:0:0:0:
299,277,276145,1,0,0:0:0:0:
462,207,276276,6,0,P|467:182|451:136,2,63.3333333333333,4|0|0,0:0|0:0|0:0,0:0:0:0:
299,277,276668,1,8,0:0:0:0:
373,175,276799,1,0,0:0:0:0:
363,347,276930,1,0,0:0:0:0:
211,274,277060,6,0,P|219:238|256:201,2,63.3333333333333,4|0|0,0:0|0:0|0:0,0:0:0:0:
214,376,277453,5,8,0:0:0:0:
299,277,277583,1,0,0:0:0:0:
132,277,277714,1,0,0:0:0:0:
80,354,277845,5,0,0:0:0:0:
100,160,277975,1,0,0:0:0:0:
132,277,278106,1,0,0:0:0:0:
45,234,278237,5,8,0:0:0:0:
190,167,278368,1,0,0:0:0:0:
60,81,278498,1,8,0:0:0:0:
190,167,278629,6,0,L|259:138,2,63.3333333333333,4|0|0,0:0|0:0|0:0,0:0:0:0:
262,234,279021,1,8,0:0:0:0:
337,266,279152,1,0,0:0:0:0:
403,217,279283,1,0,0:0:0:0:
495,166,279413,6,0,L|437:142,2,63.3333333333333,4|0|0,0:0|0:0|0:0,0:0:0:0:
451,69,279806,1,8,0:0:0:0:
495,255,279936,1,0,0:0:0:0:
451,69,280067,1,0,0:0:0:0:
469,341,280198,6,0,L|410:316,2,63.3333333333333,4|0|0,0:0|0:0|0:0,0:0:0:0:
310,318,280590,5,8,0:0:0:0:
347,183,280721,1,0,0:0:0:0:
214,222,280851,1,0,0:0:0:0:
290,238,280982,5,0,0:0:0:0:
183,147,281113,1,0,0:0:0:0:
155,282,281243,1,0,0:0:0:0:
214,222,281374,5,8,0:0:0:0:
79,260,281505,1,0,0:0:0:0:
175,361,281636,1,8,0:0:0:0:
69,172,281766,6,0,B|36:185|36:185|-1:218,2,63.3333333333333,4|0|0,0:0|0:0|0:0,0:0:0:0:
167,78,282158,1,8,0:0:0:0:
51,84,282289,1,0,0:0:0:0:
238,138,282420,1,0,0:0:0:0:
81,259,282551,6,0,B|70:286|70:286|72:338,2,63.3333333333333,4|0|0,0:0|0:0|0:0,0:0:0:0:
171,210,282943,1,8,0:0:0:0:
257,290,283074,1,0,0:0:0:0:
164,359,283204,1,0,0:0:0:0:
353,302,283335,6,0,L|337:227,2,63.3333333333333,4|0|0,0:0|0:0|0:0,0:0:0:0:
474,356,283727,5,8,0:0:0:0:
491,167,283858,1,0,0:0:0:0:
440,257,283989,1,0,0:0:0:0:
391,124,284119,5,0,0:0:0:0:
247,139,284250,1,0,0:0:0:0:
339,240,284381,1,0,0:0:0:0:
308,70,284511,5,8,0:0:0:0:
240,241,284642,1,0,0:0:0:0:
208,22,284773,1,8,0:0:0:0:
105,104,284904,6,0,L|21:119,2,63.3333333333333,4|0|0,0:0|0:0|0:0,0:0:0:0:
61,193,285296,1,8,0:0:0:0:
243,282,285426,1,0,0:0:0:0:
163,177,285557,1,0,0:0:0:0:
90,337,285688,6,0,P|117:349|150:355,2,63.3333333333333,4|0|0,0:0|0:0|0:0,0:0:0:0:
14,268,286080,1,8,0:0:0:0:
176,172,286211,1,0,0:0:0:0:
141,271,286341,1,0,0:0:0:0:
264,353,286472,6,0,L|253:280,2,63.3333333333333,4|0|0,0:0|0:0|0:0,0:0:0:0:
363,365,286864,1,8,0:0:0:0:
472,277,286995,1,0,0:0:0:0:
339,234,287126,1,0,0:0:0:0:
450,150,287257,6,0,L|440:87,2,63.3333333333333,4|0|0,0:0|0:0|0:0,0:0:0:0:
344,47,287649,1,8,0:0:0:0:
344,47,287779,1,8,0:0:0:0:
266,120,288091,6,0,P|200:94|111:140,1,151.999995361328,4|0,0:0|0:0,0:0:0:0:
58,225,288513,2,8,L|40:147,2,75.9999976806641
142,357,288936,6,0,L|149:189,1,151.999995361328,4|0,0:0|0:0,0:0:0:0:
196,71,289346,2,8,L|276:28,2,75.9999976806641
304,181,289757,6,0,P|401:161|411:76,1,151.999995361328,4|0,0:0|0:0,0:0:0:0:
470,230,290168,2,8,L|460:316,2,75.9999976806641
374,279,290579,6,0,B|335:266|335:266|195:302,1,126.666666666667,4|0,0:0|0:0,0:0:0:0:
179,355,290990,2,0,B|157:290|157:290|178:236,1,126.666666666667,4|0,0:0|0:0,0:0:0:0:
262,194,291400,6,0,P|214:151|97:183,1,151.999995361328,4|0,0:0|0:0,0:0:0:0:
59,224,291794,2,8,L|70:320,2,75.9999976806641
47,62,292189,6,0,B|102:58|102:58|148:71|148:71|205:67,1,151.999995361328,4|0,0:0|0:0,0:0:0:0:
329,115,292584,2,8,L|412:171,2,75.9999976806641
240,179,292978,6,0,P|264:267|226:346,1,151.999995361328,4|0,0:0|0:0,0:0:0:0:
125,345,293373,2,8,L|43:329,2,75.9999976806641
43,210,293768,6,0,P|112:249|205:220,1,126.666666666667,4|0,0:0|0:0,0:0:0:0:
282,234,294163,2,0,P|356:233|419:274,1,126.666666666667,4|0,0:0|0:0,0:0:0:0:
427,352,294557,6,0,L|435:182,1,151.999995361328,4|0,0:0|0:0,0:0:0:0:
442,101,294946,1,8,0:0:0:0:
326,65,295076,1,8,0:0:0:0:
452,116,295206,1,8,0:0:0:0:
344,182,295336,6,0,B|301:199|301:199|239:189|239:189|178:203,1,151.999995361328,4|0,0:0|0:0,0:0:0:0:
107,268,295725,1,8,0:0:0:0:
174,359,295855,1,8,0:0:0:0:
237,270,295985,1,8,0:0:0:0:
40,200,296115,6,0,P|13:269|38:339,1,151.999995361328,4|0,0:0|0:0,0:0:0:0:
174,359,296505,1,8,0:0:0:0:
344,297,296634,1,8,0:0:0:0:
294,382,296764,1,8,0:0:0:0:
337,206,296894,6,0,P|415:244|422:331,1,126.666666666667,4|0,0:0|0:0,0:0:0:0:
250,258,297284,2,0,L|268:96,1,126.666666666667,4|0,0:0|0:0,0:0:0:0:
432,56,297673,6,0,L|414:218,1,151.999995361328,4|0,0:0|0:0,0:0:0:0:
496,237,298063,1,8,0:0:0:0:
339,161,298193,1,8,0:0:0:0:
499,133,298323,1,8,0:0:0:0:
452,310,298453,6,0,P|379:302|316:204,1,151.999995361328,4|0,0:0|0:0,0:0:0:0:
244,97,298842,1,8,0:0:0:0:
273,316,298972,1,8,0:0:0:0:
322,148,299102,1,8,0:0:0:0:
171,244,299232,6,0,B|189:362|189:362|197:295,1,151.999995361328,4|0,0:0|0:0,0:0:0:0:
237,179,299621,1,8,0:0:0:0:
100,323,299751,1,8,0:0:0:0:
23,229,300011,6,0,P|82:218|121:159,1,126.666666666667,4|0,0:0|0:0,0:0:0:0:
209,65,300401,2,0,L|237:231,1,126.666666666667,4|0,0:0|0:0,0:0:0:0:
186,266,300790,6,0,P|236:231|327:263,1,126.666666666667,4|0,0:0|0:0,0:0:0:0:
368,308,301198,1,8,0:0:0:0:
368,308,301334,1,0,0:0:0:0:
368,308,301470,1,0,0:0:0:0:
434,230,301606,6,0,L|416:61,1,126.666666666667,4|0,0:0|0:0,0:0:0:0:
344,37,302014,1,8,0:0:0:0:
344,37,302150,1,0,0:0:0:0:
344,37,302286,1,0,0:0:0:0:
300,123,302422,6,0,P|212:154|158:97,1,126.666666666667,4|0,0:0|0:0,0:0:0:0:
91,95,302830,1,8,0:0:0:0:
91,95,302966,1,0,0:0:0:0:
91,95,303102,1,0,0:0:0:0:
25,200,303238,6,0,L|42:295,2,63.3333333333333
120,334,303647,5,8,0:0:0:0:
120,334,303783,1,0,0:0:0:0:
120,334,303919,2,0,L|104:279,1,31.6666666666667
216,285,304055,6,0,P|255:306|350:187,1,190,4|8,0:0|0:0,0:0:0:0:
435,81,304599,1,0,0:0:0:0:
435,81,304871,2,0,L|467:280,1,190,4|8,0:0|0:0,0:0:0:0:
367,345,305415,1,0,0:0:0:0:
367,345,305687,5,4,0:0:0:0:
161,268,305824,1,4,0:0:0:0:
301,265,305960,1,4,0:0:0:0:
231,332,306096,5,4,0:0:0:0:
385,242,306232,1,4,0:0:0:0:
163,179,306368,1,4,0:0:0:0:
382,138,306504,1,4,0:0:0:0:
88,146,307320,6,0,L|214:125,1,126.666666666667,4|0,0:0|0:0,0:0:0:0:
356,76,307728,1,8,0:0:0:0:
356,76,307864,1,0,0:0:0:0:
322,215,308000,1,0,0:0:0:0:
505,132,308136,6,0,L|379:153,1,126.666666666667,4|0,0:0|0:0,0:0:0:0:
256,266,308545,1,8,0:0:0:0:
256,266,308681,1,0,0:0:0:0:
412,264,308817,1,0,0:0:0:0:
194,336,308953,6,0,P|168:246|205:194,1,126.666666666667,4|0,0:0|0:0,0:0:0:0:
276,171,309361,1,8,0:0:0:0:
369,157,309497,1,0,0:0:0:0:
311,81,309633,1,0,0:0:0:0:
405,72,309769,5,0,0:0:0:0:
456,151,309905,1,0,0:0:0:0:
497,65,310041,1,0,0:0:0:0:
369,157,310177,5,8,0:0:0:0:
435,233,310313,1,0,0:0:0:0:
405,72,310449,1,8,0:0:0:0:
339,246,310585,6,0,P|277:221|207:245,1,126.666666666667,4|0,0:0|0:0,0:0:0:0:
140,297,310994,2,0,L|131:379,2,63.3333333333333,8|0|0,0:0|0:0|0:0,0:0:0:0:
21,183,311402,6,0,P|83:208|153:184,1,126.666666666667,4|0,0:0|0:0,0:0:0:0:
241,136,311810,1,8,0:0:0:0:
280,46,311946,1,0,0:0:0:0:
186,58,312082,1,0,0:0:0:0:
330,124,312218,5,8,0:0:0:0:
297,211,312354,1,0,0:0:0:0:
280,46,312490,1,8,0:0:0:0:
421,119,312626,5,8,0:0:0:0:
241,136,312762,1,8,0:0:0:0:
373,41,312898,1,8,0:0:0:0:
391,209,313034,6,0,L|399:250,14,23.75
404,325,313851,6,0,P|345:305|279:333,1,126.666666666667,4|0,0:0|0:0,0:0:0:0:
189,372,314252,2,0,P|144:376|118:359,2,63.3333333333333,8|0|0,0:0|0:0|0:0,0:0:0:0:
167,289,314653,6,0,P|188:214|158:160,1,126.666666666667,4|0,0:0|0:0,0:0:0:0:
66,240,315054,2,0,L|60:329,2,63.3333333333333,8|0|0,0:0|0:0|0:0,0:0:0:0:
60,137,315455,6,0,P|124:156|184:118,1,126.666666666667,4|0,0:0|0:0,0:0:0:0:
265,64,315856,6,0,L|244:3,2,63.3333333333333,8|0|0,0:0|0:0|0:0,0:0:0:0:
329,209,316257,6,4,L|350:148,2,63.3333333333333,0|0|0,0:0|0:0|0:0,0:0:0:0:
235,281,316658,6,0,L|214:220,1,63.3333333333333,8|0,0:0|0:0,0:0:0:0:
182,140,316925,1,8,0:0:0:0:
27,253,317059,6,0,P|81:240|158:277,1,126.666666666667,4|0,0:0|0:0,0:0:0:0:
211,368,317460,1,8,0:0:0:0:
211,368,317594,1,0,0:0:0:0:
211,368,317728,1,0,0:0:0:0:
327,296,317861,6,0,P|309:239|348:156,1,126.666666666667,4|0,0:0|0:0,0:0:0:0:
447,187,318262,1,8,0:0:0:0:
447,187,318396,1,0,0:0:0:0:
447,187,318530,1,0,0:0:0:0:
486,322,318663,6,0,L|364:369,1,126.666666666667,4|0,0:0|0:0,0:0:0:0:
242,294,319064,1,8,0:0:0:0:
242,294,319198,1,0,0:0:0:0:
242,294,319332,1,0,0:0:0:0:
112,216,319465,6,0,L|37:206,2,63.3333333333333
254,159,319867,5,8,0:0:0:0:
254,159,320000,1,0,0:0:0:0:
254,159,320134,1,8,0:0:0:0:
134,64,320268,6,0,L|8:47,1,126.666666666667,4|0,0:0|0:0,0:0:0:0:
103,143,320669,1,8,0:0:0:0:
212,48,320802,1,0,0:0:0:0:
254,159,320936,1,0,0:0:0:0:
79,234,321070,6,0,P|27:199|8:140,1,126.666666666667,4|0,0:0|0:0,0:0:0:0:
72,56,321471,1,8,0:0:0:0:
166,225,321605,1,0,0:0:0:0:
177,122,321738,1,0,0:0:0:0:
139,311,321872,6,0,P|201:307|246:265,1,126.666666666667,4|0,0:0|0:0,0:0:0:0:
301,143,322273,5,8,0:0:0:0:
342,308,322407,1,0,0:0:0:0:
365,213,322540,1,0,0:0:0:0:
400,121,322674,5,0,0:0:0:0:
457,217,322808,1,0,0:0:0:0:
471,54,322941,1,0,0:0:0:0:
301,143,323075,6,0,L|227:107,1,63.3333333333333,8|0,0:0|0:0,0:0:0:0:
166,71,323342,1,8,0:0:0:0:
97,186,323476,6,0,P|161:209|246:173,1,126.666666666667,4|0,0:0|0:0,0:0:0:0:
316,266,323877,1,8,0:0:0:0:
301,143,324011,1,0,0:0:0:0:
236,303,324145,1,0,0:0:0:0:
400,307,324278,6,0,P|402:235|359:187,1,126.666666666667,4|0,0:0|0:0,0:0:0:0:
352,370,324679,1,8,0:0:0:0:
489,231,324813,1,0,0:0:0:0:
316,266,324947,1,0,0:0:0:0:
482,357,325080,6,0,B|484:306|484:306|485:276|485:276|490:200,1,126.666666666667,4|0,0:0|0:0,0:0:0:0:
392,111,325482,1,8,0:0:0:0:
493,150,325615,1,0,0:0:0:0:
473,45,325749,1,0,0:0:0:0:
402,204,325883,6,0,B|325:189|325:189|347:181,1,95,4|0,0:0|0:0,0:0:0:0:
258,225,326150,2,0,P|249:180|274:131,1,95,4|0,0:0|0:0,0:0:0:0:
325,290,326417,2,0,L|224:315,1,95,4|0,0:0|0:0,0:0:0:0:
52,293,326685,6,0,P|119:301|170:253,1,126.666666666667,4|0,0:0|0:0,0:0:0:0:
178,185,327081,1,8,0:0:0:0:
21,132,327213,1,0,0:0:0:0:
91,225,327345,1,0,0:0:0:0:
105,97,327477,6,0,P|65:54|-11:52,1,126.666666666667,4|0,0:0|0:0,0:0:0:0:
9,213,327873,1,8,0:0:0:0:
187,112,328005,1,0,0:0:0:0:
91,225,328137,1,0,0:0:0:0:
200,115,328269,6,0,L|349:134,1,126.666666666667,4|0,0:0|0:0,0:0:0:0:
408,149,328665,5,8,0:0:0:0:
455,239,328797,1,0,0:0:0:0:
475,90,328929,1,0,0:0:0:0:
367,225,329061,5,0,0:0:0:0:
451,353,329193,1,0,0:0:0:0:
455,239,329325,1,0,0:0:0:0:
295,306,329457,5,8,0:0:0:0:
440,343,329589,1,0,0:0:0:0:
367,225,329721,1,8,0:0:0:0:
230,265,329853,6,0,P|218:325|255:374,1,126.666666666667,4|0,0:0|0:0,0:0:0:0:
440,343,330249,1,8,0:0:0:0:
290,188,330381,1,0,0:0:0:0:
295,306,330513,1,0,0:0:0:0:
361,144,330645,6,0,P|302:107|227:135,1,126.666666666667,4|0,0:0|0:0,0:0:0:0:
130,157,331041,1,8,0:0:0:0:
215,47,331173,1,0,0:0:0:0:
185,236,331305,1,0,0:0:0:0:
46,153,331437,6,0,P|71:96|153:80,1,126.666666666667,4|0,0:0|0:0,0:0:0:0:
185,236,331833,5,8,0:0:0:0:
127,332,331965,1,0,0:0:0:0:
130,157,332097,1,0,0:0:0:0:
217,319,332229,5,0,0:0:0:0:
320,241,332361,1,0,0:0:0:0:
185,236,332493,1,0,0:0:0:0:
262,165,332625,5,8,0:0:0:0:
354,326,332757,1,0,0:0:0:0:
384,122,332889,1,8,0:0:0:0:
171,119,333021,6,0,P|158:179|185:236,1,126.666666666667,4|0,0:0|0:0,0:0:0:0:
250,294,333417,1,8,0:0:0:0:
415,215,333549,1,0,0:0:0:0:
262,165,333681,1,0,0:0:0:0:
453,291,333813,6,0,P|496:249|464:149,1,126.666666666667,4|0,0:0|0:0,0:0:0:0:
341,118,334209,1,8,0:0:0:0:
487,93,334341,1,0,0:0:0:0:
280,50,334473,1,0,0:0:0:0:
302,249,334605,6,0,P|384:242|418:209,1,126.666666666667,4|0,0:0|0:0,0:0:0:0:
399,38,335001,5,8,0:0:0:0:
419,193,335133,1,0,0:0:0:0:
487,93,335265,1,0,0:0:0:0:
333,112,335397,5,0,0:0:0:0:
192,150,335529,1,0,0:0:0:0:
419,193,335661,1,0,0:0:0:0:
302,249,335793,5,8,0:0:0:0:
432,329,335925,1,0,0:0:0:0:
333,112,336057,1,8,0:0:0:0:
236,311,336189,6,0,P|146:318|103:251,1,126.666666666667,4|0,0:0|0:0,0:0:0:0:
72,205,336585,1,8,0:0:0:0:
44,327,336718,1,0,0:0:0:0:
93,105,336850,1,0,0:0:0:0:
158,43,336982,6,0,P|248:36|291:103,1,126.666666666667,4|0,0:0|0:0,0:0:0:0:
393,195,337378,1,8,0:0:0:0:
369,56,337510,1,0,0:0:0:0:
333,283,337642,1,0,0:0:0:0:
477,231,337774,6,0,P|474:156|425:115,1,126.666666666667,4|0,0:0|0:0,0:0:0:0:
193,148,338174,1,8,0:0:0:0:
393,195,338307,1,0,0:0:0:0:
111,129,338440,1,0,0:0:0:0:
127,252,338574,5,8,0:0:0:0:
333,283,338707,1,8,0:0:0:0:
111,129,338840,1,8,0:0:0:0:
304,360,338974,2,0,L|327:368,8,15.8333333333333,8|0|0|0|0|0|0|0|0,0:0|0:0|0:0|0:0|0:0|0:0|0:0|0:0|0:0,0:0:0:0:
201,312,339354,6,0,P|134:286|50:336,1,158.333333333333,4|0,0:0|0:0,0:0:0:0:
16,241,339765,5,0,3:0:0:0:
18,235,339833,1,0,3:0:0:0:
20,228,339902,1,0,3:0:0:0:
22,221,339971,1,0,3:0:0:0:
24,215,340039,1,0,3:0:0:0:
26,208,340108,1,0,3:0:0:0:
29,202,340176,6,0,B|56:92|56:92|62:151,1,158.333333333333,4|0,0:0|0:0,0:0:0:0:
140,61,340586,5,0,3:0:0:0:
140,67,340655,1,0,3:0:0:0:
140,73,340723,1,0,3:0:0:0:
140,79,340792,1,0,3:0:0:0:
140,85,340860,1,0,3:0:0:0:
141,91,340929,1,0,3:0:0:0:
141,97,340997,6,0,P|206:114|287:69,1,158.333333333333,4|0,0:0|0:0,0:0:0:0:
340,136,341408,5,0,3:0:0:0:
339,142,341477,1,0,3:0:0:0:
338,148,341545,1,0,3:0:0:0:
337,154,341614,1,0,3:0:0:0:
336,160,341682,1,0,3:0:0:0:
335,166,341751,1,0,3:0:0:0:
335,172,341819,6,0,B|359:299|359:299|364:256,1,158.333333333333,4|0,0:0|0:0,0:0:0:0:
435,206,342230,2,4,L|446:140,2,63.3333333333333
432,322,342641,6,0,P|373:351|283:303,1,158.333333333333,4|0,0:0|0:0,0:0:0:0:
226,253,343052,5,0,3:0:0:0:
222,247,343121,1,0,3:0:0:0:
218,241,343189,1,0,3:0:0:0:
214,235,343258,1,0,3:0:0:0:
210,229,343326,1,0,3:0:0:0:
206,223,343395,1,0,3:0:0:0:
202,218,343463,6,0,B|190:139|190:139|232:56,1,158.333333333333,4|0,0:0|0:0,0:0:0:0:
310,169,343874,5,0,3:0:0:0:
314,175,343943,1,0,3:0:0:0:
318,181,344011,1,0,3:0:0:0:
322,187,344080,1,0,3:0:0:0:
326,193,344148,1,0,3:0:0:0:
330,199,344217,1,0,3:0:0:0:
334,204,344285,6,0,B|346:283|346:283|304:366,1,158.333333333333,4|0,0:0|0:0,0:0:0:0:
201,355,344696,5,0,3:0:0:0:
197,349,344764,1,0,3:0:0:0:
193,343,344833,1,0,3:0:0:0:
189,337,344901,1,0,3:0:0:0:
185,331,344970,1,0,3:0:0:0:
182,325,345038,1,0,3:0:0:0:
178,319,345107,6,0,P|97:297|11:347,1,158.333333333333,4|0,0:0|0:0,0:0:0:0:
45,220,345518,2,4,L|27:143,2,63.3333333333333
155,81,345929,6,0,P|123:153|160:237,1,158.333333333333,4|0,0:0|0:0,0:0:0:0:
257,247,346340,5,0,3:0:0:0:
263,246,346408,1,0,3:0:0:0:
269,245,346477,1,0,3:0:0:0:
275,244,346545,1,0,3:0:0:0:
281,244,346614,1,0,3:0:0:0:
287,244,346682,1,0,3:0:0:0:
293,242,346751,6,0,B|407:216|407:216|350:206,1,158.333333333333,4|0,0:0|0:0,0:0:0:0:
258,158,347162,5,0,3:0:0:0:
252,159,347230,1,0,3:0:0:0:
246,160,347299,1,0,3:0:0:0:
240,161,347367,1,0,3:0:0:0:
234,161,347436,1,0,3:0:0:0:
228,161,347504,1,0,3:0:0:0:
222,163,347573,6,0,B|108:189|108:189|165:199,1,158.333333333333,4|0,0:0|0:0,0:0:0:0:
326,105,347984,5,0,3:0:0:0:
321,100,348052,1,0,3:0:0:0:
316,95,348121,1,0,3:0:0:0:
311,92,348189,1,0,3:0:0:0:
306,89,348258,1,0,3:0:0:0:
301,85,348326,1,0,3:0:0:0:
295,81,348395,6,0,P|220:56|137:92,1,158.333333333333,4|0,0:0|0:0,0:0:0:0:
63,102,348806,2,4,L|28:25,2,63.3333333333333
33,195,349217,6,0,B|48:330|48:330|56:282,1,158.333333333333,4|0,0:0|0:0,0:0:0:0:
140,270,349627,5,0,3:0:0:0:
141,276,349696,1,0,3:0:0:0:
141,282,349764,1,0,3:0:0:0:
142,288,349833,1,0,3:0:0:0:
143,294,349901,1,0,3:0:0:0:
143,300,349970,1,0,3:0:0:0:
145,305,350038,6,0,P|223:328|297:285,1,158.333333333333,4|0,0:0|0:0,0:0:0:0:
365,227,350449,5,0,3:0:0:0:
364,221,350517,1,0,3:0:0:0:
364,215,350586,1,0,3:0:0:0:
363,209,350655,1,0,3:0:0:0:
362,203,350724,1,0,3:0:0:0:
362,197,350793,1,0,3:0:0:0:
360,192,350862,6,0,P|282:169|208:211,1,158.333333333333,4|0,0:0|0:0,0:0:0:0:
369,318,351276,5,0,3:0:0:0:
374,318,351350,1,0,3:0:0:0:
380,317,351425,1,0,3:0:0:0:
386,316,351499,1,0,3:0:0:0:
392,316,351574,1,0,3:0:0:0:
398,315,351649,1,0,3:0:0:0:
405,314,351723,5,4,0:0:0:0:
162,279,352151,1,4,0:0:0:0:
479,198,352580,1,12,0:0:0:0:
460,305,353437,5,4,3:0:0:0:
404,84,354294,5,4,3:0:0:0:
383,368,355139,5,4,3:0:0:0:
321,118,355984,5,4,3:0:0:0:
231,201,356723,6,0,L|173:219,1,47.5,4|8,3:0|3:0,3:0:0:0:
120,114,357229,5,4,0:0:0:0:
364,213,357367,1,4,0:0:0:0:
133,270,357506,1,4,0:0:0:0:
475,185,357645,1,4,0:0:0:0:
82,163,370145,5,4,0:0:0:0:
419,239,370476,5,0,0:0:0:0:
419,156,370642,1,0,0:0:0:0:
340,131,370807,1,0,0:0:0:0:
292,197,370973,1,0,0:0:0:0:
340,264,371138,1,4,0:0:0:0:
414,40,371634,5,4,0:0:0:0:
256,192,371717,12,0,373040,0:0:0:0:
434,161,373123,5,4,0:0:0:0:
93,239,373454,1,0,0:0:0:0:
93,156,373620,1,0,0:0:0:0:
172,131,373785,1,0,0:0:0:0:
220,197,373951,1,0,0:0:0:0:
172,264,374116,1,4,0:0:0:0:
98,40,374612,5,4,0:0:0:0:
256,192,374695,12,0,376018,0:0:0:0:
365,285,376093,6,0,L|378:150,1,126.666666666667,4|0,0:0|0:0,0:0:0:0:
251,203,376598,1,0,0:0:0:0:
244,202,376766,1,0,0:0:0:0:
237,201,376935,1,0,0:0:0:0:
230,200,377103,1,4,0:0:0:0:
209,312,377440,1,0,0:0:0:0:
180,127,377608,2,0,L|149:114,6,23.75
256,73,378114,6,0,P|318:56|393:85,1,126.666666666667,4|0,0:0|0:0,0:0:0:0:
451,192,378619,2,0,L|461:110,1,63.3333333333333
350,297,378956,1,0,0:0:0:0:
350,297,379124,2,0,L|364:171,1,126.666666666667,4|0,0:0|0:0,0:0:0:0:
451,50,379629,2,0,L|478:47,9,15.8333333333333
88,194,380135,5,4,0:0:0:0:
432,282,380462,1,0,0:0:0:0:
442,200,380626,1,0,0:0:0:0:
366,164,380790,1,0,0:0:0:0:
311,224,380954,1,0,0:0:0:0:
350,297,381118,1,4,0:0:0:0:
189,165,381610,5,4,0:0:0:0:
442,188,382102,5,4,0:0:0:0:
84,298,382430,1,0,0:0:0:0:
88,194,382594,1,0,0:0:0:0:
189,165,382757,1,0,0:0:0:0:
244,251,382921,1,0,0:0:0:0:
180,333,383085,1,4,0:0:0:0:
122,72,383577,6,0,L|243:63,1,118.750004529953,4|0,0:0|0:0,0:0:0:0:
248,149,384069,6,0,B|307:136|327:107|330:49|330:49|353:128|353:128|362:89,1,261.250009965897
427,155,385085,2,0,B|440:104|440:104|478:156|454:212|454:212|429:266|474:318,1,261.250009965897
375,293,386102,2,0,B|362:240|375:206|375:206|299:239|251:213|251:213|297:194,1,261.250009965897
255,292,387119,2,0,P|210:277|176:207,1,118.750004529953
94,248,387628,6,0,L|88:264,10,15.8333333333333
44,326,388108,6,0,L|55:181,1,134.583335900307
195,44,388601,2,0,B|194:98|194:98|189:136|189:136|184:187,1,134.583335900307
296,347,389094,6,0,B|298:297|298:297|306:259|306:259|307:204,1,134.583335900307
453,66,389588,2,0,B|442:115|442:115|450:150|450:150|442:209,1,134.583335900307
420,351,390081,1,4,0:0:0:0:
418,345,390246,1,0,0:0:0:0:
416,339,390410,1,0,0:0:0:0:
306,213,390575,2,0,P|226:205|176:254,1,134.583335900307
186,235,391068,5,4,3:0:0:0:
86,324,391233,2,4,L|57:238,1,53.8333343601227,4|4,3:0|3:0,3:0:0:0:
35,187,391561,1,4,3:0:0:0:
217,153,391726,1,4,3:0:0:0:
0,102,391894,1,4,3:0:0:0:
257,279,392061,5,4,0:0:0:0:
35,187,393061,5,4,0:0:0:0:
387,152,394061,5,12,0:0:0:0:
315,331,394227,1,8,0:0:0:0:
234,44,394394,1,8,0:0:0:0:
224,259,394561,5,12,0:0:0:0:
387,152,394727,1,8,0:0:0:0:
140,184,394894,1,8,0:0:0:0:
420,68,395061,5,12,0:0:0:0:
178,102,395227,1,8,0:0:0:0:
336,254,395394,1,8,0:0:0:0:
300,81,395561,5,12,0:0:0:0:
455,304,395727,1,8,0:0:0:0:
484,152,395894,1,8,0:0:0:0:
455,304,396061,6,0,B|411:345|411:345|385:363|385:363|358:385,1,126.666666666667,4|0,0:0|0:0,0:0:0:0:
135,276,396522,1,8,0:0:0:0:
270,336,396676,1,0,0:0:0:0:
111,298,396830,1,8,0:0:0:0:
336,254,396984,1,4,0:0:0:0:
336,254,397311,5,0,0:0:0:0:
129,180,397475,1,8,0:0:0:0:
228,272,397639,1,0,0:0:0:0:
336,158,397803,1,8,0:0:0:0:
46,230,397967,1,4,0:0:0:0:
46,230,398295,5,0,0:0:0:0:
99,331,398459,1,8,0:0:0:0:
142,89,398623,1,0,0:0:0:0:
228,239,398787,1,8,0:0:0:0:
236,31,398951,1,0,0:0:0:0:
117,182,399115,1,0,0:0:0:0:
334,174,399279,1,0,0:0:0:0:
228,135,399443,1,8,0:0:0:0:
315,343,399606,1,0,0:0:0:0:
396,266,399770,1,8,0:0:0:0:
213,341,399934,5,4,0:0:0:0:
38,209,400265,2,0,P|44:135|73:112,1,88.6666639607748,0|8,0:0|0:0,0:0:0:0:
280,241,400597,2,0,L|192:254,1,88.6666639607748
330,146,400929,1,4,0:0:0:0:
330,146,401261,2,0,B|308:22,1,88.6666639607748,0|8,0:0|0:0,0:0:0:0:
338,317,401593,5,0,0:0:0:0:
417,234,401759,1,0,0:0:0:0:
240,280,401925,2,0,P|147:256|135:243,1,88.6666639607748,4|0,0:0|0:0,0:0:0:0:
40,97,402257,1,0,0:0:0:0:
60,268,402423,1,8,0:0:0:0:
81,175,402589,1,0,0:0:0:0:
35,359,402755,1,0,0:0:0:0:
81,175,402921,1,4,0:0:0:0:
417,234,403241,5,4,0:0:0:0:
60,268,403401,1,12,0:0:0:0:
324,327,403719,1,4,0:0:0:0:
35,359,403879,6,0,P|84:361|123:336,1,88.6666639607748,4|0,0:0|0:0,0:0:0:0:
186,150,404201,1,0,0:0:0:0:
74,180,404362,2,0,L|56:285,1,88.6666639607748,8|0,0:0|0:0,0:0:0:0:
324,327,404685,1,0,0:0:0:0:
160,249,404846,1,4,0:0:0:0:
402,365,405169,2,0,P|410:317|387:269,1,101.333333333333,0|8,0:0|0:0,0:0:0:0:
216,345,405491,5,0,0:0:0:0:
333,218,405653,1,0,0:0:0:0:
176,163,405814,2,0,P|161:204|160:249,1,88.6666639607748,4|0,0:0|0:0,0:0:0:0:
216,345,406137,1,0,0:0:0:0:
268,127,406298,1,8,0:0:0:0:
84,248,406459,1,0,0:0:0:0:
295,288,406620,1,0,0:0:0:0:
11,187,406782,1,4,0:0:0:0:
86,343,407104,5,0,0:0:0:0:
106,66,407266,1,8,0:0:0:0:
86,343,407588,1,0,0:0:0:0:
11,187,407749,6,0,P|42:163|113:153,1,88.6666639607748,4|0,0:0|0:0,0:0:0:0:
208,214,408072,1,0,0:0:0:0:
207,117,408233,1,8,0:0:0:0:
144,281,408395,1,0,0:0:0:0:
294,254,408556,1,0,0:0:0:0:
278,73,408717,2,0,P|166:50|142:82,1,88.6666639607748,4|0,0:0|0:0,0:0:0:0:
346,147,409040,2,0,L|376:34,1,88.6666639607748,0|8,0:0|0:0,0:0:0:0:
460,86,409362,1,0,0:0:0:0:
460,86,409524,1,0,0:0:0:0:
472,229,409685,6,0,P|424:239|366:182,1,88.6666639607748,4|0,0:0|0:0,0:0:0:0:
255,121,410008,1,0,0:0:0:0:
354,302,410169,1,8,0:0:0:0:
346,147,410330,1,0,0:0:0:0:
275,354,410491,1,0,0:0:0:0:
99,189,410653,6,0,B|155:201|155:201|222:197|222:197|276:206,1,177.33332792155,4|0,0:0|0:0,0:0:0:0:
275,354,411137,2,0,B|219:342|219:342|152:346|152:346|97:336,1,177.33332792155,4|0,0:0|0:0,0:0:0:0:
367,355,411620,6,0,P|432:348|479:377,1,88.6666639607748,4|0,0:0|0:0,0:0:0:0:
471,233,411943,1,0,0:0:0:0:
334,158,412104,1,8,0:0:0:0:
385,271,412266,1,0,0:0:0:0:
402,78,412427,1,0,0:0:0:0:
268,216,412588,6,0,L|300:319,1,88.6666639607748,4|0,0:0|0:0,0:0:0:0:
428,162,412911,2,0,L|396:59,1,88.6666639607748,0|8,0:0|0:0,0:0:0:0:
241,128,413233,1,0,0:0:0:0:
411,241,413392,1,0,0:0:0:0:
411,241,413552,6,0,P|467:235|485:109,1,177.33332792155,4|0,0:0|0:0,0:0:0:0:
321,193,414020,5,8,0:0:0:0:
275,375,414177,1,0,0:0:0:0:
338,287,414333,1,0,0:0:0:0:
384,371,414489,5,4,0:0:0:0:
211,287,414645,1,0,0:0:0:0:
165,371,414802,1,0,0:0:0:0:
228,193,414958,5,8,0:0:0:0:
275,375,415114,1,0,0:0:0:0:
321,193,415270,1,0,0:0:0:0:
36,279,415427,6,0,L|154:258,1,88.6666639607748,4|0,0:0|0:0,0:0:0:0:
228,193,415752,1,0,0:0:0:0:
125,63,415914,1,8,0:0:0:0:
238,202,416077,1,0,0:0:0:0:
125,63,416240,1,0,0:0:0:0:
209,295,416402,1,4,0:0:0:0:
223,304,416727,6,0,L|266:306,4,22.1666659901937,0|0|0|0|8,0:0|0:0|0:0|0:0|0:0,0:0:0:0:
358,193,417053,5,0,0:0:0:0:
336,370,417215,1,0,0:0:0:0:
445,195,417378,2,0,P|431:146|382:112,1,88.6666639607748,4|0,0:0|0:0,0:0:0:0:
244,172,417703,1,0,0:0:0:0:
407,289,417866,2,0,L|510:276,2,88.6666639607748,8|0|0,0:0|0:0|0:0,0:0:0:0:
232,161,418353,1,4,0:0:0:0:
169,338,418679,5,0,0:0:0:0:
445,195,418841,1,8,0:0:0:0:
169,338,419166,1,0,0:0:0:0:
500,305,419329,6,0,L|350:277,1,88.6666639607748,4|0,0:0|0:0,0:0:0:0:
263,253,419654,1,0,0:0:0:0:
445,195,419817,1,8,0:0:0:0:
232,161,419979,2,0,P|226:109|263:63,1,88.6666639607748
333,325,420305,1,4,0:0:0:0:
413,74,420630,6,0,L|389:41,4,22.1666659901937,0|0|0|0|8,0:0|0:0|0:0|0:0|0:0,0:0:0:0:
512,268,420955,5,0,0:0:0:0:
496,125,421118,1,0,0:0:0:0:
445,351,421280,2,0,P|407:356|353:324,1,88.6666639607748,4|0,0:0|0:0,0:0:0:0:
218,197,421605,1,0,0:0:0:0:
283,337,421768,1,8,0:0:0:0:
348,134,421931,1,0,0:0:0:0:
315,236,422093,1,0,0:0:0:0:
286,44,422256,1,4,0:0:0:0:
460,172,422581,5,0,0:0:0:0:
74,103,422744,1,8,0:0:0:0:
460,172,423069,1,0,0:0:0:0:
512,255,423231,6,0,L|387:267,1,88.6666639607748,4|0,0:0|0:0,0:0:0:0:
328,272,423557,1,0,0:0:0:0:
260,360,423719,1,8,0:0:0:0:
258,165,423882,1,0,0:0:0:0:
190,274,424044,1,0,0:0:0:0:
87,109,424207,2,0,L|191:100,1,88.6666639607748,4|0,0:0|0:0,0:0:0:0:
88,275,424532,2,0,P|102:225|84:178,1,88.6666639607748,0|8,0:0|0:0,0:0:0:0:
0,341,424857,1,0,0:0:0:0:
0,341,425020,1,0,0:0:0:0:
157,330,425183,6,0,P|195:309|239:312,1,88.6666639607748,4|0,0:0|0:0,0:0:0:0:
337,354,425508,1,0,0:0:0:0:
419,189,425670,1,8,0:0:0:0:
417,307,425833,1,0,0:0:0:0:
372,111,425996,1,0,0:0:0:0:
475,248,426158,6,0,P|487:350|427:390,1,177.33332792155,4|0,0:0|0:0,0:0:0:0:
337,354,426646,2,0,P|260:319|164:356,1,177.33332792155,4|0,0:0|0:0,0:0:0:0:
98,379,427134,6,0,L|81:250,1,88.6666639607748,4|0,0:0|0:0,0:0:0:0:
69,168,427459,1,0,0:0:0:0:
249,252,427622,1,8,0:0:0:0:
50,157,427784,1,0,0:0:0:0:
256,132,427947,1,0,0:0:0:0:
54,359,428109,6,0,P|22:329|13:286,1,88.6666639607748,4|0,0:0|0:0,0:0:0:0:
305,234,428435,2,0,L|244:323,1,88.6666639607748,0|8,0:0|0:0,0:0:0:0:
195,372,428760,1,0,0:0:0:0:
256,115,428922,1,0,0:0:0:0:
363,352,429085,6,0,P|269:385|158:350,1,177.33332792155,4|0,0:0|0:0,0:0:0:0:
113,289,429573,5,8,0:0:0:0:
145,160,429735,1,0,0:0:0:0:
272,199,429898,1,0,0:0:0:0:
494,179,430061,5,4,0:0:0:0:
345,274,430223,1,0,0:0:0:0:
319,107,430386,1,0,0:0:0:0:
32,176,430548,5,8,0:0:0:0:
184,324,430711,1,0,0:0:0:0:
227,115,430874,1,0,0:0:0:0:
30,280,431036,5,4,0:0:0:0:
144,290,442499,6,0,P|178:277|225:294,1,85.5000003261566,4|0,0:0|0:0,0:0:0:0:
301,335,442811,1,0,0:0:0:0:
441,248,442967,1,8,0:0:0:0:
441,248,443124,1,0,0:0:0:0:
441,248,443280,1,0,0:0:0:0:
396,155,443436,6,0,L|353:52,1,85.5000003261566,4|0,0:0|0:0,0:0:0:0:
315,190,443749,1,0,0:0:0:0:
464,87,443905,1,8,0:0:0:0:
270,107,444061,1,0,0:0:0:0:
358,270,444217,1,0,0:0:0:0:
498,144,444374,6,0,L|379:116,1,85.5000003261566,4|0,0:0|0:0,0:0:0:0:
258,241,444686,1,0,0:0:0:0:
456,254,444842,1,8,0:0:0:0:
456,254,444999,1,0,0:0:0:0:
456,254,445155,1,0,0:0:0:0:
207,311,445311,6,0,P|179:275|188:206,1,85.5000003261566,4|0,0:0|0:0,0:0:0:0:
231,125,445624,1,0,0:0:0:0:
334,264,445780,1,8,0:0:0:0:
334,264,445936,1,0,0:0:0:0:
322,164,446092,1,0,0:0:0:0:
293,350,446249,6,0,L|402:349,1,85.5000003261566,4|0,0:0|0:0,0:0:0:0:
469,261,446561,1,0,0:0:0:0:
401,198,446717,1,8,0:0:0:0:
479,145,446874,1,0,0:0:0:0:
466,355,447030,1,0,0:0:0:0:
323,214,447186,6,0,P|325:169|377:126,1,95.0000036239625,4|0,0:0|0:0,0:0:0:0:
379,291,447524,2,0,L|295:333,1,85.5000003261566,4|0,0:0|0:0,0:0:0:0:
83,218,447863,5,8,0:0:0:0:
83,218,448033,1,8,0:0:0:0:
457,248,448202,1,4,0:0:0:0:
414,274,449684,2,0,L|499:283,1,79.1666666666667,4|0,0:0|0:0,0:0:0:0:
422,361,450196,6,0,L|315:349,1,87.4000001333618,4|0,0:0|0:0,0:0:0:0:
184,330,450494,1,0,0:0:0:0:
131,234,450643,1,8,0:0:0:0:
226,182,450793,1,0,0:0:0:0:
276,276,450942,1,0,0:0:0:0:
79,320,451091,1,4,0:0:0:0:
58,167,451390,6,0,L|54:128,4,21.8500000333405,0|0|0|0|8,0:0|0:0|0:0|0:0|0:0,0:0:0:0:
131,234,451688,5,0,0:0:0:0:
157,95,451837,1,0,0:0:0:0:
158,347,451987,2,0,P|198:362|257:344,1,88.6666639607748,4|0,0:0|0:0,0:0:0:0:
390,251,452298,1,0,0:0:0:0:
358,361,452453,1,8,0:0:0:0:
321,161,452609,1,0,0:0:0:0:
285,275,452765,1,0,0:0:0:0:
351,72,452920,1,4,0:0:0:0:
457,148,453232,5,0,0:0:0:0:
57,92,453387,1,8,0:0:0:0:
457,148,453699,1,0,0:0:0:0:
493,249,453854,6,0,L|476:336,1,88.6666639607748,4|0,0:0|0:0,0:0:0:0:
304,335,454165,1,0,0:0:0:0:
404,283,454321,1,8,0:0:0:0:
262,245,454477,1,0,0:0:0:0:
387,370,454632,1,0,0:0:0:0:
424,197,454788,1,4,0:0:0:0:
262,245,455099,6,0,L|222:241,4,22.1666659901937,0|0|0|0|8,0:0|0:0|0:0|0:0|0:0,0:0:0:0:
278,154,455411,5,0,0:0:0:0:
493,249,455566,1,0,0:0:0:0:
171,285,455722,2,0,P|160:235|187:189,1,88.6666639607748,4|0,0:0|0:0,0:0:0:0:
346,265,456033,1,0,0:0:0:0:
213,366,456189,5,8,0:0:0:0:
115,357,456344,1,0,0:0:0:0:
17,348,456500,1,0,0:0:0:0:
311,375,456656,1,4,0:0:0:0:
66,221,456945,5,0,0:0:0:0:
66,221,457090,2,0,L|18:268,2,63.3333333333333,8|0|0,0:0|0:0|0:0,0:0:0:0:
152,229,457525,6,0,P|195:218|252:238,1,88.6666639607748,4|0,0:0|0:0,0:0:0:0:
340,275,457836,1,0,0:0:0:0:
254,324,457991,1,8,0:0:0:0:
348,163,458147,1,0,0:0:0:0:
437,282,458303,1,0,0:0:0:0:
166,365,458458,5,4,0:0:0:0:
440,195,458770,2,0,P|502:225|516:297,1,88.6666639607748,0|8,0:0|0:0,0:0:0:0:
384,352,459081,1,0,0:0:0:0:
505,328,459237,1,0,0:0:0:0:
294,323,459392,6,0,L|175:280,1,88.6666639607748,4|0,0:0|0:0,0:0:0:0:
137,139,459703,1,0,0:0:0:0:
300,97,459859,2,0,L|419:140,1,88.6666639607748,8|0,0:0|0:0,0:0:0:0:
238,192,460170,1,0,0:0:0:0:
443,67,460326,6,0,P|462:158|378:212,1,177.33332792155,4|0,0:0|0:0,0:0:0:0:
321,235,460793,2,8,P|297:316|357:376,1,177.33332792155,4|0,0:0|0:0,0:0:0:0:
211,318,461260,6,8,P|149:258|68:283,1,177.33332792155,4|0,0:0|0:0,0:0:0:0:
123,365,461727,1,8,0:0:0:0:
110,180,461882,1,0,0:0:0:0:
54,305,462038,1,0,0:0:0:0:
186,141,462194,6,0,P|149:100|93:95,1,88.6666639607748,4|0,0:0|0:0,0:0:0:0:
247,239,462505,2,0,L|276:148,1,88.6666639607748,0|8,0:0|0:0,0:0:0:0:
314,65,462816,1,0,0:0:0:0:
363,167,462972,1,0,0:0:0:0:
305,298,463128,6,0,P|197:304|166:230,1,177.33332792155,4|0,0:0|0:0,0:0:0:0:
210,119,463595,5,8,0:0:0:0:
247,239,463744,1,0,0:0:0:0:
80,178,463893,1,0,0:0:0:0:
94,330,464042,5,4,0:0:0:0:
397,309,464192,1,0,0:0:0:0:
169,276,464341,1,0,0:0:0:0:
291,359,464490,5,8,0:0:0:0:
484,219,464639,1,0,0:0:0:0:
477,358,464789,1,0,0:0:0:0:
223,195,464958,6,0,L|412:169,1,177.33332792155,4|0,0:0|0:0,0:0:0:0:
452,84,465423,1,8,0:0:0:0:
305,146,465578,1,0,0:0:0:0:
401,317,465733,1,0,0:0:0:0:
425,211,465888,6,0,P|348:221|304:264,1,88.6666639607748,4|0,0:0|0:0,0:0:0:0:
145,256,466198,2,0,B|180:265|180:265|200:274|200:274|274:297,1,88.6666639607748,0|8,0:0|0:0,0:0:0:0:
313,314,466508,1,0,0:0:0:0:
164,354,466663,1,0,0:0:0:0:
48,223,466818,6,0,P|124:166|217:185,1,177.33332792155,4|0,0:0|0:0,0:0:0:0:
283,243,467283,1,8,0:0:0:0:
332,42,467438,1,0,0:0:0:0:
372,169,467593,1,0,0:0:0:0:
205,101,467748,6,0,B|149:102|149:102|94:129|94:129|-29:134,1,177.33332792155,4|0,0:0|0:0,0:0:0:0:
111,273,468213,2,0,B|167:272|167:272|222:245|222:245|345:240,1,177.33332792155,4|0,0:0|0:0,0:0:0:0:
77,354,468678,6,0,P|27:265|77:195,1,177.33332792155,4|0,0:0|0:0,0:0:0:0:
222,174,469144,1,8,0:0:0:0:
70,123,469299,1,0,0:0:0:0:
311,100,469454,1,0,0:0:0:0:
486,209,469609,6,0,P|436:239|422:293,1,88.6666639607748,4|0,0:0|0:0,0:0:0:0:
357,357,469919,2,0,L|337:250,1,88.6666639607748,0|8,0:0|0:0,0:0:0:0:
311,100,470229,1,0,0:0:0:0:
311,100,470384,1,0,0:0:0:0:
41,182,470539,6,0,B|91:174|91:174|159:198|159:198|220:187,1,177.33332792155,4|0,0:0|0:0,0:0:0:0:
413,164,470993,5,8,0:0:0:0:
311,100,471145,1,0,0:0:0:0:
389,312,471296,1,0,0:0:0:0:
250,289,471448,5,4,0:0:0:0:
498,243,471599,1,0,0:0:0:0:
327,217,471751,1,0,0:0:0:0:
210,196,471902,5,8,0:0:0:0:
317,366,472054,1,0,0:0:0:0:
304,86,472205,1,0,0:0:0:0:
98,304,472357,6,0,L|220:290,1,95.0000036239625,4|0,0:0|0:0,0:0:0:0:
337,203,472659,1,0,0:0:0:0:
407,96,472811,1,8,0:0:0:0:
416,346,472963,1,0,0:0:0:0:
436,238,473114,1,0,0:0:0:0:
287,275,473266,6,0,P|229:224|116:255,1,164.666659128825,4|0,0:0|0:0,0:0:0:0:
85,352,473720,2,0,B|67:290|67:290|71:242|71:242|41:119,1,164.666659128825,8|0,0:0|0:0,0:0:0:0:
146,55,474175,6,0,L|127:181,1,95.0000036239625,4|0,0:0|0:0,0:0:0:0:
201,301,474478,1,0,0:0:0:0:
312,174,474629,1,8,0:0:0:0:
213,160,474781,1,0,0:0:0:0:
323,282,474932,1,0,0:0:0:0:
404,136,475084,6,0,P|341:86|236:113,1,164.666659128825,4|0,0:0|0:0,0:0:0:0:
462,278,475538,2,0,L|504:118,1,164.666659128825,8|0,0:0|0:0,0:0:0:0:
447,26,475993,6,0,L|346:47,2,88.6666639607748,4|0|0,0:0|0:0|0:0,0:0:0:0:
213,160,476447,2,0,L|314:181,2,88.6666639607748,8|0|0,0:0|0:0|0:0,0:0:0:0:
311,307,476902,1,4,0:0:0:0:
255,73,477053,1,0,0:0:0:0:
255,73,477205,1,0,0:0:0:0:
129,180,477357,2,0,L|79:172,2,44.3333319803874,8|0|0,0:0|0:0|0:0,0:0:0:0:
17,267,477660,1,0,0:0:0:0:
17,267,477811,6,0,P|63:272|116:249,1,88.6666639607748,4|0,0:0|0:0,0:0:0:0:
176,340,478114,1,0,0:0:0:0:
176,340,478266,1,8,0:0:0:0:
265,267,478417,1,0,0:0:0:0:
348,346,478569,1,0,0:0:0:0:
415,266,478720,6,0,P|375:159|434:75,1,177.33332792155,4|0,0:0|0:0,0:0:0:0:
459,355,479175,2,0,L|491:365,4,22.1666659901937,8|0|0|0|0,0:0|0:0|0:0|0:0|0:0,0:0:0:0:
343,330,479629,6,0,P|295:313|199:350,1,95.0000036239625,4|0,0:0|0:0,0:0:0:0:
104,350,479932,1,0,0:0:0:0:
313,242,480084,1,8,0:0:0:0:
78,254,480235,1,0,0:0:0:0:
327,231,480387,1,0,0:0:0:0:
95,145,480538,6,0,P|196:158|276:90,1,164.666659128825,4|0,0:0|0:0,0:0:0:0:
367,74,480993,2,0,B|347:124|347:124|346:185|346:185|304:283,1,164.666659128825,8|0,0:0|0:0,0:0:0:0:
494,269,481447,6,0,P|430:258|360:304,1,95.0000036239625,4|0,0:0|0:0,0:0:0:0:
247,351,481750,1,0,0:0:0:0:
449,335,481902,1,8,0:0:0:0:
248,251,482053,1,0,0:0:0:0:
477,349,482205,1,0,0:0:0:0:
424,148,482357,6,0,P|348:110|253:150,1,190.000007247925,4|0,0:0|0:0,0:0:0:0:
193,193,482811,2,0,P|99:221|28:162,1,190.000007247925,8|0,0:0|0:0,0:0:0:0:
56,90,483266,5,4,0:0:0:0:
112,348,483576,2,0,L|123:290,1,37.9999988403321,0|8,0:0|0:0,0:0:0:0:
354,255,484041,1,0,0:0:0:0:
354,255,484196,1,4,0:0:0:0:
215,352,484506,1,0,0:0:0:0:
162,235,484661,2,0,L|95:219,2,37.9999988403321,8|8|8,0:0|0:0|0:0,0:0:0:0:
240,160,485126,5,4,0:0:0:0:
400,361,485436,2,0,L|459:343,1,37.9999988403321,0|8,0:0|0:0,0:0:0:0:
414,127,485901,1,0,0:0:0:0:
354,255,486056,1,4,0:0:0:0:
414,127,486521,6,0,L|404:101,8,15.8333333333333,8|0|0|0|0|0|0|0|0,0:0|0:0|0:0|0:0|0:0|0:0|0:0|0:0|0:0,0:0:0:0:
259,124,486986,6,0,P|246:83|289:16,2,82.3333295644126,4|0|0,0:0|0:0|0:0,0:0:0:0:
47,150,487452,1,8,0:0:0:0:
160,199,487607,1,0,0:0:0:0:
53,260,487762,1,0,0:0:0:0:
165,341,487917,6,0,P|214:290|324:306,1,164.666659128825,4|0,0:0|0:0,0:0:0:0:
388,307,488382,2,0,P|464:282|497:209,1,164.666659128825,8|0,0:0|0:0,0:0:0:0:
427,28,488847,5,4,0:0:0:0:
398,206,489002,1,0,0:0:0:0:
491,123,489157,1,0,0:0:0:0:
305,173,489312,5,8,0:0:0:0:
187,156,489467,1,0,0:0:0:0:
308,320,489622,1,0,0:0:0:0:
172,143,489777,6,0,P|88:124|17:187,1,164.666659128825,4|0,0:0|0:0,0:0:0:0:
53,360,490242,2,0,B|60:307|60:307|99:264|99:264|107:197,1,164.666659128825,8|0,0:0|0:0,0:0:0:0:
142,341,490707,6,0,L|255:318,1,82.3333295644126,4|0,0:0|0:0,0:0:0:0:
333,305,491017,1,0,0:0:0:0:
430,352,491172,1,8,0:0:0:0:
461,159,491328,1,0,0:0:0:0:
499,254,491483,1,0,0:0:0:0:
419,65,491638,6,0,P|327:52|260:112,1,164.666659128825,4|0,0:0|0:0,0:0:0:0:
233,160,492103,2,0,P|156:183|84:147,1,164.666659128825,8|0,0:0|0:0,0:0:0:0:
30,28,492568,6,0,L|10:138,1,82.3333295644126,4|0,0:0|0:0,0:0:0:0:
96,257,492878,1,0,0:0:0:0:
183,79,493033,2,0,P|144:69|52:104,1,82.3333295644126,8|0,0:0|0:0,0:0:0:0:
215,284,493343,1,0,0:0:0:0:
233,160,493498,1,4,0:0:0:0:
215,284,493963,6,0,L|213:310,8,20.5833323911032,8|0|0|0|0|0|0|0|0,0:0|0:0|0:0|0:0|0:0|0:0|0:0|0:0|0:0,0:0:0:0:
102,251,494428,6,0,L|-3:276,2,82.3333295644126,4|0|0,0:0|0:0|0:0,0:0:0:0:
163,148,494893,2,0,L|58:173,2,82.3333295644126,8|0|0,0:0|0:0|0:0,0:0:0:0:
282,206,495359,6,0,P|291:148|262:92,2,82.3333295644126,4|0|0,0:0|0:0|0:0,0:0:0:0:
215,284,495824,2,0,P|206:342|235:398,2,82.3333295644126,8|0|0,0:0|0:0|0:0,0:0:0:0:
306,325,496289,5,4,0:0:0:0:
476,270,496444,1,0,0:0:0:0:
367,233,496599,1,0,0:0:0:0:
483,169,496754,6,0,P|491:130|465:76,2,82.3333295644126,8|0|0,0:0|0:0|0:0,0:0:0:0:
361,124,497219,2,0,L|284:94,2,82.3333295644126,4|0|0,0:0|0:0|0:0,0:0:0:0:
248,181,497684,2,0,L|171:151,2,82.3333295644126,8|0|8,0:0|0:0|0:0,0:0:0:0:
56,292,498149,6,0,B|121:285|121:285|152:306|152:306|268:292,1,164.666659128825,4|0,0:0|0:0,0:0:0:0:
320,289,498614,1,8,0:0:0:0:
504,222,498769,1,0,0:0:0:0:
426,357,498924,1,0,0:0:0:0:
372,209,499079,6,0,P|352:176|366:119,1,82.3333295644126,4|0,0:0|0:0,0:0:0:0:
423,70,499390,1,0,0:0:0:0:
278,213,499545,2,0,L|151:228,1,82.3333295644126,8|0,0:0|0:0,0:0:0:0:
73,117,499855,1,0,0:0:0:0:
73,117,500010,6,0,B|151:105|151:105|210:117|210:117|293:110,1,221.666659901937,4|0,0:0|0:0,0:0:0:0:
417,78,500475,2,0,P|374:163|442:263,1,221.666659901937,4|0,0:0|0:0,0:0:0:0:
469,165,500940,5,4,0:0:0:0:
297,223,501088,1,0,0:0:0:0:
447,270,501236,1,0,0:0:0:0:
317,330,501384,5,8,0:0:0:0:
139,224,501532,1,0,0:0:0:0:
212,374,501680,1,8,0:0:0:0:
236,154,501828,5,4,0:0:0:0:
212,289,501977,1,0,0:0:0:0:
160,89,502125,1,0,0:0:0:0:
139,224,502273,5,8,0:0:0:0:
75,350,502421,1,0,0:0:0:0:
70,138,502569,1,8,0:0:0:0:
20,263,502717,5,4,0:0:0:0:
193,376,502865,1,0,0:0:0:0:
140,225,503014,1,0,0:0:0:0:
297,361,503162,5,8,0:0:0:0:
269,160,503310,1,0,0:0:0:0:
212,289,503458,1,8,0:0:0:0:
390,334,503606,5,12,0:0:0:0:
328,244,503754,1,0,0:0:0:0:
212,289,503902,1,8,0:0:0:0:
269,160,504051,5,0,0:0:0:0:
390,334,504199,1,8,0:0:0:0:
466,141,504347,1,0,0:0:0:0:
310,86,504495,5,14,0:0:0:0:
273,78,504567,1,0,0:0:0:0:
235,85,504640,1,8,0:0:0:0:
205,108,504713,1,0,0:0:0:0:
182,139,504786,5,2,0:0:0:0:
146,153,504859,1,0,0:0:0:0:
108,155,504931,1,8,0:0:0:0:
71,143,505004,1,0,0:0:0:0:
44,115,505077,6,0,L|31:50,3,47.5,2|0|8|0,0:0|0:0|0:0|0:0,0:0:0:0:
29,249,505368,2,0,L|16:184,3,47.5,2|0|8|0,0:0|0:0|0:0|0:0,0:0:0:0:
89,338,505660,5,2,0:0:0:0:
113,309,505732,1,0,0:0:0:0:
147,293,505805,1,8,0:0:0:0:
185,291,505878,1,0,0:0:0:0:
219,306,505951,5,2,0:0:0:0:
245,332,506024,1,0,0:0:0:0:
277,350,506096,1,8,0:0:0:0:
314,353,506169,1,0,0:0:0:0:
351,344,506242,5,2,0:0:0:0:
378,305,506315,1,0,0:0:0:0:
385,258,506388,1,8,0:0:0:0:
363,213,506461,1,0,0:0:0:0:
320,192,506533,6,0,L|256:202,3,47.5,2|0|8|0,0:0|0:0|0:0|0:0,0:0:0:0:
308,275,506825,5,6,0:0:0:0:
338,296,506897,1,0,0:0:0:0:
375,304,506970,1,8,0:0:0:0:
413,301,507043,1,0,0:0:0:0:
446,283,507116,5,2,0:0:0:0:
440,245,507189,1,0,0:0:0:0:
435,207,507261,1,8,0:0:0:0:
430,169,507334,1,0,0:0:0:0:
421,131,507407,6,0,L|373:71,3,47.5,2|0|8|0,0:0|0:0|0:0|0:0,0:0:0:0:
305,88,507698,2,0,L|257:28,3,47.5,2|0|8|0,0:0|0:0|0:0|0:0,0:0:0:0:
211,126,507990,5,2,0:0:0:0:
173,128,508062,1,0,0:0:0:0:
134,130,508135,1,8,0:0:0:0:
95,132,508208,1,0,0:0:0:0:
56,134,508281,5,2,0:0:0:0:
50,96,508354,1,0,0:0:0:0:
80,72,508427,1,8,0:0:0:0:
117,70,508499,1,0,0:0:0:0:
144,96,508572,5,2,0:0:0:0:
132,142,508645,1,0,0:0:0:0:
121,188,508718,1,8,0:0:0:0:
110,234,508791,1,0,0:0:0:0:
97,279,508863,6,0,L|80:343,3,47.5,2|0|8|0,0:0|0:0|0:0|0:0,0:0:0:0:
190,288,509155,5,6,0:0:0:0:
222,307,509228,1,0,0:0:0:0:
259,310,509300,1,8,0:0:0:0:
294,295,509373,1,0,0:0:0:0:
329,281,509446,5,2,0:0:0:0:
366,272,509519,1,0,0:0:0:0:
404,272,509592,1,8,0:0:0:0:
437,288,509664,1,0,0:0:0:0:
456,320,509737,6,0,L|476:362,3,47.5,2|0|8|0,0:0|0:0|0:0|0:0,0:0:0:0:
473,189,510028,2,0,L|493:231,3,47.5,2|0|8|0,0:0|0:0|0:0|0:0,0:0:0:0:
400,128,510320,5,2,0:0:0:0:
368,149,510393,1,0,0:0:0:0:
331,156,510465,1,8,0:0:0:0:
293,151,510538,1,0,0:0:0:0:
261,130,510611,5,2,0:0:0:0:
269,167,510684,1,0,0:0:0:0:
277,204,510757,1,8,0:0:0:0:
285,240,510829,1,0,0:0:0:0:
293,277,510902,5,2,0:0:0:0:
296,229,510975,1,0,0:0:0:0:
300,181,511048,1,8,0:0:0:0:
304,133,511121,1,0,0:0:0:0:
311,85,511194,6,0,L|318:18,3,47.5,2|0|8|0,0:0|0:0|0:0|0:0,0:0:0:0:
211,67,511485,6,0,P|135:125|37:96,1,190,2|0,0:0|0:0,0:0:0:0:
116,31,511921,1,0,0:0:0:0:
89,204,512067,2,0,B|75:331|75:331|101:266,1,190,2|0,0:0|0:0,0:0:0:0:
139,125,512504,1,0,0:0:0:0:
279,274,512650,5,2,0:0:0:0:
240,126,512795,1,2,0:0:0:0:
225,341,512941,2,0,P|274:361|329:346,1,95,2|0,0:0|0:0,0:0:0:0:
353,220,513232,2,0,L|332:126,1,95,2|0,0:0|0:0,0:0:0:0:
313,43,513523,6,0,L|306:13,5,31.6666666666667
466,67,513815,5,6,0:0:0:0:
441,96,513890,1,0,0:0:0:0:
429,131,513965,1,8,0:0:0:0:
433,168,514040,1,0,0:0:0:0:
455,198,514115,5,2,0:0:0:0:
476,229,514190,1,0,0:0:0:0:
478,266,514265,1,8,0:0:0:0:
461,299,514340,1,0,0:0:0:0:
428,319,514415,5,2,0:0:0:0:
392,331,514490,1,0,0:0:0:0:
354,330,514565,1,8,0:0:0:0:
319,314,514640,1,0,0:0:0:0:
285,294,514715,5,2,0:0:0:0:
248,285,514790,1,0,0:0:0:0:
210,284,514865,1,8,0:0:0:0:
175,299,514940,1,0,0:0:0:0:
149,327,515015,5,2,0:0:0:0:
156,289,515090,1,0,0:0:0:0:
163,251,515165,1,8,0:0:0:0:
171,214,515240,1,0,0:0:0:0:
175,175,515315,5,2,0:0:0:0:
208,192,515390,1,0,0:0:0:0:
245,198,515465,1,8,0:0:0:0:
281,189,515540,1,0,0:0:0:0:
310,164,515615,6,0,L|314:102,3,47.5,2|0|8|0,0:0|0:0|0:0|0:0,0:0:0:0:
244,65,515915,2,0,L|247:14,3,47.5,2|0|8|0,0:0|0:0|0:0|0:0,0:0:0:0:
150,52,516215,5,6,0:0:0:0:
119,75,516290,1,0,0:0:0:0:
81,80,516365,1,8,0:0:0:0:
43,73,516440,1,0,0:0:0:0:
14,47,516515,5,2,0:0:0:0:
17,84,516590,1,0,0:0:0:0:
20,121,516665,1,8,0:0:0:0:
23,159,516740,1,0,0:0:0:0:
27,196,516815,5,2,0:0:0:0:
57,217,516890,1,0,0:0:0:0:
93,225,516965,1,8,0:0:0:0:
131,220,517040,1,0,0:0:0:0:
165,204,517115,5,2,0:0:0:0:
193,178,517190,1,0,0:0:0:0:
230,175,517265,1,8,0:0:0:0:
266,187,517340,1,0,0:0:0:0:
293,213,517415,5,2,0:0:0:0:
279,248,517490,1,0,0:0:0:0:
263,282,517565,1,8,0:0:0:0:
248,316,517640,1,0,0:0:0:0:
233,350,517715,5,2,0:0:0:0:
202,327,517790,1,0,0:0:0:0:
165,316,517865,1,8,0:0:0:0:
126,315,517940,1,0,0:0:0:0:
94,335,518015,6,0,L|69:381,3,47.5,6|0|8|0,0:0|0:0|0:0|0:0,0:0:0:0:
57,217,518315,2,0,L|32:263,3,47.5,6|0|12|0,0:0|0:0|0:0|0:0,0:0:0:0:
124,130,518615,5,6,0:0:0:0:
154,151,518690,1,0,0:0:0:0:
191,159,518765,1,8,0:0:0:0:
228,153,518840,1,0,0:0:0:0:
261,135,518915,5,2,0:0:0:0:
292,114,518990,1,0,0:0:0:0:
330,114,519065,1,8,0:0:0:0:
367,121,519140,1,0,0:0:0:0:
393,148,519215,5,2,0:0:0:0:
387,185,519290,1,0,0:0:0:0:
381,222,519365,1,8,0:0:0:0:
376,259,519440,1,0,0:0:0:0:
370,296,519515,5,2,0:0:0:0:
405,310,519590,1,0,0:0:0:0:
442,307,519665,1,8,0:0:0:0:
474,288,519740,1,0,0:0:0:0:
495,256,519815,5,2,0:0:0:0:
462,237,519890,1,0,0:0:0:0:
424,233,519965,1,8,0:0:0:0:
388,245,520040,1,0,0:0:0:0:
365,275,520115,5,2,0:0:0:0:
335,298,520190,1,0,0:0:0:0:
297,305,520265,1,8,0:0:0:0:
259,297,520340,1,0,0:0:0:0:
235,267,520415,6,0,L|224:210,3,47.5,2|0|8|0,0:0|0:0|0:0|0:0,0:0:0:0:
161,343,520715,2,0,L|150:286,3,47.5,2|0|8|0,0:0|0:0|0:0|0:0,0:0:0:0:
55,320,521015,6,0,L|73:227,1,95,2|8,0:0|0:0,0:0:0:0:
153,124,521309,1,2,0:0:0:0:
225,220,521456,1,0,0:0:0:0:
30,141,521603,6,0,P|29:87|71:39,1,95,2|8,0:0|0:0,0:0:0:0:
316,78,521897,2,0,P|317:132|275:180,1,95,2|8,0:0|0:0,0:0:0:0:
224,58,522191,5,2,0:0:0:0:
224,58,522338,1,2,0:0:0:0:
385,19,522485,2,0,L|447:90,1,95,2|0,0:0|0:0,0:0:0:0:
376,257,522779,2,0,P|375:203|417:155,1,95,2|8,0:0|0:0,0:0:0:0:
454,309,523073,6,0,L|412:348,5,31.6666666666667
344,345,523367,6,0,L|171:319,1,142.5,4|0,0:0|0:0,0:0:0:0:
67,220,523662,2,0,L|240:246,1,142.5,4|0,0:0|0:0,0:0:0:0:
336,170,523956,2,0,L|163:144,1,142.5,4|0,0:0|0:0,0:0:0:0:
91,128,524249,5,2,0:0:0:0:
88,118,524323,1,0,0:0:0:0:
85,108,524397,1,0,0:0:0:0:
83,98,524470,1,0,0:0:0:0:
81,88,524543,5,2,0:0:0:0:
106,59,524617,1,0,0:0:0:0:
143,52,524691,1,0,0:0:0:0:
180,57,524765,1,0,0:0:0:0:
211,77,524838,5,2,0:0:0:0:
246,90,524912,1,0,0:0:0:0:
283,87,524985,1,0,0:0:0:0:
319,77,525059,1,0,0:0:0:0:
344,49,525132,6,0,L|339:0,3,47.5,2|0|0|0,0:0|0:0|0:0|0:0,0:0:0:0:
435,100,525426,2,0,L|430:51,3,47.5,2|0|0|0,0:0|0:0|0:0|0:0,0:0:0:0:
365,152,525719,6,0,P|444:182|508:152,1,142.5,4|0,0:0|0:0,0:0:0:0:
350,254,526015,2,0,P|271:224|207:254,1,142.5,4|0,0:0|0:0,0:0:0:0:
280,310,526309,2,0,P|359:340|423:310,1,142.5,4|0,0:0|0:0,0:0:0:0:
480,263,526602,6,0,L|498:337,1,47.5,2|0,0:0|0:0,0:0:0:0:
483,116,526750,2,0,L|494:162,1,47.5,2|0,0:0|0:0,0:0:0:0:
400,54,526896,5,2,0:0:0:0:
374,75,526969,1,0,0:0:0:0:
342,85,527043,1,0,0:0:0:0:
308,88,527117,1,0,0:0:0:0:
277,75,527190,5,2,0:0:0:0:
250,54,527264,1,0,0:0:0:0:
217,47,527337,1,0,0:0:0:0:
183,51,527411,1,0,0:0:0:0:
154,67,527484,6,0,L|127:128,3,47.5,2|0|0|0,0:0|0:0|0:0|0:0,0:0:0:0:
45,134,527778,2,0,L|18:195,3,47.5,2|0|0|0,0:0|0:0|0:0|0:0,0:0:0:0:
113,206,528072,6,0,L|136:359,1,142.5,4|0,0:0|0:0,0:0:0:0:
246,384,528367,2,0,L|222:230,1,142.5,4|0,0:0|0:0,0:0:0:0:
318,177,528661,2,0,L|341:330,1,142.5,4|0,0:0|0:0,0:0:0:0:
430,286,528955,5,2,0:0:0:0:
432,295,529028,1,0,0:0:0:0:
434,304,529102,1,0,0:0:0:0:
437,312,529175,1,0,0:0:0:0:
440,321,529249,5,2,0:0:0:0:
467,302,529322,1,0,0:0:0:0:
479,270,529396,1,0,0:0:0:0:
472,237,529469,1,0,0:0:0:0:
446,214,529543,5,2,0:0:0:0:
422,190,529617,1,0,0:0:0:0:
415,157,529690,1,0,0:0:0:0:
424,124,529764,1,0,0:0:0:0:
448,101,529837,6,0,L|497:76,3,47.5,2|0|0|0,0:0|0:0|0:0|0:0,0:0:0:0:
326,69,530131,2,0,L|375:44,3,47.5,2|0|0|0,0:0|0:0|0:0|0:0,0:0:0:0:
298,153,530425,6,0,P|243:110|242:35,1,142.5,4|0,0:0|0:0,0:0:0:0:
207,202,530719,2,0,P|261:244|263:320,1,142.5,4|0,0:0|0:0,0:0:0:0:
185,289,531014,2,0,P|130:246|129:171,1,142.5,4|0,0:0|0:0,0:0:0:0:
133,84,531308,6,0,L|93:108,1,47.5,2|0,0:0|0:0,0:0:0:0:
92,244,531455,2,0,L|52:268,1,47.5,2|0,0:0|0:0,0:0:0:0:
207,202,531602,5,2,0:0:0:0:
237,189,531675,1,0,0:0:0:0:
269,183,531749,1,0,0:0:0:0:
301,188,531822,1,0,0:0:0:0:
329,204,531896,5,2,0:0:0:0:
357,220,531969,1,0,0:0:0:0:
389,226,532043,1,0,0:0:0:0:
422,223,532117,1,0,0:0:0:0:
449,204,532190,6,0,L|480:159,3,47.5,2|0|0|0,0:0|0:0|0:0|0:0,0:0:0:0:
473,296,532484,5,2,0:0:0:0:
471,305,532558,1,0,0:0:0:0:
469,314,532631,1,0,0:0:0:0:
467,323,532705,1,0,0:0:0:0:
466,332,532778,6,0,L|352:355,1,95,2|8,0:0|0:0,0:0:0:0:
135,293,533073,2,0,L|249:270,1,95,2|8,0:0|0:0,0:0:0:0:
402,170,533369,5,2,0:0:0:0:
314,255,533516,1,10,0:0:0:0:
252,126,533664,2,0,B|225:51|225:51|267:61,1,95,2|8,0:0|0:0,0:0:0:0:
472,117,533960,6,0,P|449:153|372:162,1,95,2|8,0:0|0:0,0:0:0:0:
356,62,534255,1,2,0:0:0:0:
356,62,534329,1,0,0:0:0:0:
356,62,534403,1,8,0:0:0:0:
197,198,534551,6,0,L|317:221,1,95,2|8,0:0|0:0,0:0:0:0:
403,366,534846,2,0,L|283:343,1,95,2|8,0:0|0:0,0:0:0:0:
127,269,535142,6,0,L|104:169,1,95,2|8,0:0|0:0,0:0:0:0:
340,67,535438,2,0,L|363:167,1,95,2|8,0:0|0:0,0:0:0:0:
381,269,535733,5,2,0:0:0:0:
381,269,535807,1,0,0:0:0:0:
381,269,535881,1,10,0:0:0:0:
237,310,536029,2,0,P|225:256|250:202,1,95,2|8,0:0|0:0,0:0:0:0:
473,245,536324,6,0,L|362:273,1,95,2|8,0:0|0:0,0:0:0:0:
478,132,536620,1,2,0:0:0:0:
478,132,536694,1,0,0:0:0:0:
478,132,536768,1,8,0:0:0:0:
379,71,536915,6,0,P|404:33|479:21,1,95,2|8,0:0|0:0,0:0:0:0:
318,201,537211,2,0,L|294:108,1,95,2|8,0:0|0:0,0:0:0:0:
191,68,537507,5,2,0:0:0:0:
147,170,537654,1,8,0:0:0:0:
105,29,537802,1,2,0:0:0:0:
105,29,537876,1,0,0:0:0:0:
105,29,537950,1,10,0:0:0:0:
62,201,538098,6,0,P|113:253|164:251,1,95,2|8,0:0|0:0,0:0:0:0:
318,201,538393,1,2,0:0:0:0:
318,201,538467,1,0,0:0:0:0:
318,201,538541,1,8,0:0:0:0:
226,377,538689,6,0,L|202:284,1,95,2|8,0:0|0:0,0:0:0:0:
93,348,538984,1,2,0:0:0:0:
93,348,539058,1,0,0:0:0:0:
93,348,539132,1,8,0:0:0:0:
301,297,539280,6,0,P|355:296|406:349,1,95,2|8,0:0|0:0,0:0:0:0:
451,218,539576,2,0,P|412:180|413:106,1,95,2|8,0:0|0:0,0:0:0:0:
270,20,539871,6,0,L|280:114,1,95,4|0,0:0|0:0,0:0:0:0:
262,46,540462,2,0,L|273:141,1,95,4|0,0:0|0:0,0:0:0:0:
254,74,541053,5,4,0:0:0:0:
343,314,541201,1,4,0:0:0:0:
441,45,541349,2,0,P|385:30|324:54,1,95,4|0,0:0|0:0,0:0:0:0:
481,203,541644,2,0,L|491:87,1,95,4|0,0:0|0:0,0:0:0:0:
473,279,541940,6,0,L|469:320,6,23.75,4|0|0|0|0|0|0,0:0|0:0|0:0|0:0|0:0|0:0|0:0,0:0:0:0:
390,230,542236,5,4,0:0:0:0:
364,258,542310,1,0,0:0:0:0:
329,273,542385,1,8,0:0:0:0:
291,279,542459,1,0,0:0:0:0:
253,275,542534,1,0,0:0:0:0:
224,249,542609,1,0,0:0:0:0:
187,239,542683,1,8,0:0:0:0:
149,245,542758,1,0,0:0:0:0:
120,270,542833,5,0,0:0:0:0:
83,277,542907,1,0,0:0:0:0:
45,269,542982,1,8,0:0:0:0:
24,237,543056,1,0,0:0:0:0:
19,199,543131,1,0,0:0:0:0:
39,166,543206,1,0,0:0:0:0:
69,144,543280,1,8,0:0:0:0:
107,145,543355,1,0,0:0:0:0:
138,166,543430,6,0,L|157:225,7,47.5,4|0|8|0|0|0|8|0,0:0|0:0|0:0|0:0|0:0|0:0|0:0|0:0,0:0:0:0:
145,25,544027,2,0,L|164:84,7,47.5,4|0|8|0|0|0|8|0,0:0|0:0|0:0|0:0|0:0|0:0|0:0|0:0,0:0:0:0:
229,136,544624,5,4,0:0:0:0:
263,150,544698,1,0,0:0:0:0:
301,152,544773,1,8,0:0:0:0:
337,141,544847,1,0,0:0:0:0:
365,115,544922,1,0,0:0:0:0:
402,110,544997,1,0,0:0:0:0:
438,118,545071,1,8,0:0:0:0:
467,141,545146,1,0,0:0:0:0:
480,176,545221,5,0,0:0:0:0:
472,212,545295,1,0,0:0:0:0:
440,233,545370,1,8,0:0:0:0:
403,240,545444,1,0,0:0:0:0:
374,265,545519,1,0,0:0:0:0:
364,301,545594,1,0,0:0:0:0:
368,338,545668,1,8,0:0:0:0:
392,367,545743,1,0,0:0:0:0:
429,375,545818,5,4,0:0:0:0:
403,347,545892,1,0,0:0:0:0:
368,338,545967,1,8,0:0:0:0:
330,338,546041,1,0,0:0:0:0:
294,353,546116,1,0,0:0:0:0:
260,371,546191,1,0,0:0:0:0:
222,372,546265,1,8,0:0:0:0:
183,368,546340,1,0,0:0:0:0:
149,348,546415,5,12,0:0:0:0:
136,302,546489,1,8,0:0:0:0:
123,255,546564,1,8,0:0:0:0:
111,209,546638,1,8,0:0:0:0:
99,162,546713,5,4,0:0:0:0:
98,166,546788,1,0,0:0:0:0:
97,170,546862,1,8,0:0:0:0:
96,174,546937,1,0,0:0:0:0:
95,178,547012,5,4,0:0:0:0:
112,211,547086,1,0,0:0:0:0:
145,228,547161,1,8,0:0:0:0:
183,227,547236,1,0,0:0:0:0:
214,206,547310,1,0,0:0:0:0:
247,188,547385,1,0,0:0:0:0:
284,191,547459,1,8,0:0:0:0:
314,214,547534,1,0,0:0:0:0:
340,241,547609,5,0,0:0:0:0:
372,259,547683,1,0,0:0:0:0:
410,255,547758,1,8,0:0:0:0:
443,236,547833,1,0,0:0:0:0:
450,199,547907,1,0,0:0:0:0:
434,164,547982,1,0,0:0:0:0:
406,138,548056,1,8,0:0:0:0:
398,100,548131,1,0,0:0:0:0:
413,65,548206,6,0,L|464:50,7,47.5,4|0|8|0|0|0|8|0,0:0|0:0|0:0|0:0|0:0|0:0|0:0|0:0,0:0:0:0:
274,44,548803,2,0,L|325:29,7,47.5,4|0|8|0|0|0|8|0,0:0|0:0|0:0|0:0|0:0|0:0|0:0|0:0,0:0:0:0:
169,67,549400,5,4,0:0:0:0:
132,76,549474,1,0,0:0:0:0:
100,97,549549,1,8,0:0:0:0:
87,133,549624,1,0,0:0:0:0:
89,170,549698,1,0,0:0:0:0:
111,200,549773,1,0,0:0:0:0:
142,220,549847,1,8,0:0:0:0:
180,217,549922,1,0,0:0:0:0:
214,234,549997,5,0,0:0:0:0:
233,266,550071,1,0,0:0:0:0:
243,302,550146,1,8,0:0:0:0:
234,339,550221,1,0,0:0:0:0:
202,359,550295,1,0,0:0:0:0:
164,366,550370,1,0,0:0:0:0:
126,362,550444,1,8,0:0:0:0:
95,338,550519,1,0,0:0:0:0:
82,302,550594,5,4,0:0:0:0:
112,280,550668,1,0,0:0:0:0:
149,273,550743,1,8,0:0:0:0:
186,279,550818,1,0,0:0:0:0:
219,296,550892,1,0,0:0:0:0:
252,313,550967,1,0,0:0:0:0:
288,320,551041,1,8,0:0:0:0:
325,315,551116,1,0,0:0:0:0:
354,291,551191,5,4,0:0:0:0:
378,262,551265,1,0,0:0:0:0:
390,226,551340,1,8,0:0:0:0:
385,188,551415,1,0,0:0:0:0:
364,156,551489,1,0,0:0:0:0:
334,131,551564,1,0,0:0:0:0:
296,126,551638,1,8,0:0:0:0:
259,135,551713,1,0,0:0:0:0:
228,157,551788,5,4,0:0:0:0:
245,190,551863,1,0,0:0:0:0:
277,209,551938,1,8,0:0:0:0:
315,209,552014,1,0,0:0:0:0:
350,196,552089,1,0,0:0:0:0:
374,167,552164,1,0,0:0:0:0:
385,130,552240,1,8,0:0:0:0:
379,92,552315,1,0,0:0:0:0:
353,63,552391,5,0,0:0:0:0:
317,50,552466,1,0,0:0:0:0:
279,48,552541,1,8,0:0:0:0:
244,64,552617,1,0,0:0:0:0:
216,89,552692,1,0,0:0:0:0:
183,108,552767,1,0,0:0:0:0:
145,116,552843,1,8,0:0:0:0:
108,106,552918,1,0,0:0:0:0:
87,73,552994,6,0,L|76:23,7,47.5,4|0|8|0|0|0|8|0,0:0|0:0|0:0|0:0|0:0|0:0|0:0|0:0,0:0:0:0:
39,181,553597,2,0,L|28:131,7,47.5,4|0|8|0|0|0|8|0,0:0|0:0|0:0|0:0|0:0|0:0|0:0|0:0,0:0:0:0:
42,288,554200,5,4,0:0:0:0:
69,261,554275,1,0,0:0:0:0:
104,246,554350,1,8,0:0:0:0:
142,246,554426,1,0,0:0:0:0:
176,262,554501,1,0,0:0:0:0:
198,292,554576,1,0,0:0:0:0:
221,322,554652,1,8,0:0:0:0:
253,341,554727,1,0,0:0:0:0:
290,346,554803,5,0,0:0:0:0:
327,340,554878,1,0,0:0:0:0:
358,318,554953,1,8,0:0:0:0:
379,286,555029,1,0,0:0:0:0:
384,248,555104,1,0,0:0:0:0:
369,212,555179,1,0,0:0:0:0:
337,190,555255,1,8,0:0:0:0:
299,188,555330,1,0,0:0:0:0:
261,197,555406,5,4,0:0:0:0:
271,233,555481,1,0,0:0:0:0:
299,257,555556,1,8,0:0:0:0:
334,272,555632,1,0,0:0:0:0:
371,276,555707,1,0,0:0:0:0:
407,265,555782,1,0,0:0:0:0:
433,237,555858,1,8,0:0:0:0:
443,200,555933,1,0,0:0:0:0:
440,161,556009,5,4,0:0:0:0:
422,127,556084,1,0,0:0:0:0:
388,109,556159,1,8,0:0:0:0:
349,111,556235,1,0,0:0:0:0:
316,130,556310,1,0,0:0:0:0:
278,130,556385,1,0,0:0:0:0:
247,107,556461,1,8,0:0:0:0:
237,70,556536,1,0,0:0:0:0:
249,33,556612,5,4,0:0:0:0:
285,25,556687,1,0,0:0:0:0:
321,33,556762,1,8,0:0:0:0:
340,66,556838,1,0,0:0:0:0:
345,103,556913,1,0,0:0:0:0:
327,137,556989,1,0,0:0:0:0:
296,158,557064,1,8,0:0:0:0:
262,174,557139,1,0,0:0:0:0:
243,207,557215,5,0,0:0:0:0:
239,244,557290,1,0,0:0:0:0:
252,279,557365,1,8,0:0:0:0:
280,305,557441,1,0,0:0:0:0:
316,315,557516,1,0,0:0:0:0:
354,316,557592,1,0,0:0:0:0:
386,297,557667,1,8,0:0:0:0:
406,264,557742,1,0,0:0:0:0:
411,226,557818,6,0,L|384:170,7,47.5,4|0|8|0|0|0|8|0,0:0|0:0|0:0|0:0|0:0|0:0|0:0|0:0,0:0:0:0:
464,135,558421,2,0,L|437:79,7,47.5,4|0|8|0|0|0|8|0,0:0|0:0|0:0|0:0|0:0|0:0|0:0|0:0,0:0:0:0:
348,43,559024,5,4,0:0:0:0:
320,68,559099,1,0,0:0:0:0:
284,80,559174,1,8,0:0:0:0:
245,77,559250,1,0,0:0:0:0:
212,56,559325,1,0,0:0:0:0:
181,32,559401,1,0,0:0:0:0:
143,31,559476,1,8,0:0:0:0:
109,48,559551,1,0,0:0:0:0:
82,75,559627,5,0,0:0:0:0:
74,111,559702,1,0,0:0:0:0:
78,148,559777,1,8,0:0:0:0:
102,177,559853,1,0,0:0:0:0:
137,191,559928,1,0,0:0:0:0:
171,207,560004,1,0,0:0:0:0:
185,242,560079,1,8,0:0:0:0:
188,279,560154,1,0,0:0:0:0:
176,315,560230,5,4,0:0:0:0:
146,338,560305,1,0,0:0:0:0:
110,350,560380,1,8,0:0:0:0:
72,341,560456,1,0,0:0:0:0:
65,324,560531,5,8,0:0:0:0:
59,303,560607,1,8,0:0:0:0:
53,281,560682,1,8,0:0:0:0:
48,260,560757,1,8,0:0:0:0:
39,237,560833,5,12,0:3:0:0:
33,250,560908,1,8,3:0:0:0:
26,262,560983,1,8,3:0:0:0:
22,275,561059,1,8,3:0:0:0:
17,288,561134,6,4,L|7:229,3,47.5,4|4|12|4,3:0|3:0|3:0|3:0,3:0:0:0:
42,135,561436,6,0,P|53:83|32:24,1,95,4|8,0:0|0:0,0:0:0:0:
198,116,561733,2,0,P|187:168|208:227,1,95,0|8,0:0|0:0,0:0:0:0:
364,155,562031,5,0,0:0:0:0:
364,155,562105,1,0,0:0:0:0:
364,155,562180,1,8,0:0:0:0:
347,30,562328,1,0,0:0:0:0:
347,30,562403,1,0,0:0:0:0:
347,30,562477,1,8,0:0:0:0:
163,219,562626,6,0,L|260:189,1,95,0|8,0:0|0:0,0:0:0:0:
464,130,562924,1,0,0:0:0:0:
464,130,562998,1,0,0:0:0:0:
464,130,563072,1,8,0:0:0:0:
429,285,563221,5,0,0:0:0:0:
429,285,563370,1,8,0:0:0:0:
487,44,563519,1,0,0:0:0:0:
487,44,563668,1,8,0:0:0:0:
491,219,563816,6,0,L|394:189,1,95,0|8,0:0|0:0,0:0:0:0:
234,280,564114,2,0,L|331:310,1,95,0|8,0:0|0:0,0:0:0:0:
297,162,564412,5,0,0:0:0:0:
297,162,564486,1,0,0:0:0:0:
297,162,564561,1,8,0:0:0:0:
181,215,564709,2,0,P|148:269|171:333,1,95,0|8,0:0|0:0,0:0:0:0:
414,336,565007,5,0,0:0:0:0:
414,336,565081,1,0,0:0:0:0:
414,336,565156,1,8,0:0:0:0:
480,229,565305,2,0,L|464:120,1,95,0|8,0:0|0:0,0:0:0:0:
372,63,565602,5,0,0:0:0:0:
372,63,565677,1,0,0:0:0:0:
372,63,565751,1,8,0:0:0:0:
307,155,565900,2,0,L|321:249,1,95,0|8,0:0|0:0,0:0:0:0:
156,82,566197,6,0,P|204:88|252:71,1,95,0|8,0:0|0:0,0:0:0:0:
412,240,566495,2,0,P|364:234|316:251,1,95,0|8,0:0|0:0,0:0:0:0:
221,331,566793,5,0,0:0:0:0:
221,331,566867,1,0,0:0:0:0:
221,331,566941,1,8,0:0:0:0:
117,255,567090,2,0,L|100:140,1,95,0|8,0:0|0:0,0:0:0:0:
247,73,567388,6,0,L|264:188,1,95,0|8,0:0|0:0,0:0:0:0:
347,34,567686,1,0,0:0:0:0:
347,34,567760,1,0,0:0:0:0:
347,34,567834,1,8,0:0:0:0:
412,240,567983,6,0,L|425:146,1,95,0|8,0:0|0:0,0:0:0:0:
449,55,568281,1,0,0:0:0:0:
449,55,568430,1,8,0:0:0:0:
499,256,568578,6,0,P|453:262|400:225,1,95,0|8,0:0|0:0,0:0:0:0:
241,134,568870,2,0,L|256:263,1,95,0|8,0:0|0:0,0:0:0:0:
332,355,569163,5,0,0:0:0:0:
332,355,569236,1,0,0:0:0:0:
332,355,569309,1,8,0:0:0:0:
176,300,569456,2,0,L|161:171,1,95,0|8,0:0|0:0,0:0:0:0:
159,88,569748,5,0,0:0:0:0:
159,88,569821,1,0,0:0:0:0:
159,88,569895,1,8,0:0:0:0:
57,103,570041,5,8,0:0:0:0:
59,131,570114,1,8,0:0:0:0:
61,159,570187,1,8,0:0:0:0:
63,187,570260,1,8,0:0:0:0:
84,245,570334,6,0,L|99:179,3,47.5,4|0|0|0,0:0|0:0|0:0|0:0,0:0:0:0:
45,300,570626,2,0,L|30:234,3,47.5,4|0|0|0,0:0|0:0|0:0|0:0,0:0:0:0:
108,356,570919,6,0,P|144:329|213:335,1,95,0|8,0:0|0:0,0:0:0:0:
429,333,571212,2,0,P|393:360|324:354,1,95,0|8,0:0|0:0,0:0:0:0:
263,245,571504,5,0,0:0:0:0:
344,362,571651,1,8,0:0:0:0:
389,220,571797,2,0,L|373:124,1,95,0|8,0:0|0:0,0:0:0:0:
151,89,572090,6,0,L|167:185,1,95,0|8,0:0|0:0,0:0:0:0:
245,40,572382,1,0,0:0:0:0:
245,40,572456,1,0,0:0:0:0:
245,40,572529,1,8,0:0:0:0:
141,107,572675,6,0,L|157:203,1,95,0|8,0:0|0:0,0:0:0:0:
180,293,572968,1,0,0:0:0:0:
180,293,573041,1,0,0:0:0:0:
180,293,573114,1,8,0:0:0:0:
63,172,573260,6,0,L|47:76,1,95,0|8,0:0|0:0,0:0:0:0:
259,144,573553,2,0,L|275:240,1,95,0|8,0:0|0:0,0:0:0:0:
294,334,573846,5,0,0:0:0:0:
294,334,573919,1,0,0:0:0:0:
294,334,573992,1,8,0:0:0:0:
156,200,574138,1,0,0:0:0:0:
372,230,574285,1,8,0:0:0:0:
192,303,574431,6,0,L|184:355,2,47.5,0|0|8,0:0|0:0|0:0,0:0:0:0:
59,189,574724,2,0,L|51:241,2,47.5,0|0|8,0:0|0:0|0:0,0:0:0:0:
292,110,575017,2,0,L|284:162,2,47.5,0|0|8,0:0|0:0|0:0,0:0:0:0:
404,74,575309,5,0,0:0:0:0:
452,270,575456,1,8,0:0:0:0:
497,150,575602,6,0,L|385:174,1,95,0|8,0:0|0:0,0:0:0:0:
115,129,575895,2,0,L|227:105,1,95,0|8,0:0|0:0,0:0:0:0:
200,207,576187,5,8,0:0:0:0:
191,243,576260,1,8,0:0:0:0:
182,280,576334,1,8,0:0:0:0:
174,317,576407,1,8,0:0:0:0:
165,353,576480,5,4,0:0:0:0:
169,350,576553,1,0,0:0:0:0:
173,347,576626,1,0,0:0:0:0:
177,344,576699,1,0,0:0:0:0:
178,339,576773,6,0,P|134:332|57:352,2,95,0|8|0,0:0|0:0|0:0,0:0:0:0:
311,276,577212,1,8,0:0:0:0:
438,334,577358,2,0,L|450:381,2,47.5,0|0|8,0:0|0:0|0:0,0:0:0:0:
457,162,577651,5,4,3:0:0:0:
456,143,577943,6,0,L|358:117,1,95,0|8,0:0|0:0,0:0:0:0:
496,255,578236,1,0,0:0:0:0:
496,255,578382,1,8,0:0:0:0:
212,221,578529,6,0,L|303:196,1,95,0|8,0:0|0:0,0:0:0:0:
292,345,578821,1,0,0:0:0:0:
292,345,578895,1,0,0:0:0:0:
292,345,578968,1,8,0:0:0:0:
144,273,579114,6,0,P|127:214|146:172,1,95,0|8,0:0|0:0,0:0:0:0:
307,122,579407,2,0,L|382:141,2,47.5,0|0|8,0:0|0:0|0:0,0:0:0:0:
348,269,579699,2,0,L|423:288,2,47.5,0|0|8,0:0|0:0|0:0,0:0:0:0:
440,77,579992,2,0,L|515:96,2,47.5,0|0|8,0:0|0:0|0:0,0:0:0:0:
357,54,580285,5,4,0:0:0:0:
238,355,580578,1,4,0:0:0:0:
204,116,580870,1,4,0:0:0:0:
238,355,581163,1,4,0:0:0:0:
122,279,581456,5,4,0:0:0:0:
372,221,581602,1,4,0:0:0:0:
204,116,581748,1,4,0:0:0:0:
455,272,582041,1,4,0:0:0:0:
464,168,582334,5,8,0:0:0:0:
455,272,582626,5,4,0:0:0:0:
107,145,582919,1,4,0:0:0:0:
477,64,583212,1,4,0:0:0:0:
358,320,583504,1,4,0:0:0:0:
288,156,583797,5,4,0:0:0:0:
208,277,583943,1,4,0:0:0:0:
173,41,584090,1,4,0:0:0:0:
222,374,584382,1,4,0:0:0:0:
87,287,584968,5,0,0:0:0:0:
76,265,585042,1,0,0:0:0:0:
71,241,585116,1,8,0:0:0:0:
76,217,585190,1,0,0:0:0:0:
90,198,585264,5,0,0:0:0:0:
109,185,585338,1,0,0:0:0:0:
131,179,585412,1,8,0:0:0:0:
154,182,585486,1,0,0:0:0:0:
173,195,585560,6,0,L|184:262,3,47.5,0|0|8|0,0:0|0:0|0:0|0:0,0:0:0:0:
233,106,585856,2,0,L|244:173,3,47.5,0|0|8|0,0:0|0:0|0:0|0:0,0:0:0:0:
309,212,586153,5,0,0:0:0:0:
328,225,586227,1,0,0:0:0:0:
351,230,586301,1,8,0:0:0:0:
374,228,586375,1,0,0:0:0:0:
396,221,586449,5,0,0:0:0:0:
415,207,586523,1,0,0:0:0:0:
431,189,586597,1,8,0:0:0:0:
436,165,586671,1,0,0:0:0:0:
433,141,586745,6,0,L|371:76,3,47.5,0|0|8|0,0:0|0:0|0:0|0:0,0:0:0:0:
457,43,587042,2,0,L|395:-22,3,47.5,0|0|8|0,0:0|0:0|0:0|0:0,0:0:0:0:
317,41,587338,5,0,0:0:0:0:
305,61,587412,1,0,0:0:0:0:
288,77,587486,1,8,0:0:0:0:
268,90,587560,1,0,0:0:0:0:
244,95,587634,5,0,0:0:0:0:
220,93,587708,1,0,0:0:0:0:
196,87,587782,1,8,0:0:0:0:
174,76,587856,1,0,0:0:0:0:
155,60,587930,5,0,0:0:0:0:
131,53,588005,1,0,0:0:0:0:
107,53,588079,1,8,0:0:0:0:
84,59,588153,1,0,0:0:0:0:
67,75,588227,6,0,L|51:160,3,47.5,8|0|8|0,0:0|0:0|0:0|0:0,0:0:0:0:
139,172,588523,5,8,0:0:0:0:
140,186,588597,1,8,0:0:0:0:
141,200,588671,1,8,0:0:0:0:
142,214,588745,1,8,0:0:0:0:
177,243,588819,5,8,0:0:0:0:
178,229,588893,1,0,0:0:0:0:
179,215,588967,1,8,0:0:0:0:
180,201,589041,1,0,0:0:0:0:
124,233,589116,6,0,L|153:304,3,47.5,0|0|8|0,0:0|0:0|0:0|0:0,0:0:0:0:
246,144,589412,2,8,L|263:187,3,47.5
322,79,589708,5,0,0:0:0:0:
348,68,589782,1,0,0:0:0:0:
376,68,589856,1,8,0:0:0:0:
402,77,589930,1,0,0:0:0:0:
424,95,590005,5,0,0:0:0:0:
431,122,590079,1,0,0:0:0:0:
432,150,590153,1,8,0:0:0:0:
421,176,590227,1,0,0:0:0:0:
402,197,590301,6,0,L|323:210,3,47.5,0|0|8|0,0:0|0:0|0:0|0:0,0:0:0:0:
479,272,590597,2,0,L|400:285,3,47.5,0|0|8|0,0:0|0:0|0:0|0:0,0:0:0:0:
343,309,590893,5,0,0:0:0:0:
324,287,590967,1,0,0:0:0:0:
301,271,591042,1,8,0:0:0:0:
273,263,591115,1,0,0:0:0:0:
245,264,591189,5,0,0:0:0:0:
218,272,591263,1,0,0:0:0:0:
195,289,591338,1,8,0:0:0:0:
177,311,591411,1,0,0:0:0:0:
173,339,591486,6,0,L|201:377,3,47.5,0|0|8|0,0:0|0:0|0:0|0:0,0:0:0:0:
49,305,591782,2,0,L|77:343,3,47.5,0|0|8|0,0:0|0:0|0:0|0:0,0:0:0:0:
98,221,592079,5,0,0:0:0:0:
124,210,592153,1,0,0:0:0:0:
143,189,592227,1,8,0:0:0:0:
155,163,592301,1,0,0:0:0:0:
153,134,592375,5,0,0:0:0:0:
139,108,592449,1,0,0:0:0:0:
114,93,592523,1,8,0:0:0:0:
91,75,592597,1,0,0:0:0:0:
87,46,592671,5,0,0:0:0:0:
100,20,592745,1,0,0:0:0:0:
125,7,592819,1,8,0:0:0:0:
152,14,592893,1,0,0:0:0:0:
173,33,592968,6,0,L|167:91,3,47.5,0|0|8|0,0:0|0:0|0:0|0:0,0:0:0:0:
258,77,593264,5,0,0:0:0:0:
280,94,593338,1,0,0:0:0:0:
306,103,593412,1,8,0:0:0:0:
334,104,593486,1,0,0:0:0:0:
362,99,593560,5,0,0:0:0:0:
385,82,593634,1,0,0:0:0:0:
412,76,593708,1,8,0:0:0:0:
440,79,593782,1,0,0:0:0:0:
464,93,593856,6,0,L|491:152,3,47.5,4|0|8|0,0:0|0:0|0:0|0:0,0:0:0:0:
423,200,594153,2,0,L|450:259,3,47.5,4|0|8|0,0:0|0:0|0:0|0:0,0:0:0:0:
386,344,594449,5,2,0:0:0:0:
357,312,594523,1,0,0:0:0:0:
315,303,594597,1,8,0:0:0:0:
273,310,594671,1,0,0:0:0:0:
239,337,594746,5,2,0:0:0:0:
202,358,594820,1,0,0:0:0:0:
159,361,594894,1,8,0:0:0:0:
117,351,594968,1,0,0:0:0:0:
85,321,595043,6,0,L|61:250,3,47.5,2|0|8|0,0:0|0:0|0:0|0:0,0:0:0:0:
165,254,595340,2,0,L|141:183,3,47.5,2|0|8|0,0:0|0:0|0:0|0:0,0:0:0:0:
12,132,595637,5,2,0:0:0:0:
51,148,595711,1,0,0:0:0:0:
93,147,595785,1,8,0:0:0:0:
126,120,595859,1,0,0:0:0:0:
149,84,595934,5,2,0:0:0:0:
175,50,596008,1,0,0:0:0:0:
215,37,596082,1,8,0:0:0:0:
256,45,596156,1,0,0:0:0:0:
289,72,596231,5,2,0:0:0:0:
282,118,596305,1,0,0:0:0:0:
275,164,596379,1,8,0:0:0:0:
269,210,596453,1,0,0:0:0:0:
262,257,596528,6,0,L|252:325,3,47.5,2|0|8|0,0:0|0:0|0:0|0:0,0:0:0:0:
423,353,596825,5,2,0:0:0:0:
390,325,596899,1,0,0:0:0:0:
370,287,596973,1,8,0:0:0:0:
378,244,597048,1,0,0:0:0:0:
412,219,597122,5,2,0:0:0:0:
444,191,597196,1,0,0:0:0:0:
456,150,597270,1,8,0:0:0:0:
450,107,597345,1,0,0:0:0:0:
423,73,597419,6,0,L|355:63,3,47.5,2|0|8|0,0:0|0:0|0:0|0:0,0:0:0:0:
348,145,597716,2,0,L|280:135,3,47.5,2|0|8|0,0:0|0:0|0:0|0:0,0:0:0:0:
279,44,598013,5,2,0:0:0:0:
257,80,598087,1,0,0:0:0:0:
226,110,598161,1,8,0:0:0:0:
185,125,598236,1,0,0:0:0:0:
142,130,598310,5,2,0:0:0:0:
99,123,598384,1,0,0:0:0:0:
64,98,598458,1,8,0:0:0:0:
36,64,598533,1,0,0:0:0:0:
33,21,598607,5,2,0:0:0:0:
37,68,598681,1,0,0:0:0:0:
41,115,598755,1,8,0:0:0:0:
45,162,598830,1,0,0:0:0:0:
51,208,598904,6,0,L|59:287,3,47.5,2|0|8|0,0:0|0:0|0:0|0:0,0:0:0:0:
124,343,599201,5,2,0:0:0:0:
156,314,599275,1,0,0:0:0:0:
195,297,599349,1,8,0:0:0:0:
238,298,599424,1,0,0:0:0:0:
274,319,599498,5,2,0:0:0:0:
305,347,599572,1,0,0:0:0:0:
346,357,599647,1,8,0:0:0:0:
387,349,599721,1,0,0:0:0:0:
418,320,599795,6,0,L|444:262,3,47.5,2|0|8|0,0:0|0:0|0:0|0:0,0:0:0:0:
391,186,600092,2,0,L|417:128,3,47.5,2|0|8|0,0:0|0:0|0:0|0:0,0:0:0:0:
302,34,600389,5,2,0:0:0:0:
326,68,600463,1,0,0:0:0:0:
331,110,600538,1,8,0:0:0:0:
317,150,600612,1,0,0:0:0:0:
280,172,600686,5,2,0:0:0:0:
239,184,600760,1,0,0:0:0:0:
222,224,600835,1,8,0:0:0:0:
226,266,600909,1,0,0:0:0:0:
249,301,600983,5,2,0:0:0:0:
295,290,601057,1,0,0:0:0:0:
341,276,601132,1,8,0:0:0:0:
386,262,601206,1,0,0:0:0:0:
431,248,601280,6,0,L|498:232,3,47.5,2|0|8|0,0:0|0:0|0:0|0:0,0:0:0:0:
453,27,601577,6,0,L|429:143,1,104.500003189087,4|0,0:0|0:0,0:0:0:0:
433,51,602171,6,0,L|411:153,1,104.500003189087,4|0,0:0|0:0,0:0:0:0:
411,74,602765,6,0,L|389:176,1,104.500003189087,4|4,0:0|0:0,0:0:0:0:
435,337,603062,1,4,0:0:0:0:
288,104,603359,1,4,0:0:0:0:
482,239,603656,6,0,L|479:193,5,34.8333343963623,8|0|0|0|0|0,0:0|0:0|0:0|0:0|0:0|0:0,0:0:0:0:
435,337,603953,5,2,0:0:0:0:
397,306,604027,1,0,0:0:0:0:
349,307,604102,1,8,0:0:0:0:
309,332,604176,1,0,0:0:0:0:
280,369,604251,5,2,0:0:0:0:
232,378,604326,1,0,0:0:0:0:
185,369,604399,1,8,0:0:0:0:
149,337,604475,1,0,0:0:0:0:
137,290,604550,5,2,0:0:0:0:
156,246,604624,1,0,0:0:0:0:
198,224,604699,1,8,0:0:0:0:
237,198,604773,1,0,0:0:0:0:
254,153,604848,5,2,0:0:0:0:
252,105,604923,1,0,0:0:0:0:
226,64,604997,1,8,0:0:0:0:
181,49,605072,1,0,0:0:0:0:
133,56,605147,5,2,0:0:0:0:
115,100,605221,1,0,0:0:0:0:
97,144,605296,1,8,0:0:0:0:
80,188,605370,1,0,0:0:0:0:
66,234,605445,5,2,0:0:0:0:
81,278,605520,1,0,0:0:0:0:
119,306,605594,1,8,0:0:0:0:
166,310,605669,1,0,0:0:0:0:
212,297,605744,6,0,L|259:249,3,47.5,2|0|8|0,0:0|0:0|0:0|0:0,0:0:0:0:
167,216,606042,2,0,L|200:182,3,47.5,2|0|8|0,0:0|0:0|0:0|0:0,0:0:0:0:
322,341,606341,5,2,0:0:0:0:
354,306,606415,1,0,0:0:0:0:
399,294,606490,1,8,0:0:0:0:
443,310,606564,1,0,0:0:0:0:
478,342,606639,5,2,0:0:0:0:
430,338,606714,1,0,0:0:0:0:
403,298,606788,1,8,0:0:0:0:
411,251,606863,1,0,0:0:0:0:
441,213,606938,5,2,0:0:0:0:
479,184,607012,1,0,0:0:0:0:
495,139,607087,1,8,0:0:0:0:
487,91,607161,1,0,0:0:0:0:
450,60,607236,5,2,0:0:0:0:
419,96,607311,1,0,0:0:0:0:
373,110,607385,1,8,0:0:0:0:
325,107,607460,1,0,0:0:0:0:
285,81,607535,5,2,0:0:0:0:
286,128,607609,1,0,0:0:0:0:
287,175,607684,1,8,0:0:0:0:
288,222,607758,1,0,0:0:0:0:
289,269,607833,5,2,0:0:0:0:
256,234,607908,1,0,0:0:0:0:
209,226,607982,1,8,0:0:0:0:
162,236,608057,1,0,0:0:0:0:
128,269,608132,5,10,0:0:0:0:
85,289,608206,1,8,0:0:0:0:
38,280,608281,1,8,0:0:0:0:
14,238,608355,1,8,0:0:0:0:
14,190,608430,6,0,L|45:144,3,47.5,2|0|8|0,0:0|0:0|0:0|0:0,0:0:0:0:
66,41,608729,5,6,0:0:0:0:
97,75,608803,1,0,0:0:0:0:
141,89,608878,1,8,0:0:0:0:
186,74,608953,1,0,0:0:0:0:
226,50,609027,5,2,0:0:0:0:
272,41,609102,1,0,0:0:0:0:
318,51,609176,1,8,0:0:0:0:
352,84,609251,1,0,0:0:0:0:
369,128,609326,5,2,0:0:0:0:
354,172,609400,1,0,0:0:0:0:
339,217,609475,1,8,0:0:0:0:
324,262,609550,1,0,0:0:0:0:
309,307,609624,5,2,0:0:0:0:
335,346,609699,1,0,0:0:0:0:
380,360,609773,1,8,0:0:0:0:
426,351,609848,1,0,0:0:0:0:
462,320,609923,5,2,0:0:0:0:
434,281,609997,1,0,0:0:0:0:
388,265,610072,1,8,0:0:0:0:
340,264,610147,1,0,0:0:0:0:
298,286,610221,5,2,0:0:0:0:
261,315,610296,1,0,0:0:0:0:
215,329,610370,1,8,0:0:0:0:
167,329,610445,1,0,0:0:0:0:
123,309,610520,5,2,0:0:0:0:
113,262,610594,1,0,0:0:0:0:
103,215,610669,1,8,0:0:0:0:
93,168,610744,1,0,0:0:0:0:
86,121,610818,6,0,L|78:47,3,47.5,2|0|8|0,0:0|0:0|0:0|0:0,0:0:0:0:
225,162,611117,6,0,L|151:169,3,47.5,2|0|8|0,0:0|0:0|0:0|0:0,0:0:0:0:
305,46,611415,2,0,L|231:53,3,47.5,2|0|8|0,0:0|0:0|0:0|0:0,0:0:0:0:
319,242,611714,6,0,L|314:194,3,47.5,2|0|8|0,0:0|0:0|0:0|0:0,0:0:0:0:
395,67,612012,2,0,L|390:19,3,47.5,2|0|8|0,0:0|0:0|0:0|0:0,0:0:0:0:
488,132,612311,6,0,L|414:139,1,47.5,2|0,0:0|0:0,0:0:0:0:
393,310,612460,2,0,L|440:305,1,47.5,10|0,0:0|0:0,0:0:0:0:
309,121,612609,2,0,L|235:128,3,47.5,2|0|8|0,0:0|0:0|0:0|0:0,0:0:0:0:
314,364,612908,2,0,L|266:368,3,47.5,2|0|0|0,0:0|0:0|0:0|0:0,0:0:0:0:
319,242,613206,5,8,0:0:0:0:
291,31,613468,1,12,0:0:0:0:
61,220,614363,5,8,0:0:0:0:
148,256,614512,1,8,0:0:0:0:
235,293,614662,1,8,0:0:0:0:
476,152,615557,5,8,0:0:0:0:
389,188,615706,1,8,0:0:0:0:
302,225,615856,1,8,0:0:0:0:
30,88,616751,5,8,0:0:0:0:
117,124,616900,1,8,0:0:0:0:
204,161,617050,1,8,0:0:0:0:
250,78,617348,5,0,0:0:0:0:
343,355,617647,1,0,0:0:0:0:
140,321,617945,5,0,0:0:0:0:
495,253,618244,1,0,0:0:0:0:
241,346,618542,5,0,0:0:0:0:
421,54,618841,1,0,0:0:0:0:
7,128,619139,5,4,0:0:0:0:
495,253,619438,2,0,L|507:288,12,31.6666666666667,4|0|0|0|0|0|0|0|0|0|0|0|0,0:0|0:0|0:0|0:0|0:0|0:0|0:0|0:0|0:0|0:0|0:0|0:0|0:0,0:0:0:0:
151,236,632380,6,0,P|228:220|299:260,1,142.5,4|0,0:0|0:0,0:0:0:0:
344,315,633708,1,8,0:0:0:0:
53,289,634372,5,0,0:0:0:0:
53,289,634705,1,0,0:0:0:0:
53,289,635037,2,0,L|42:136,1,142.5
39,51,636365,1,8,0:0:0:0:
39,51,637030,1,8,0:0:0:0:
133,102,637362,5,0,0:0:0:0:
221,165,637694,2,0,P|245:112|213:32,1,142.5
217,36,639023,1,8,0:0:0:0:
182,247,639687,2,0,L|242:254,1,47.5
341,270,640351,1,0,0:0:0:0:
341,270,641015,1,0,0:0:0:0:
411,149,641348,1,0,0:0:0:0:
443,339,641680,1,8,0:0:0:0:
443,339,642344,1,8,0:0:0:0:
487,232,642676,5,0,0:0:0:0:
411,149,643008,2,0,P|357:140|310:170,1,95
284,242,644005,1,0,0:0:0:0:
268,83,644337,1,8,0:0:0:0:
182,155,645001,2,0,L|115:165,1,47.5
39,179,645666,1,0,0:0:0:0:
60,318,646330,2,0,L|127:308,1,47.5
203,294,646994,1,8,0:0:0:0:
266,217,647659,1,0,0:0:0:0:
285,351,647991,1,0,0:0:0:0:
428,255,648323,6,0,P|392:220|339:216,1,95
349,213,649319,1,0,0:0:0:0:
476,165,649651,1,8,0:0:0:0:
333,115,650316,2,0,L|271:122,1,47.5
193,132,650980,1,0,0:0:0:0:
268,235,651644,5,0,0:0:0:0:
333,115,651976,1,0,0:0:0:0:
333,115,652309,1,8,0:0:0:0:
396,288,652641,1,4,0:0:0:0:
468,152,652973,1,8,0:0:0:0:
333,115,653139,1,8,0:0:0:0:
468,152,653305,1,4,0:0:0:0:
173,216,653637,5,4,0:0:0:0:
256,192,672238,12,0,674895,0:0:0:0:
422,144,674952,5,4,0:0:0:0:
391,107,675034,1,0,0:0:0:0:
344,99,675117,1,0,0:0:0:0:
299,114,675200,1,0,0:0:0:0:
271,152,675283,1,8,0:0:0:0:
230,177,675366,1,0,0:0:0:0:
182,181,675449,1,0,0:0:0:0:
140,158,675532,1,0,0:0:0:0:
119,114,675615,6,0,L|143:59,3,47.5,4|0|0|0,0:0|0:0|0:0|0:0,0:0:0:0:
63,227,675946,2,0,L|39:172,3,47.5,12|0|0|0,0:0|0:0|0:0|0:0,0:0:0:0:
97,341,676278,5,4,0:0:0:0:
135,313,676361,1,0,0:0:0:0:
182,308,676444,1,0,0:0:0:0:
225,327,676527,1,0,0:0:0:0:
265,351,676610,1,8,0:0:0:0:
312,351,676693,1,0,0:0:0:0:
356,335,676776,1,0,0:0:0:0:
384,297,676858,1,0,0:0:0:0:
394,250,676941,6,0,L|358:187,3,47.5,4|0|0|0,0:0|0:0|0:0|0:0,0:0:0:0:
461,169,677273,2,0,L|454:119,3,47.5,12|0|0|0,0:0|0:0|0:0|0:0,0:0:0:0:
299,264,677605,5,4,0:0:0:0:
265,230,677688,1,0,0:0:0:0:
258,182,677771,1,0,0:0:0:0:
280,140,677853,1,0,0:0:0:0:
320,115,677936,1,8,0:0:0:0:
355,83,678019,1,0,0:0:0:0:
348,35,678102,1,0,0:0:0:0:
309,7,678185,1,0,0:0:0:0:
262,18,678268,6,0,L|215:90,3,47.5,4|0|0|0,0:0|0:0|0:0|0:0,0:0:0:0:
146,72,678600,2,0,L|160:160,3,47.5,12|0|0|0,0:0|0:0|0:0|0:0,0:0:0:0:
107,246,678931,5,4,0:0:0:0:
142,214,679014,1,0,0:0:0:0:
188,206,679097,1,0,0:0:0:0:
232,223,679180,1,0,0:0:0:0:
256,263,679263,1,8,0:0:0:0:
280,303,679346,1,0,0:0:0:0:
323,321,679429,1,0,0:0:0:0:
367,305,679512,1,0,0:0:0:0:
398,269,679595,6,0,L|393:196,3,47.5,4|0|0|0,0:0|0:0|0:0|0:0,0:0:0:0:
464,136,679926,5,12,0:0:0:0:
407,126,680009,1,8,0:0:0:0:
350,117,680092,1,8,0:0:0:0:
293,108,680175,1,8,0:0:0:0:
236,100,680258,5,12,0:0:0:0:
250,98,680341,1,0,0:0:0:0:
264,96,680424,1,0,0:0:0:0:
278,94,680507,1,0,0:0:0:0:
292,92,680590,5,8,0:0:0:0:
342,117,680672,1,0,0:0:0:0:
356,172,680755,1,0,0:0:0:0:
335,225,680838,1,0,0:0:0:0:
281,246,680921,6,0,L|219:209,3,47.5,4|0|0|0,0:0|0:0|0:0|0:0,0:0:0:0:
227,331,681253,2,0,L|160:371,3,47.5,12|0|0|0,0:0|0:0|0:0|0:0,0:0:0:0:
70,281,681584,5,4,0:0:0:0:
122,285,681667,1,0,0:0:0:0:
158,247,681750,1,0,0:0:0:0:
161,194,681833,1,0,0:0:0:0:
118,163,681916,1,8,0:0:0:0:
88,119,681999,1,0,0:0:0:0:
104,69,682082,1,0,0:0:0:0:
151,47,682165,1,0,0:0:0:0:
199,67,682248,6,0,L|209:117,3,47.5,4|0|0|0,0:0|0:0|0:0|0:0,0:0:0:0:
298,70,682579,2,0,L|307:23,3,47.5,12|0|0|0,0:0|0:0|0:0|0:0,0:0:0:0:
247,216,682911,5,4,0:0:0:0:
293,192,682994,1,0,0:0:0:0:
345,192,683077,1,0,0:0:0:0:
385,225,683160,1,0,0:0:0:0:
396,276,683243,1,8,0:0:0:0:
437,307,683326,1,0,0:0:0:0:
487,293,683409,1,0,0:0:0:0:
500,243,683491,1,0,0:0:0:0:
485,192,683574,6,0,L|426:167,3,47.5,4|0|0|0,0:0|0:0|0:0|0:0,0:0:0:0:
425,25,683906,2,0,L|454:62,3,47.5,12|0|0|0,0:0|0:0|0:0|0:0,0:0:0:0:
329,99,684238,5,4,0:0:0:0:
289,64,684321,1,0,0:0:0:0:
237,61,684403,1,0,0:0:0:0:
196,94,684486,1,0,0:0:0:0:
180,143,684569,5,8,0:0:0:0:
147,200,684652,1,8,0:0:0:0:
85,224,684735,1,8,0:0:0:0:
20,207,684818,1,8,0:0:0:0:
3,142,684901,6,0,L|16:74,3,47.5,4|0|0|0,0:0|0:0|0:0|0:0,0:0:0:0:
86,141,685233,5,8,0:0:0:0:
142,175,685315,1,8,0:0:0:0:
161,238,685398,1,8,0:0:0:0:
140,301,685481,1,8,0:0:0:0:
82,334,685564,5,12,0:0:0:0:
122,293,685647,1,0,0:0:0:0:
178,283,685730,1,0,0:0:0:0:
229,307,685813,1,0,0:0:0:0:
267,349,685896,1,8,0:0:0:0:
321,365,685979,1,0,0:0:0:0:
375,348,686062,1,0,0:0:0:0:
407,300,686145,1,0,0:0:0:0:
392,244,686228,6,0,L|338:206,3,47.5,4|0|0|0,0:0|0:0|0:0|0:0,0:0:0:0:
410,97,686559,2,0,L|429:141,3,47.5,12|0|0|0,0:0|0:0|0:0|0:0,0:0:0:0:
307,127,686891,5,4,0:0:0:0:
263,89,686974,1,0,0:0:0:0:
207,101,687057,1,0,0:0:0:0:
171,145,687140,1,0,0:0:0:0:
161,200,687222,1,8,0:0:0:0:
114,232,687305,1,0,0:0:0:0:
56,229,687388,1,0,0:0:0:0:
22,183,687471,1,0,0:0:0:0:
41,129,687554,6,0,L|99:98,3,47.5,4|0|0|0,0:0|0:0|0:0|0:0,0:0:0:0:
71,328,687886,2,0,L|13:297,3,47.5,12|0|0|0,0:0|0:0|0:0|0:0,0:0:0:0:
176,311,688217,5,4,0:0:0:0:
221,345,688300,1,0,0:0:0:0:
277,336,688383,1,0,0:0:0:0:
307,288,688466,1,0,0:0:0:0:
293,232,688549,1,8,0:0:0:0:
247,197,688632,1,0,0:0:0:0:
242,140,688715,1,0,0:0:0:0:
282,99,688798,1,0,0:0:0:0:
338,102,688881,6,0,L|366:151,3,47.5,4|0|0|0,0:0|0:0|0:0|0:0,0:0:0:0:
443,73,689212,2,0,L|449:27,3,47.5,12|0|0|0,0:0|0:0|0:0|0:0,0:0:0:0:
452,194,689544,5,4,0:0:0:0:
419,240,689627,1,0,0:0:0:0:
363,252,689710,1,0,0:0:0:0:
309,231,689793,1,0,0:0:0:0:
260,200,689876,1,8,0:0:0:0:
202,200,689959,1,0,0:0:0:0:
156,232,690041,1,0,0:0:0:0:
142,287,690124,1,0,0:0:0:0:
152,342,690207,6,0,L|210:377,3,47.5,4|0|0|0,0:0|0:0|0:0|0:0,0:0:0:0:
234,285,690539,5,8,0:0:0:0:
195,230,690622,1,8,0:0:0:0:
133,205,690705,1,8,0:0:0:0:
68,222,690788,1,8,0:0:0:0:
28,275,690871,5,12,0:0:0:0:
73,241,690953,1,0,0:0:0:0:
86,185,691036,1,0,0:0:0:0:
56,136,691119,1,0,0:0:0:0:
29,85,691202,1,8,0:0:0:0:
54,34,691285,1,0,0:0:0:0:
109,20,691368,1,0,0:0:0:0:
156,50,691451,1,0,0:0:0:0:
169,105,691534,6,0,L|123:150,3,47.5,4|0|0|0,0:0|0:0|0:0|0:0,0:0:0:0:
269,81,691866,2,0,L|249:18,3,47.5,12|0|0|0,0:0|0:0|0:0|0:0,0:0:0:0:
217,211,692197,5,4,0:0:0:0:
261,167,692280,1,0,0:0:0:0:
322,167,692363,1,0,0:0:0:0:
377,194,692446,1,0,0:0:0:0:
432,221,692529,1,8,0:0:0:0:
486,191,692612,1,0,0:0:0:0:
491,129,692695,1,0,0:0:0:0:
455,78,692778,1,0,0:0:0:0:
393,75,692860,6,0,L|362:138,3,47.5,4|0|0|0,0:0|0:0|0:0|0:0,0:0:0:0:
320,297,693192,2,0,L|299:254,3,47.5,12|0|0|0,0:0|0:0|0:0|0:0,0:0:0:0:
186,350,693524,5,4,0:0:0:0:
220,298,693607,1,0,0:0:0:0:
194,241,693690,1,0,0:0:0:0:
134,226,693772,1,0,0:0:0:0:
89,269,693855,1,8,0:0:0:0:
28,258,693938,1,0,0:0:0:0:
5,200,694021,1,0,0:0:0:0:
38,147,694104,1,0,0:0:0:0:
99,138,694187,6,0,L|158:158,3,47.5,4|0|0|0,0:0|0:0|0:0|0:0,0:0:0:0:
88,27,694519,2,0,L|29:7,3,47.5,12|0|0|0,0:0|0:0|0:0|0:0,0:0:0:0:
213,58,694850,5,4,0:0:0:0:
259,106,694933,1,0,0:0:0:0:
324,116,695016,1,0,0:0:0:0:
377,76,695099,1,0,0:0:0:0:
442,63,695182,1,8,0:0:0:0:
490,109,695265,1,0,0:0:0:0:
490,175,695348,1,0,0:0:0:0:
443,222,695431,1,0,0:0:0:0:
376,220,695514,6,0,L|347:182,3,47.5,4|0|0|0,0:0|0:0|0:0|0:0,0:0:0:0:
295,292,695845,2,0,L|284:339,3,47.5,12|0|0|0,0:0|0:0|0:0|0:0,0:0:0:0:
197,295,696177,6,0,L|150:283,1,47.5,8|0,0:0|0:0,0:0:0:0:
64,95,696343,2,0,L|110:106,1,47.5,8|0,0:0|0:0,0:0:0:0:
66,339,696510,6,0,L|19:327,1,47.5,8|0,0:0|0:0,0:0:0:0:
191,127,696677,2,0,L|237:138,1,47.5,8|0,0:0|0:0,0:0:0:0:
33,231,696843,6,0,L|44:185,1,47.5,8|0,0:0|0:0,0:0:0:0:
317,130,697010,2,0,L|306:176,1,47.5,8|0,0:0|0:0,0:0:0:0:
64,95,697177,6,0,L|75:49,1,47.5,8|0,0:0|0:0,0:0:0:0:
290,256,697343,2,0,L|279:302,1,47.5,8|0,0:0|0:0,0:0:0:0:
191,212,697510,6,0,L|144:200,1,47.5,8|0,0:0|0:0,0:0:0:0:
317,48,697677,2,0,L|364:60,1,47.5,8|0,0:0|0:0,0:0:0:0:
110,106,697843,6,0,L|63:94,1,47.5,8|0,0:0|0:0,0:0:0:0:
317,48,698010,2,0,L|364:60,1,47.5,8|0,0:0|0:0,0:0:0:0:
63,94,698177,6,0,L|74:48,1,47.5,8|0,0:0|0:0,0:0:0:0:
89,313,698498,5,8,0:0:0:0:
102,316,698580,1,8,0:0:0:0:
116,320,698663,1,8,0:0:0:0:
130,323,698746,1,8,0:0:0:0:
144,327,698829,6,0,B|184:330|184:330|222:328|222:328|268:330,1,95,0|8,0:0|0:0,0:0:0:0:
364,297,699161,1,0,0:0:0:0:
356,308,699244,1,0,0:0:0:0:
348,319,699327,1,8,0:0:0:0:
377,179,699492,1,0,0:0:0:0:
461,248,699658,1,8,0:0:0:0:
444,101,699824,1,0,0:0:0:0:
431,93,699907,1,0,0:0:0:0:
419,84,699990,6,0,B|385:78|385:78|341:85|341:85|306:82,1,95,8|0,0:0|0:0,0:0:0:0:
303,235,700322,1,8,0:0:0:0:
267,154,700487,2,0,P|224:133|178:141,1,95,0|8,0:0|0:0,0:0:0:0:
97,104,700819,2,0,B|91:67|91:67|82:36|82:36|75:-9,1,95,0|8,0:0|0:0,0:0:0:0:
23,168,701151,2,0,B|26:190|26:190|39:218|39:218|44:259,1,95,0|8,0:0|0:0,0:0:0:0:
130,309,701482,6,0,L|192:317,1,47.5,8|0,0:0|0:0,0:0:0:0:
341,196,701648,2,0,L|293:189,1,47.5,8|0,0:0|0:0,0:0:0:0:
245,359,701814,6,0,L|307:367,1,47.5,8|0,0:0|0:0,0:0:0:0:
226,146,701980,2,0,L|178:139,1,47.5,8|0,0:0|0:0,0:0:0:0:
371,319,702146,6,0,L|377:271,1,47.5,8|0,0:0|0:0,0:0:0:0:
301,114,702311,2,0,L|307:66,1,47.5,8|0,0:0|0:0,0:0:0:0:
456,278,702477,6,0,L|462:230,1,47.5,8|0,0:0|0:0,0:0:0:0:
386,73,702643,2,0,L|392:25,1,47.5,8|0,0:0|0:0,0:0:0:0:
341,196,702809,6,0,L|293:189,1,47.5,8|0,0:0|0:0,0:0:0:0:
509,88,702975,2,0,L|462:82,1,47.5,8|0,0:0|0:0,0:0:0:0:
301,114,703141,6,0,L|253:107,1,47.5,8|0,0:0|0:0,0:0:0:0:
456,278,703306,2,0,L|503:284,1,47.5,8|0,0:0|0:0,0:0:0:0:
389,346,703472,5,8,0:0:0:0:
359,330,703555,1,8,0:0:0:0:
325,326,703638,1,8,0:0:0:0:
293,336,703721,1,8,0:0:0:0:
231,357,703804,5,8,0:0:0:0:
199,367,703887,1,8,0:0:0:0:
165,363,703970,1,8,0:0:0:0:
135,347,704053,1,8,0:0:0:0:
84,306,704178,6,0,B|91:268|91:268|86:241|86:241|91:195,1,95,4|8,0:0|0:0,0:0:0:0:
107,80,704509,1,0,0:0:0:0:
89,71,704592,1,0,0:0:0:0:
71,63,704675,1,8,0:0:0:0:
165,172,704841,6,0,P|222:165|270:194,1,95,0|8,0:0|0:0,0:0:0:0:
324,268,705172,1,0,0:0:0:0:
307,277,705255,1,0,0:0:0:0:
291,287,705338,1,8,0:0:0:0:
415,202,705504,6,0,B|419:172|419:172|418:141|418:141|427:72,1,95,0|8,0:0|0:0,0:0:0:0:
454,297,705836,1,0,0:0:0:0:
457,315,705919,1,0,0:0:0:0:
460,333,706002,1,8,0:0:0:0:
333,371,706167,2,0,B|305:370|305:370|271:361|271:361|219:358,1,95,0|8,0:0|0:0,0:0:0:0:
165,172,706499,2,0,B|208:176|208:176|236:189|236:189|270:194,1,95,0|8,0:0|0:0,0:0:0:0:
144,263,706831,6,0,L|86:294,1,47.5,8|0,0:0|0:0,0:0:0:0:
142,66,706997,2,0,L|100:88,1,47.5,8|0,0:0|0:0,0:0:0:0:
81,359,707162,6,0,L|23:390,1,47.5,8|0,0:0|0:0,0:0:0:0:
79,162,707328,2,0,L|37:184,1,47.5,8|0,0:0|0:0,0:0:0:0:
249,308,707494,6,0,L|218:250,1,47.5,8|0,0:0|0:0,0:0:0:0:
12,259,707660,2,0,L|43:317,1,47.5,8|0,0:0|0:0,0:0:0:0:
251,191,707826,6,0,L|220:133,1,47.5,8|0,0:0|0:0,0:0:0:0:
14,142,707991,2,0,L|45:200,1,47.5,8|0,0:0|0:0,0:0:0:0:
249,308,708157,6,0,L|290:285,1,47.5,8|0,0:0|0:0,0:0:0:0:
135,224,708323,2,0,L|93:246,1,47.5,8|0,0:0|0:0,0:0:0:0:
377,275,708489,6,0,L|346:217,1,47.5,8|0,0:0|0:0,0:0:0:0:
162,323,708655,2,0,L|184:364,1,47.5,8|0,0:0|0:0,0:0:0:0:
454,329,708821,5,4,0:0:0:0:
459,296,708903,1,0,0:0:0:0:
464,263,708986,1,0,0:0:0:0:
469,230,709069,1,0,0:0:0:0:
437,201,709152,5,4,0:0:0:0:
432,168,709235,1,0,0:0:0:0:
427,135,709318,1,0,0:0:0:0:
422,102,709401,1,0,0:0:0:0:
455,36,709525,6,0,B|423:30|423:30|393:32|393:32|339:32,1,95,0|8,0:0|0:0,0:0:0:0:
250,110,709856,1,0,0:0:0:0:
236,108,709939,1,0,0:0:0:0:
222,106,710022,1,8,0:0:0:0:
283,248,710188,1,0,0:0:0:0:
341,168,710354,1,8,0:0:0:0:
338,342,710519,6,0,B|303:329|303:329|268:330|268:330|243:326,1,95,0|8,0:0|0:0,0:0:0:0:
149,366,710851,2,0,P|170:302|138:260,1,95,0|8,0:0|0:0,0:0:0:0:
80,214,711183,2,0,B|122:214|122:214|152:207|152:207|196:212,1,95,0|8,0:0|0:0,0:0:0:0:
343,158,711514,2,0,B|302:161|302:161|273:155|273:155|227:160,1,95,0|8,0:0|0:0,0:0:0:0:
13,99,711846,2,0,B|55:103|55:103|79:96|79:96|128:91,1,95,0|8,0:0|0:0,0:0:0:0:
251,80,712178,6,0,L|304:83,1,47.5,8|0,0:0|0:0,0:0:0:0:
350,275,712344,2,0,L|303:273,1,47.5,8|0,0:0|0:0,0:0:0:0:
422,87,712509,6,0,L|374:84,1,47.5,8|0,0:0|0:0,0:0:0:0:
426,277,712675,2,0,L|474:280,1,47.5,8|0,0:0|0:0,0:0:0:0:
499,92,712841,6,0,L|501:44,1,47.5,8|0,0:0|0:0,0:0:0:0:
423,324,713007,2,0,L|426:277,1,47.5,8|0,0:0|0:0,0:0:0:0:
374,84,713173,6,0,L|376:36,1,47.5,8|0,0:0|0:0,0:0:0:0:
300,320,713338,2,0,L|303:273,1,47.5,8|0,0:0|0:0,0:0:0:0:
426,277,713504,6,0,L|474:280,1,47.5,8|0,0:0|0:0,0:0:0:0:
298,82,713670,2,0,L|251:80,1,47.5,8|0,0:0|0:0,0:0:0:0:
302,272,713836,6,0,L|350:275,1,47.5,8|0,0:0|0:0,0:0:0:0:
174,77,714002,2,0,L|127:75,1,47.5,8|0,0:0|0:0,0:0:0:0:
299,320,714168,6,0,L|301:272,1,47.5,8|0,0:0|0:0,0:0:0:0:
374,84,714333,2,0,L|376:36,1,47.5,8|0,0:0|0:0,0:0:0:0:
173,316,714499,6,0,L|175:268,1,47.5,8|0,0:0|0:0,0:0:0:0:
250,79,714831,1,4,0:0:0:0:
174,272,720137,6,0,L|239:260,1,47.5,8|0,0:0|0:0,0:0:0:0:
216,83,720302,2,0,L|281:71,1,47.5,8|0,0:0|0:0,0:0:0:0:
245,340,720468,6,0,L|310:328,1,47.5,8|0,0:0|0:0,0:0:0:0:
287,151,720634,2,0,L|352:139,1,47.5,8|0,0:0|0:0,0:0:0:0:
356,270,720800,6,0,L|364:316,1,47.5,8|0,0:0|0:0,0:0:0:0:
112,365,720966,2,0,L|103:318,1,47.5,8|0,0:0|0:0,0:0:0:0:
333,142,721131,6,0,L|341:188,1,47.5,8|0,0:0|0:0,0:0:0:0:
89,237,721297,6,0,L|80:190,1,47.5,8|0,0:0|0:0,0:0:0:0:
220,263,721463,6,0,L|174:272,1,47.5,8|0,0:0|0:0,0:0:0:0:
152,118,721629,2,0,L|198:109,1,47.5,8|0,0:0|0:0,0:0:0:0:
261,181,721795,6,0,L|214:189,1,47.5,8|0,0:0|0:0,0:0:0:0:
192,35,721961,2,0,L|238:26,1,47.5,8|0,0:0|0:0,0:0:0:0:
333,142,722126,5,8,0:0:0:0:
365,137,722209,1,8,0:0:0:0:
398,132,722292,1,8,0:0:0:0:
431,128,722375,1,8,0:0:0:0:
481,196,722458,5,4,0:0:0:0:
462,198,722541,1,0,0:0:0:0:
443,200,722624,1,0,0:0:0:0:
424,203,722707,1,0,0:0:0:0:
360,271,722790,6,0,B|390:269|390:269|422:277|422:277|461:273,1,95,0|8,0:0|0:0,0:0:0:0:
283,338,723121,1,0,0:0:0:0:
269,341,723204,1,0,0:0:0:0:
255,344,723287,1,8,0:0:0:0:
375,377,723453,1,0,0:0:0:0:
360,271,723619,1,8,0:0:0:0:
172,348,723785,6,0,B|142:350|142:350|110:342|110:342|71:346,1,95,0|8,0:0|0:0,0:0:0:0:
20,250,724116,2,0,B|50:248|50:248|82:256|82:256|121:252,1,95,0|8,0:0|0:0,0:0:0:0:
217,201,724448,1,0,0:0:0:0:
227,190,724531,1,0,0:0:0:0:
237,179,724614,1,8,0:0:0:0:
76,90,724780,6,0,B|75:130|75:130|83:158|83:158|83:197,1,95,0|8,0:0|0:0,0:0:0:0:
239,100,725111,2,0,B|239:59|239:59|231:31|231:31|231:-7,1,95,0|8,0:0|0:0,0:0:0:0:
76,90,725443,6,0,L|78:145,1,47.5,8|0,0:0|0:0,0:0:0:0:
107,300,725609,2,0,L|105:245,1,47.5,8|0,0:0|0:0,0:0:0:0:
155,128,725775,6,0,L|157:183,1,47.5,8|0,0:0|0:0,0:0:0:0:
186,338,725940,2,0,L|184:283,1,47.5,8|0,0:0|0:0,0:0:0:0:
155,128,726106,6,0,L|202:126,1,47.5,8|0,0:0|0:0,0:0:0:0:
311,284,726272,2,0,L|358:282,1,47.5,8|0,0:0|0:0,0:0:0:0:
282,122,726438,6,0,L|329:120,1,47.5,8|0,0:0|0:0,0:0:0:0:
184,290,726604,2,0,L|231:288,1,47.5,8|0,0:0|0:0,0:0:0:0:
331,167,726769,6,0,L|329:119,1,47.5,8|0,0:0|0:0,0:0:0:0:
202,126,726935,2,0,L|203:173,1,47.5,8|0,0:0|0:0,0:0:0:0:
360,329,727101,6,0,L|358:281,1,47.5,8|0,0:0|0:0,0:0:0:0:
231,288,727267,2,0,L|232:335,1,47.5,8|0,0:0|0:0,0:0:0:0:
452,292,727433,5,8,0:0:0:0:
459,254,727516,1,8,0:0:0:0:
466,216,727599,1,8,0:0:0:0:
474,179,727681,1,8,0:0:0:0:
436,172,727764,5,8,0:0:0:0:
429,134,727847,1,8,0:0:0:0:
422,96,727930,1,8,0:0:0:0:
414,59,728013,1,8,0:0:0:0:
335,54,728096,6,0,B|310:47|310:47|275:48|275:48|205:42,1,95,0|8,0:0|0:0,0:0:0:0:
61,107,728428,2,0,L|2:88,2,47.5,0|0|8,0:0|0:0|0:0,0:0:0:0:
84,193,728759,6,0,P|138:179|183:196,1,95,0|8,0:0|0:0,0:0:0:0:
258,206,729091,2,0,P|300:199|341:148,1,95,0|8,0:0|0:0,0:0:0:0:
130,255,729423,2,0,B|139:293|139:293|138:324|138:324|145:357,1,95,0|8,0:0|0:0,0:0:0:0:
258,206,729754,2,0,L|266:145,2,47.5,0|0|8,0:0|0:0|0:0,0:0:0:0:
255,322,730086,6,0,B|254:337|254:337|339:310,1,95,0|8,0:0|0:0,0:0:0:0:
130,255,730418,2,0,B|131:240|131:240|46:267,1,95,0|8,0:0|0:0,0:0:0:0:
47,354,730749,6,0,L|103:337,1,47.5,8|0,0:0|0:0,0:0:0:0:
147,156,730915,2,0,L|91:173,1,47.5,8|0,0:0|0:0,0:0:0:0:
130,255,731081,6,0,L|186:238,1,47.5,8|0,0:0|0:0,0:0:0:0:
230,57,731247,2,0,L|174:74,1,47.5,8|0,0:0|0:0,0:0:0:0:
243,203,731413,6,0,L|226:147,1,47.5,8|0,0:0|0:0,0:0:0:0:
40,218,731578,2,0,L|57:274,1,47.5,8|0,0:0|0:0,0:0:0:0:
333,240,731744,6,0,L|316:184,1,47.5,8|0,0:0|0:0,0:0:0:0:
130,255,731910,2,0,L|147:311,1,47.5,8|0,0:0|0:0,0:0:0:0:
236,343,732076,5,8,0:0:0:0:
288,347,732159,1,8,0:0:0:0:
340,352,732242,1,8,0:0:0:0:
392,357,732325,1,8,0:0:0:0:
445,336,732407,5,4,0:0:0:0:
431,332,732490,1,0,0:0:0:0:
417,328,732573,1,0,0:0:0:0:
403,324,732656,1,0,0:0:0:0:
354,321,732739,5,8,0:0:0:0:
302,317,732822,1,8,0:0:0:0:
250,312,732905,1,8,0:0:0:0:
198,307,732988,1,8,0:0:0:0:
143,300,733071,5,4,0:0:0:0:
143,304,733154,1,0,0:0:0:0:
143,308,733237,1,0,0:0:0:0:
143,312,733319,1,0,0:0:0:0:
60,353,733402,6,0,B|67:320|67:320|69:292|69:292|80:233,1,95,0|8,0:0|0:0,0:0:0:0:
92,108,733775,1,0,0:0:0:0:
79,100,733858,1,0,0:0:0:0:
66,92,733941,1,8,0:0:0:0:
186,182,734107,1,0,0:0:0:0:
222,52,734273,1,8,0:0:0:0:
186,182,734438,2,0,L|126:194,2,47.5,0|0|8,0:0|0:0|0:0,0:0:0:0:
235,263,734770,6,0,P|279:248|350:274,1,95,0|8,0:0|0:0,0:0:0:0:
417,234,735102,2,0,B|425:200|425:200|421:176|421:176|424:111,1,95,0|8,0:0|0:0,0:0:0:0:
484,321,735433,6,0,B|464:315|464:315|425:322|425:322|374:317,1,95,0|8,0:0|0:0,0:0:0:0:
186,182,735765,2,0,B|206:188|206:188|245:181|245:181|296:186,1,95,0|8,0:0|0:0,0:0:0:0:
378,158,736097,6,0,L|453:127,1,47.5,8|0,0:0|0:0,0:0:0:0:
390,318,736263,2,0,L|315:349,1,47.5,8|0,0:0|0:0,0:0:0:0:
235,202,736428,6,0,L|310:171,1,47.5,8|0,0:0|0:0,0:0:0:0:
247,362,736594,2,0,L|172:393,1,47.5,8|0,0:0|0:0,0:0:0:0:
131,254,736760,6,0,L|112:210,1,47.5,8|0,0:0|0:0,0:0:0:0:
327,292,736926,2,0,L|358:367,1,47.5,8|0,0:0|0:0,0:0:0:0:
32,280,737092,6,0,L|13:236,1,47.5,8|0,0:0|0:0,0:0:0:0:
228,318,737257,2,0,L|246:361,1,47.5,8|0,0:0|0:0,0:0:0:0:
87,347,737423,6,0,L|43:365,1,47.5,8|0,0:0|0:0,0:0:0:0:
39,166,737589,2,0,L|82:147,1,47.5,8|0,0:0|0:0,0:0:0:0:
174,235,737755,6,0,L|130:253,1,47.5,8|0,0:0|0:0,0:0:0:0:
126,54,737921,2,0,L|169:35,1,47.5,8|0,0:0|0:0,0:0:0:0:
234,158,738087,6,0,L|252:201,1,47.5,8|0,0:0|0:0,0:0:0:0:
82,147,738252,2,8,L|63:103,1,47.5
277,65,738418,5,8,0:0:0:0:
323,55,738501,1,8,0:0:0:0:
368,70,738584,1,8,0:0:0:0:
405,98,738667,1,8,0:0:0:0:
414,144,738750,6,0,B|409:185|409:185|401:215|401:215|396:254,1,95,4|8,0:0|0:0,0:0:0:0:
388,344,739082,2,0,L|428:368,2,47.5,0|0|8,0:0|0:0|0:0,0:0:0:0:
291,317,739413,2,0,P|241:304|171:340,1,95,0|8,0:0|0:0,0:0:0:0:
117,345,739745,2,0,L|77:369,2,47.5,0|0|8,0:0|0:0|0:0,0:0:0:0:
143,254,740076,6,0,B|145:220|145:220|138:192|138:192|138:143,1,95,0|8,0:0|0:0,0:0:0:0:
126,64,740408,1,0,0:0:0:0:
112,60,740491,1,0,0:0:0:0:
98,56,740574,1,8,0:0:0:0:
228,169,740740,6,0,B|263:162|263:162|295:169|295:169|321:165,1,95,0|8,0:0|0:0,0:0:0:0:
126,64,741071,2,0,B|152:60|152:60|184:67|184:67|219:60,1,95,0|8,0:0|0:0,0:0:0:0:
390,91,741403,5,4,0:0:0:0:
399,117,741486,1,0,0:0:0:0:
408,143,741569,1,0,0:0:0:0:
417,170,741653,1,0,0:0:0:0:
426,196,741736,5,8,0:0:0:0:
432,168,741819,1,0,0:0:0:0:
438,140,741903,1,0,0:0:0:0:
444,112,741986,1,0,0:0:0:0:
451,84,742069,5,4,0:0:0:0:
420,61,742153,1,0,0:0:0:0:
383,50,742236,1,0,0:0:0:0:
345,54,742319,1,0,0:0:0:0:
312,74,742403,5,8,0:0:0:0:
276,87,742486,1,0,0:0:0:0:
238,87,742569,1,0,0:0:0:0:
200,79,742653,1,0,0:0:0:0:
168,58,742736,5,4,0:0:0:0:
153,92,742819,1,0,0:0:0:0:
138,127,742903,1,0,0:0:0:0:
124,162,742986,1,0,0:0:0:0:
109,197,743069,5,8,0:0:0:0:
146,188,743153,1,0,0:0:0:0:
183,190,743236,1,0,0:0:0:0:
217,204,743319,1,0,0:0:0:0:
244,230,743403,5,4,0:0:0:0:
235,266,743486,1,0,0:0:0:0:
220,301,743569,1,0,0:0:0:0:
206,336,743653,1,0,0:0:0:0:
193,371,743736,5,8,0:0:0:0:
157,332,743819,1,8,0:0:0:0:
107,314,743903,1,8,0:0:0:0:
55,320,743986,1,8,0:0:0:0:
13,351,744069,5,4,0:0:0:0:
55,347,744153,1,0,0:0:0:0:
84,315,744236,1,0,0:0:0:0:
98,274,744319,1,0,0:0:0:0:
89,231,744403,5,8,0:0:0:0:
54,206,744486,1,0,0:0:0:0:
39,165,744569,1,0,0:0:0:0:
45,122,744653,1,0,0:0:0:0:
75,92,744736,5,4,0:0:0:0:
116,101,744819,1,0,0:0:0:0:
158,110,744903,1,0,0:0:0:0:
199,119,744986,1,0,0:0:0:0:
241,124,745069,6,8,L|309:115,1,47.5
351,20,745236,2,8,L|283:29,1,47.5
370,226,745403,5,4,0:0:0:0:
388,187,745486,1,0,0:0:0:0:
408,149,745569,1,0,0:0:0:0:
428,111,745653,1,0,0:0:0:0:
449,74,745736,6,8,L|485:16,1,47.5
503,184,745903,2,8,L|467:242,1,47.5
472,340,746069,5,4,0:0:0:0:
434,318,746153,1,0,0:0:0:0:
392,310,746236,1,0,0:0:0:0:
349,315,746319,1,0,0:0:0:0:
313,339,746403,5,12,3:0:0:0:
326,343,746486,1,12,3:0:0:0:
339,347,746569,1,12,3:0:0:0:
352,351,746653,1,12,3:0:0:0:
313,339,746736,5,4,0:0:0:0:
271,362,746819,1,0,0:0:0:0:
223,368,746903,1,0,0:0:0:0:
177,356,746986,1,0,0:0:0:0:
141,325,747069,5,8,0:0:0:0:
132,277,747153,1,0,0:0:0:0:
123,230,747236,1,0,0:0:0:0:
114,183,747319,1,0,0:0:0:0:
105,135,747403,5,4,0:0:0:0:
123,91,747486,1,0,0:0:0:0:
166,72,747569,1,0,0:0:0:0:
213,79,747653,1,0,0:0:0:0:
248,110,747736,5,8,0:0:0:0:
288,134,747819,1,0,0:0:0:0:
335,128,747903,1,0,0:0:0:0:
362,89,747986,1,0,0:0:0:0:
362,41,748069,5,4,0:0:0:0:
321,67,748153,1,0,0:0:0:0:
281,92,748236,1,0,0:0:0:0:
241,118,748319,1,0,0:0:0:0:
201,145,748403,5,8,0:0:0:0:
245,162,748486,1,0,0:0:0:0:
289,178,748569,1,0,0:0:0:0:
333,194,748652,1,0,0:0:0:0:
377,211,748736,5,4,0:0:0:0:
399,252,748819,1,0,0:0:0:0:
397,299,748902,1,0,0:0:0:0:
371,339,748986,1,0,0:0:0:0:
328,360,749069,5,8,0:0:0:0:
287,334,749152,1,0,0:0:0:0:
240,322,749236,1,0,0:0:0:0:
193,331,749319,1,0,0:0:0:0:
153,357,749402,5,4,0:0:0:0:
105,364,749486,1,0,0:0:0:0:
59,351,749569,1,0,0:0:0:0:
29,313,749652,1,0,0:0:0:0:
24,265,749736,5,8,0:0:0:0:
46,223,749819,1,0,0:0:0:0:
88,201,749902,1,0,0:0:0:0:
135,199,749986,1,0,0:0:0:0:
175,223,750069,5,4,0:0:0:0:
220,236,750152,1,0,0:0:0:0:
265,220,750236,1,0,0:0:0:0:
296,185,750319,1,0,0:0:0:0:
301,137,750402,5,8,0:0:0:0:
280,93,750486,1,0,0:0:0:0:
235,76,750569,1,0,0:0:0:0:
188,81,750652,1,0,0:0:0:0:
150,110,750736,5,4,0:0:0:0:
106,127,750819,1,0,0:0:0:0:
58,122,750902,1,0,0:0:0:0:
20,92,750986,1,0,0:0:0:0:
13,45,751069,5,8,0:0:0:0:
51,12,751152,1,0,0:0:0:0:
103,9,751236,1,0,0:0:0:0:
141,44,751319,1,0,0:0:0:0:
150,95,751402,5,4,0:0:0:0:
116,141,751486,1,0,0:0:0:0:
100,195,751569,1,0,0:0:0:0:
123,246,751652,1,0,0:0:0:0:
168,281,751736,5,8,0:0:0:0:
226,300,751819,1,0,0:0:0:0:
286,292,751902,1,0,0:0:0:0:
330,248,751986,1,0,0:0:0:0:
362,196,752069,6,0,L|347:135,1,56.9999982604981,8|0,0:0|0:0,0:0:0:0:
256,179,752398,2,0,L|242:123,1,56.9999982604981,8|0,0:0|0:0,0:0:0:0:
444,124,752728,6,0,L|429:63,1,56.9999982604981,8|0,0:0|0:0,0:0:0:0:
309,73,753058,2,0,L|295:17,1,56.9999982604981,8|0,0:0|0:0,0:0:0:0:
162,146,753387,6,0,L|148:90,1,56.9999982604981,8|0,0:0|0:0,0:0:0:0:
303,228,753717,2,0,L|289:172,1,56.9999982604981,8|0,0:0|0:0,0:0:0:0:
457,179,754047,6,0,L|443:123,1,56.9999982604981,8|0,0:0|0:0,0:0:0:0:
410,328,754376,2,0,L|396:272,1,56.9999982604981,8|0,0:0|0:0,0:0:0:0:
326,361,754706,6,0,B|295:348|295:348|225:342,1,95,12|8,0:0|0:0,0:0:0:0:
101,325,755038,1,0,0:0:0:0:
65,293,755122,1,0,0:0:0:0:
60,245,755205,1,8,0:0:0:0:
78,201,755288,1,0,0:0:0:0:
124,187,755371,6,0,B|167:183|167:183|193:191|193:191|233:187,1,95,0|8,0:0|0:0,0:0:0:0:
311,86,755704,2,0,B|268:90|268:90|242:82|242:82|202:86,1,95,0|8,0:0|0:0,0:0:0:0:
382,154,756037,6,0,B|396:125|396:125|398:93|398:93|412:40,1,95,0|8,0:0|0:0,0:0:0:0:
486,252,756370,1,0,0:0:0:0:
442,233,756453,1,0,0:0:0:0:
395,240,756536,1,8,0:0:0:0:
359,271,756620,1,0,0:0:0:0:
333,311,756703,6,0,P|288:334|231:323,1,95,0|8,0:0|0:0,0:0:0:0:
142,224,757036,2,0,P|187:201|244:212,1,95,0|8,0:0|0:0,0:0:0:0:
81,294,757368,6,0,B|75:310|75:310|48:205,1,95,0|8,0:0|0:0,0:0:0:0:
69,101,757701,1,0,0:0:0:0:
97,63,757785,1,0,0:0:0:0:
142,48,757868,1,8,0:0:0:0:
188,54,757951,1,0,0:0:0:0:
230,76,758034,2,0,B|267:87|267:87|295:81|295:81|336:79,1,95,0|8,0:0|0:0,0:0:0:0:
473,140,758367,5,0,0:0:0:0:
501,178,758450,1,0,0:0:0:0:
498,225,758534,1,8,0:0:0:0:
467,261,758617,1,0,0:0:0:0:
421,272,758700,2,0,B|391:263|391:263|358:272|358:272|303:266,1,95,0|8,0:0|0:0,0:0:0:0:
129,231,759033,2,0,L|188:231,1,47.5
373,367,759199,2,0,L|326:367,1,47.5,8|0,0:0|0:0,0:0:0:0:
250,365,759366,6,0,P|240:301|261:262,1,95,0|8,0:0|0:0,0:0:0:0:
345,80,759699,2,0,P|358:124|346:170,1,95,0|8,0:0|0:0,0:0:0:0:
176,231,760031,6,0,B|150:221|150:221|116:225|116:225|55:219,1,95,0|8,0:0|0:0,0:0:0:0:
26,118,760364,1,0,0:0:0:0:
54,79,760448,1,0,0:0:0:0:
100,67,760531,1,8,0:0:0:0:
145,80,760614,1,0,0:0:0:0:
181,109,760697,6,0,P|213:123|296:82,1,95,0|8,0:0|0:0,0:0:0:0:
428,82,761030,2,0,P|396:68|313:109,1,95,0|8,0:0|0:0,0:0:0:0:
193,199,761363,2,0,B|204:279|204:279|220:249,1,95,0|8,0:0|0:0,0:0:0:0:
384,150,761696,5,0,0:0:0:0:
424,174,761779,1,0,0:0:0:0:
446,216,761862,1,8,0:0:0:0:
440,263,761945,1,0,0:0:0:0:
408,299,762029,6,0,B|379:316|379:316|344:323|344:323|297:339,1,95,0|8,0:0|0:0,0:0:0:0:
210,266,762362,2,0,B|239:249|239:249|274:242|274:242|321:226,1,95,0|8,0:0|0:0,0:0:0:0:
202,360,762694,6,0,P|158:339|104:348,1,95,4|8,0:0|0:0,0:0:0:0:
19,373,763027,2,0,L|33:297,1,47.5
135,211,763194,2,0,L|121:287,1,47.5,8|0,0:0|0:0,0:0:0:0:
7,161,763360,6,0,B|38:150|38:150|67:149|67:149|107:140,1,95,0|8,0:0|0:0,0:0:0:0:
304,211,763693,2,0,B|273:222|273:222|244:223|244:223|204:232,1,95,0|8,0:0|0:0,0:0:0:0:
63,74,764026,6,0,P|116:69|170:104,1,95,0|8,0:0|0:0,0:0:0:0:
211,230,764359,1,0,0:0:0:0:
205,257,764442,1,0,0:0:0:0:
200,285,764525,1,8,0:0:0:0:
273,356,764692,6,0,L|293:247,1,95,0|8,0:0|0:0,0:0:0:0:
123,237,765025,2,0,L|105:330,1,95,0|8,0:0|0:0,0:0:0:0:
273,356,765357,6,0,P|326:349|367:374,1,95,4|8,0:0|0:0,0:0:0:0:
458,323,765690,1,0,0:0:0:0:
474,278,765773,1,0,0:0:0:0:
468,230,765857,1,8,0:0:0:0:
438,193,765940,1,0,0:0:0:0:
391,182,766023,6,0,B|358:181|358:181|327:187|327:187|274:182,1,95,0|8,0:0|0:0,0:0:0:0:
362,72,766356,2,0,B|395:73|395:73|426:67|426:67|479:72,1,95,0|8,0:0|0:0,0:0:0:0:
234,221,766689,6,0,P|227:164|255:126,1,95,0|8,0:0|0:0,0:0:0:0:
354,296,767022,1,0,0:0:0:0:
322,331,767105,1,0,0:0:0:0:
277,346,767188,1,8,0:0:0:0:
230,337,767271,1,0,0:0:0:0:
187,315,767355,2,0,B|162:303|162:303|125:312|125:312|83:302,1,95,0|8,0:0|0:0,0:0:0:0:
234,221,767687,2,0,B|260:229|260:229|299:224|299:224|340:225,1,95,0|8,0:0|0:0,0:0:0:0:
128,228,768020,6,0,B|122:197|122:197|126:162|126:162|121:106,1,95,0|8,0:0|0:0,0:0:0:0:
200,49,768353,1,0,0:0:0:0:
245,34,768436,1,0,0:0:0:0:
291,45,768520,1,8,0:0:0:0:
318,83,768603,1,0,0:0:0:0:
323,130,768686,2,0,B|319:172|319:172|326:202|326:202|328:237,1,95,0|8,0:0|0:0,0:0:0:0:
173,293,769019,5,0,0:0:0:0:
128,308,769102,1,0,0:0:0:0:
82,297,769185,1,8,0:0:0:0:
55,259,769269,1,0,0:0:0:0:
50,212,769352,2,0,B|54:170|54:170|47:140|47:140|50:104,1,95,0|8,0:0|0:0,0:0:0:0:
156,30,769685,1,0,0:0:0:0:
189,27,769768,1,0,0:0:0:0:
222,24,769851,1,8,0:0:0:0:
332,102,770018,6,0,B|298:101|298:101|271:109|271:109|209:115,1,95,0|8,0:0|0:0,0:0:0:0:
140,210,770350,2,0,B|173:210|173:210|201:203|201:203|263:197,1,95,0|8,0:0|0:0,0:0:0:0:
69,170,770683,6,0,P|63:243|101:284,1,95,0|8,0:0|0:0,0:0:0:0:
165,318,771016,1,0,0:0:0:0:
211,324,771099,1,0,0:0:0:0:
258,320,771183,1,8,0:0:0:0:
303,307,771266,1,0,0:0:0:0:
336,273,771349,6,0,B|341:236|341:236|333:209|333:209|337:168,1,95,0|8,0:0|0:0,0:0:0:0:
442,265,771682,2,0,B|437:302|437:302|445:329|445:329|441:370,1,95,0|8,0:0|0:0,0:0:0:0:
393,122,772015,6,0,B|418:123|418:123|448:115|448:115|483:130,1,95,0|8,0:0|0:0,0:0:0:0:
335,179,772348,2,8,L|289:144,1,47.5
284,46,772514,2,8,L|321:74,1,47.5
215,118,772681,5,8,3:0:0:0:
165,146,772764,1,8,3:0:0:0:
108,148,772847,1,8,3:0:0:0:
56,123,772930,1,8,3:0:0:0:
37,74,773013,6,4,L|33:10,3,47.5,4|4|4|4,3:0|3:0|3:0|3:0,3:0:0:0:
27,273,773346,5,4,0:0:0:0:
61,257,773429,1,0,0:0:0:0:
98,255,773512,1,8,0:0:0:0:
132,271,773595,1,0,0:0:0:0:
154,301,773678,5,0,0:0:0:0:
178,330,773761,1,0,0:0:0:0:
212,344,773844,1,8,0:0:0:0:
249,342,773927,1,0,0:0:0:0:
282,323,774010,5,0,0:0:0:0:
300,289,774093,1,0,0:0:0:0:
330,266,774177,1,8,0:0:0:0:
367,261,774260,1,0,0:0:0:0:
403,270,774343,5,0,0:0:0:0:
430,295,774426,1,0,0:0:0:0:
442,331,774509,1,8,0:0:0:0:
430,367,774592,1,0,0:0:0:0:
392,374,774675,5,0,0:0:0:0:
359,354,774758,1,0,0:0:0:0:
354,316,774841,1,8,0:0:0:0:
365,279,774924,5,0,0:0:0:0:
393,254,775008,1,0,0:0:0:0:
417,225,775091,1,0,0:0:0:0:
423,187,775174,1,8,0:0:0:0:
410,150,775257,1,0,0:0:0:0:
377,130,775340,6,0,L|295:130,3,47.5,4|0|8|0,0:0|0:0|0:0|0:0,0:0:0:0:
414,45,775672,2,0,L|496:45,3,47.5,4|0|8|0,0:0|0:0|0:0|0:0,0:0:0:0:
272,61,776005,5,4,0:0:0:0:
231,34,776088,1,0,0:0:0:0:
184,26,776171,1,8,0:0:0:0:
136,31,776254,1,0,0:0:0:0:
97,58,776337,1,0,0:0:0:0:
72,99,776420,1,0,0:0:0:0:
64,145,776503,1,8,0:0:0:0:
67,192,776586,1,0,0:0:0:0:
88,234,776670,5,4,0:0:0:0:
106,236,776753,1,0,0:0:0:0:
125,238,776836,1,8,0:0:0:0:
143,239,776919,1,0,0:0:0:0:
161,241,777002,1,0,0:0:0:0:
179,243,777085,1,0,0:0:0:0:
197,246,777168,1,8,0:0:0:0:
215,249,777251,1,0,0:0:0:0:
217,278,777334,5,4,0:0:0:0:
207,279,777418,1,0,0:0:0:0:
197,280,777501,1,8,0:0:0:0:
187,281,777584,1,0,0:0:0:0:
177,282,777667,1,0,0:0:0:0:
167,283,777750,1,0,0:0:0:0:
157,284,777833,1,8,0:0:0:0:
147,285,777916,1,0,0:0:0:0:
137,286,777999,1,0,0:0:0:0:
127,287,778082,1,0,0:0:0:0:
117,288,778165,1,8,0:0:0:0:
107,289,778249,1,0,0:0:0:0:
97,290,778332,1,0,0:0:0:0:
87,291,778415,1,0,0:0:0:0:
77,292,778498,1,8,0:0:0:0:
67,293,778581,1,0,0:0:0:0:
106,357,778664,5,4,0:0:0:0:
142,333,778747,1,0,0:0:0:0:
184,331,778830,1,8,0:0:0:0:
221,351,778913,1,0,0:0:0:0:
254,376,778996,5,0,0:0:0:0:
296,379,779080,1,0,0:0:0:0:
336,367,779163,1,8,0:0:0:0:
366,336,779246,1,0,0:0:0:0:
371,293,779329,5,0,0:0:0:0:
348,256,779412,1,0,0:0:0:0:
309,237,779495,1,8,0:0:0:0:
267,246,779578,1,0,0:0:0:0:
224,247,779661,5,0,0:0:0:0:
182,235,779744,1,0,0:0:0:0:
149,206,779827,1,8,0:0:0:0:
136,164,779911,1,0,0:0:0:0:
150,123,779994,5,0,0:0:0:0:
184,97,780077,1,0,0:0:0:0:
226,95,780160,1,8,0:0:0:0:
263,116,780243,1,0,0:0:0:0:
298,140,780326,5,0,0:0:0:0:
339,147,780409,1,0,0:0:0:0:
381,143,780492,1,8,0:0:0:0:
416,118,780575,1,0,0:0:0:0:
426,76,780659,6,0,L|415:21,3,47.5,4|0|8|0,0:0|0:0|0:0|0:0,0:0:0:0:
479,203,780991,2,0,L|490:258,3,47.5,4|0|8|0,0:0|0:0|0:0|0:0,0:0:0:0:
422,318,781323,5,4,0:0:0:0:
385,340,781406,1,0,0:0:0:0:
343,351,781490,1,8,0:0:0:0:
300,347,781573,1,0,0:0:0:0:
264,324,781656,1,0,0:0:0:0:
224,307,781739,1,0,0:0:0:0:
181,303,781822,1,8,0:0:0:0:
140,316,781905,1,0,0:0:0:0:
107,343,781988,5,4,0:0:0:0:
121,340,782071,1,0,0:0:0:0:
134,337,782154,1,8,0:0:0:0:
148,334,782237,1,0,0:0:0:0:
162,333,782321,1,0,0:0:0:0:
177,331,782404,1,0,0:0:0:0:
191,330,782487,1,8,0:0:0:0:
205,327,782570,1,0,0:0:0:0:
232,282,782653,5,4,0:0:0:0:
222,280,782736,1,0,0:0:0:0:
212,279,782819,1,8,0:0:0:0:
202,278,782902,1,0,0:0:0:0:
192,277,782985,1,0,0:0:0:0:
182,276,783068,1,0,0:0:0:0:
172,275,783152,1,8,0:0:0:0:
162,274,783235,1,0,0:0:0:0:
152,273,783318,1,0,0:0:0:0:
142,272,783401,1,0,0:0:0:0:
132,270,783484,1,8,0:0:0:0:
122,269,783567,1,0,0:0:0:0:
112,268,783650,5,8,0:0:0:0:
66,233,783733,1,8,0:0:0:0:
52,177,783816,1,8,0:0:0:0:
72,123,783900,1,8,0:0:0:0:
125,104,783983,6,0,L|195:112,1,47.5,8|0,0:0|0:0,0:0:0:0:
279,287,784149,2,0,L|209:279,1,47.5,8|0,0:0|0:0,0:0:0:0:
229,43,784315,6,0,L|299:51,1,47.5,8|0,0:0|0:0,0:0:0:0:
383,226,784481,2,0,L|313:218,1,47.5,8|0,0:0|0:0,0:0:0:0:
166,156,784648,6,0,L|174:86,1,47.5,8|0,0:0|0:0,0:0:0:0:
367,38,784814,2,0,L|359:108,1,47.5,8|0,0:0|0:0,0:0:0:0:
254,206,784980,6,0,L|262:136,1,47.5,8|0,0:0|0:0,0:0:0:0:
455,88,785147,2,0,L|447:158,1,47.5,8|0,0:0|0:0,0:0:0:0:
425,316,785313,6,0,L|355:308,1,47.5,8|0,0:0|0:0,0:0:0:0:
259,158,785479,2,0,L|306:163,1,47.5,8|0,0:0|0:0,0:0:0:0:
480,237,785646,6,0,L|410:229,1,47.5,8|0,0:0|0:0,0:0:0:0:
314,79,785812,2,8,L|361:84,1,47.5,8|8,0:0|0:0,0:0:0:0:
298,263,785978,5,12,0:0:0:0:
247,291,786062,1,8,0:0:0:0:
190,293,786145,1,8,0:0:0:0:
140,265,786228,1,8,0:0:0:0:
96,301,786311,5,12,0:0:0:0:
100,255,786394,1,8,0:0:0:0:
104,209,786477,1,8,0:0:0:0:
109,162,786560,1,8,0:0:0:0:
81,107,786644,6,0,B|112:116|112:116|143:110|143:110|185:111,1,95,4|8,0:0|0:0,0:0:0:0:
361,84,786976,1,0,0:0:0:0:
396,72,787059,1,0,0:0:0:0:
432,59,787143,1,8,0:0:0:0:
351,199,787309,1,0,0:0:0:0:
432,59,787475,1,8,0:0:0:0:
403,242,787642,6,0,P|348:237|300:268,1,95,0|8,0:0|0:0,0:0:0:0:
275,361,787974,2,0,P|330:366|378:335,1,95,0|8,0:0|0:0,0:0:0:0:
486,259,788307,1,0,0:0:0:0:
489,221,788390,1,0,0:0:0:0:
491,183,788473,1,8,0:0:0:0:
458,357,788639,6,0,B|429:349|429:349|398:350|398:350|352:348,1,95,0|8,0:0|0:0,0:0:0:0:
219,245,788972,2,0,B|248:253|248:253|279:252|279:252|325:254,1,95,0|8,0:0|0:0,0:0:0:0:
198,332,789305,6,0,L|139:306,1,47.5,8|0,0:0|0:0,0:0:0:0:
189,145,789471,2,0,L|248:171,1,47.5,8|0,0:0|0:0,0:0:0:0:
82,274,789637,6,0,L|23:248,1,47.5,8|0,0:0|0:0,0:0:0:0:
73,87,789804,2,0,L|132:113,1,47.5,8|0,0:0|0:0,0:0:0:0:
101,230,789970,6,0,L|81:273,1,47.5,8|0,0:0|0:0,0:0:0:0:
92,43,790136,2,0,L|72:86,1,47.5,8|0,0:0|0:0,0:0:0:0:
217,288,790303,6,0,L|197:331,1,47.5,8|0,0:0|0:0,0:0:0:0:
208,101,790469,2,0,L|188:144,1,47.5,8|0,0:0|0:0,0:0:0:0:
82,274,790635,6,0,L|23:248,1,47.5,8|0,0:0|0:0,0:0:0:0:
208,101,790802,2,0,L|267:127,1,47.5,8|0,0:0|0:0,0:0:0:0:
197,331,790968,6,0,L|138:305,1,47.5,8|0,0:0|0:0,0:0:0:0:
323,158,791134,2,0,L|382:184,1,47.5,8|0,0:0|0:0,0:0:0:0:
415,338,791301,5,8,3:0:0:0:
410,339,791384,1,8,3:0:0:0:
405,340,791467,1,8,3:0:0:0:
400,341,791550,1,8,3:0:0:0:
395,342,791633,5,4,3:0:0:0:
414,298,791716,1,4,3:0:0:0:
433,254,791800,1,4,3:0:0:0:
452,210,791883,1,4,3:0:0:0:
472,167,791966,6,0,B|460:139|460:139|426:134|426:134|384:101,1,95,0|8,0:0|0:0,0:0:0:0:
263,50,792299,1,0,0:0:0:0:
226,39,792382,1,0,0:0:0:0:
189,29,792465,1,8,0:0:0:0:
261,192,792631,6,0,P|299:161|300:101,1,95,0|8,0:0|0:0,0:0:0:0:
111,219,792964,2,0,B|162:221|162:221|208:254,1,95,0|8,0:0|0:0,0:0:0:0:
289,355,793296,2,0,B|260:348|260:348|229:355|229:355|176:351,1,95,0|8,0:0|0:0,0:0:0:0:
31,265,793629,1,0,0:0:0:0:
25,227,793712,1,0,0:0:0:0:
20,189,793795,1,8,0:0:0:0:
100,97,793962,6,0,P|157:125|198:116,1,95,0|8,0:0|0:0,0:0:0:0:
370,69,794294,2,0,P|313:41|272:50,1,95,0|8,0:0|0:0,0:0:0:0:
256,177,794627,6,0,L|267:236,1,47.5,8|0,0:0|0:0,0:0:0:0:
452,85,794793,2,0,L|441:26,1,47.5,8|0,0:0|0:0,0:0:0:0:
284,305,794960,6,0,L|295:364,1,47.5,8|0,0:0|0:0,0:0:0:0:
480,213,795126,2,0,L|469:154,1,47.5,8|0,0:0|0:0,0:0:0:0:
264,223,795292,6,0,L|205:234,1,47.5,8|0,0:0|0:0,0:0:0:0:
451,299,795459,2,0,L|510:288,1,47.5,8|0,0:0|0:0,0:0:0:0:
237,99,795625,6,0,L|178:110,1,47.5,8|0,0:0|0:0,0:0:0:0:
424,175,795791,2,0,L|483:164,1,47.5,8|0,0:0|0:0,0:0:0:0:
320,85,795958,6,0,L|311:38,1,47.5,8|0,0:0|0:0,0:0:0:0:
217,231,796124,2,0,L|225:277,1,47.5,8|0,0:0|0:0,0:0:0:0:
424,175,796290,6,0,L|415:128,1,47.5,8|0,0:0|0:0,0:0:0:0:
321,321,796457,2,0,L|329:367,1,47.5,8|0,0:0|0:0,0:0:0:0:
436,313,796623,6,8,L|494:320,1,47.5
416,295,796789,2,8,L|474:302,1,47.5
216,367,796955,5,8,0:0:0:0:
177,338,797039,1,8,0:0:0:0:
129,334,797122,1,8,0:0:0:0:
87,356,797205,1,8,0:0:0:0:
45,296,797302,6,0,B|47:257|47:257|56:234|56:234|63:190,1,95,4|8,0:0|0:0,0:0:0:0:
65,87,797628,1,0,0:0:0:0:
53,50,797709,1,0,0:0:0:0:
40,14,797791,1,8,0:0:0:0:
151,156,797954,1,0,0:0:0:0:
216,71,798117,1,8,0:0:0:0:
65,87,798280,6,0,L|13:108,2,47.5,0|0|8,0:0|0:0|0:0,0:0:0:0:
151,156,798606,2,0,B|204:159|204:159|267:167,1,95,0|8,0:0|0:0,0:0:0:0:
375,181,798932,1,0,0:0:0:0:
367,218,799013,1,0,0:0:0:0:
360,255,799095,1,8,0:0:0:0:
307,117,799258,2,0,B|311:66|311:66|342:31,1,95,0|8,0:0|0:0,0:0:0:0:
392,318,799584,2,0,B|351:301|351:301|272:293,1,95,0|8,0:0|0:0,0:0:0:0:
218,313,799951,6,0,L|148:350,1,47.5,8|0,0:0|0:0,0:0:0:0:
169,106,800115,2,0,L|239:69,1,47.5,8|0,0:0|0:0,0:0:0:0:
93,319,800280,6,0,L|23:356,1,47.5,8|0,0:0|0:0,0:0:0:0:
44,112,800445,2,0,L|114:75,1,47.5,8|0,0:0|0:0,0:0:0:0:
278,253,800610,6,0,L|315:323,1,47.5,8|0,0:0|0:0,0:0:0:0:
66,153,800775,2,0,L|29:83,1,47.5,8|0,0:0|0:0,0:0:0:0:
403,247,800940,6,0,L|381:206,1,47.5,8|0,0:0|0:0,0:0:0:0:
146,64,801104,2,0,L|169:106,1,47.5,8|0,0:0|0:0,0:0:0:0:
257,156,801289,6,8,L|261:88,1,47.5
170,197,801454,2,8,L|166:265,1,47.5
263,324,801620,6,8,L|302:293,1,47.5,8|8,3:0|3:0,3:0:0:0:
259,357,801786,2,8,L|298:326,1,47.5,8|8,3:0|3:0,3:0:0:0:
82,259,801952,6,4,L|43:228,1,47.5,4|4,3:0|3:0,3:0:0:0:
86,292,802118,2,4,L|47:261,1,47.5,4|4,3:0|3:0,3:0:0:0:
384,172,802284,6,4,L|423:141,1,47.5,4|4,3:0|3:0,3:0:0:0:
380,205,802449,2,4,L|419:174,1,47.5,4|4,3:0|3:0,3:0:0:0:
481,303,802615,5,4,0:0:0:0:
456,288,802707,1,0,0:0:0:0:
427,286,802790,1,0,0:0:0:0:
401,297,802873,1,0,0:0:0:0:
346,325,802956,5,8,0:0:0:0:
314,334,803039,1,0,0:0:0:0:
280,335,803122,1,0,0:0:0:0:
248,324,803206,1,0,0:0:0:0:
192,297,803289,5,4,0:0:0:0:
158,278,803372,1,0,0:0:0:0:
120,272,803455,1,0,0:0:0:0:
83,281,803538,1,0,0:0:0:0:
39,317,803621,6,0,L|29:371,3,47.5
83,163,803954,5,4,0:0:0:0:
121,180,804037,1,0,0:0:0:0:
163,183,804120,1,0,0:0:0:0:
202,166,804204,1,0,0:0:0:0:
244,135,804287,5,8,0:0:0:0:
287,115,804370,1,0,0:0:0:0:
334,118,804453,1,0,0:0:0:0:
372,145,804536,1,0,0:0:0:0:
402,181,804619,6,0,L|396:244,3,47.5,4|0|0|0,0:0|0:0|0:0|0:0,0:0:0:0:
463,108,804952,2,0,L|469:45,3,47.5,8|0|0|0,0:0|0:0|0:0|0:0,0:0:0:0:
469,292,805285,5,4,0:0:0:0:
435,308,805368,1,0,0:0:0:0:
397,315,805451,1,0,0:0:0:0:
360,305,805534,1,0,0:0:0:0:
314,278,805617,5,8,0:0:0:0:
273,263,805700,1,0,0:0:0:0:
229,261,805784,1,0,0:0:0:0:
189,276,805867,1,0,0:0:0:0:
143,302,805950,5,4,0:0:0:0:
99,283,806033,1,0,0:0:0:0:
82,238,806116,1,0,0:0:0:0:
95,192,806199,1,0,0:0:0:0:
134,149,806283,6,0,L|196:157,3,47.5
218,86,806615,5,4,0:0:0:0:
261,105,806698,1,0,0:0:0:0:
308,108,806782,1,0,0:0:0:0:
353,94,806865,1,0,0:0:0:0:
382,56,806948,5,8,0:0:0:0:
433,45,807031,1,0,0:0:0:0:
481,64,807114,1,0,0:0:0:0:
503,110,807197,1,0,0:0:0:0:
498,161,807280,6,0,L|463:232,3,47.5,4|0|0|0,0:0|0:0|0:0|0:0,0:0:0:0:
420,286,807613,2,0,L|398:243,3,47.5,8|0|0|0,0:0|0:0|0:0|0:0,0:0:0:0:
328,325,807946,5,4,0:0:0:0:
288,358,808029,1,0,0:0:0:0:
236,364,808112,1,0,0:0:0:0:
186,348,808195,1,0,0:0:0:0:
156,305,808278,1,8,0:0:0:0:
153,252,808362,1,0,0:0:0:0:
181,208,808445,1,0,0:0:0:0:
230,190,808528,1,0,0:0:0:0:
282,190,808611,5,4,0:0:0:0:
330,209,808694,1,0,0:0:0:0:
381,198,808777,1,0,0:0:0:0:
419,161,808861,1,0,0:0:0:0:
424,109,808944,1,8,0:0:0:0:
414,57,809027,1,0,0:0:0:0:
369,29,809110,1,0,0:0:0:0:
316,28,809193,1,0,0:0:0:0:
276,61,809276,5,4,0:0:0:0:
277,112,809359,1,0,0:0:0:0:
302,158,809443,1,0,0:0:0:0:
347,184,809526,1,0,0:0:0:0:
398,192,809609,1,8,0:0:0:0:
448,177,809692,1,0,0:0:0:0:
481,136,809775,1,0,0:0:0:0:
491,84,809858,1,0,0:0:0:0:
483,31,809942,5,4,0:0:0:0:
430,34,810025,1,0,0:0:0:0:
380,50,810108,1,0,0:0:0:0:
346,90,810191,1,0,0:0:0:0:
332,140,810274,1,8,0:0:0:0:
344,190,810357,1,0,0:0:0:0:
376,231,810441,1,0,0:0:0:0:
421,256,810524,1,0,0:0:0:0:
473,257,810607,5,4,0:0:0:0:
436,213,810690,1,0,0:0:0:0:
379,204,810773,1,0,0:0:0:0:
325,222,810856,1,0,0:0:0:0:
292,269,810940,1,8,0:0:0:0:
252,309,811023,1,0,0:0:0:0:
195,318,811106,1,0,0:0:0:0:
142,297,811189,1,0,0:0:0:0:
109,250,811272,5,4,0:0:0:0:
112,193,811355,1,0,0:0:0:0:
151,151,811438,1,0,0:0:0:0:
207,140,811522,1,0,0:0:0:0:
244,97,811605,1,8,0:0:0:0:
233,41,811688,1,0,0:0:0:0:
186,7,811771,1,0,0:0:0:0:
129,15,811854,1,0,0:0:0:0:
92,58,811937,5,4,0:0:0:0:
131,106,812021,1,0,0:0:0:0:
192,112,812104,1,0,0:0:0:0:
248,87,812187,1,0,0:0:0:0:
303,59,812270,1,8,0:0:0:0:
364,53,812353,1,0,0:0:0:0:
416,85,812436,1,0,0:0:0:0:
436,143,812520,1,0,0:0:0:0:
428,204,812603,5,4,0:0:0:0:
372,230,812686,1,0,0:0:0:0:
311,220,812769,1,0,0:0:0:0:
258,187,812852,1,0,0:0:0:0:
196,183,812935,1,8,0:0:0:0:
138,207,813019,1,0,0:0:0:0:
102,257,813102,1,0,0:0:0:0:
102,318,813185,1,0,0:0:0:0:
131,372,813268,5,4,0:0:0:0:
373,186,836869,6,0,L|380:102,1,47.5,4|0,0:0|0:0,0:0:0:0:
315,92,837053,2,0,L|322:8,1,47.5,8|0,0:0|0:0,0:0:0:0:
193,256,837237,1,0,0:0:0:0:
193,256,837329,1,0,0:0:0:0:
193,256,837421,2,0,L|145:252,1,47.5,8|0,0:0|0:0,0:0:0:0:
189,85,837605,1,0,0:0:0:0:
189,85,837697,1,0,0:0:0:0:
189,85,837789,2,0,L|237:89,1,47.5,8|0,0:0|0:0,0:0:0:0:
415,244,837973,6,0,P|369:228|307:251,1,95,0|8,0:0|0:0,0:0:0:0:
261,321,838249,5,0,0:0:0:0:
261,321,838341,6,0,L|257:368,1,47.5
478,367,838525,2,0,L|481:319,1,47.5,8|0,0:0|0:0,0:0:0:0:
396,152,838709,1,0,0:0:0:0:
396,152,838801,1,0,0:0:0:0:
396,152,838893,2,0,L|348:148,1,47.5,8|0,0:0|0:0,0:0:0:0:
347,323,839077,1,0,0:0:0:0:
347,323,839169,1,0,0:0:0:0:
347,323,839261,2,0,L|395:327,1,47.5,8|0,0:0|0:0,0:0:0:0:
184,365,839445,2,0,L|100:358,1,71.2500027179719,0|8,0:0|0:0,0:0:0:0:
58,288,839813,6,0,L|65:204,1,47.5,4|0,0:0|0:0,0:0:0:0:
74,80,839997,2,0,L|81:-4,1,47.5,8|0,0:0|0:0,0:0:0:0:
140,151,840181,1,0,0:0:0:0:
140,151,840273,5,0,0:0:0:0:
140,151,840365,2,0,L|188:155,1,47.5,8|0,0:0|0:0,0:0:0:0:
198,299,840549,1,0,0:0:0:0:
198,299,840642,1,0,0:0:0:0:
198,299,840734,6,0,L|150:295,1,47.5,8|0,0:0|0:0,0:0:0:0:
254,220,840918,2,0,L|374:230,1,95,0|8,0:0|0:0,0:0:0:0:
443,233,841194,5,0,0:0:0:0:
443,233,841286,6,0,L|450:149,1,47.5
456,100,841470,2,0,L|463:16,1,47.5,8|0,0:0|0:0,0:0:0:0:
505,325,841654,1,0,0:0:0:0:
505,325,841746,1,0,0:0:0:0:
505,325,841838,2,0,L|457:321,1,47.5,8|0,0:0|0:0,0:0:0:0:
387,316,842022,5,8,0:0:0:0:
337,234,842114,1,8,0:0:0:0:
267,326,842206,2,8,L|315:322,1,47.5
301,150,842390,2,8,L|253:154,1,47.5
202,248,842574,5,8,0:0:0:0:
202,248,842666,1,8,0:0:0:0:
202,248,842758,6,0,L|154:252,1,47.5,4|0,0:0|0:0,0:0:0:0:
337,234,842943,2,0,L|385:230,1,47.5,8|0,0:0|0:0,0:0:0:0:
71,269,843128,1,0,0:0:0:0:
71,269,843220,1,0,0:0:0:0:
71,269,843313,2,0,L|64:185,1,47.5,8|0,0:0|0:0,0:0:0:0:
170,334,843498,1,0,0:0:0:0:
170,334,843591,1,0,0:0:0:0:
170,334,843683,2,0,L|177:418,1,47.5,8|0,0:0|0:0,0:0:0:0:
148,169,843869,2,0,L|138:49,1,95,0|8,0:0|0:0,0:0:0:0:
57,133,844146,5,0,0:0:0:0:
57,133,844239,6,0,L|9:137,1,47.5
216,29,844424,2,0,L|264:25,1,47.5,8|0,0:0|0:0,0:0:0:0:
148,169,844609,1,0,0:0:0:0:
148,169,844702,1,0,0:0:0:0:
148,169,844795,2,0,L|141:85,1,47.5,8|0,0:0|0:0,0:0:0:0:
346,102,844980,1,0,0:0:0:0:
346,102,845072,1,0,0:0:0:0:
346,102,845165,2,0,L|353:186,1,47.5,8|0,0:0|0:0,0:0:0:0:
263,25,845350,2,0,L|176:32,1,71.2500027179719,0|8,0:0|0:0,0:0:0:0:
232,210,845720,6,0,L|280:206,1,47.5,4|0,0:0|0:0,0:0:0:0:
478,107,845906,2,0,L|430:111,1,47.5,8|0,0:0|0:0,0:0:0:0:
285,299,846091,1,0,0:0:0:0:
285,299,846183,1,0,0:0:0:0:
285,299,846276,2,0,L|292:383,1,47.5,8|0,0:0|0:0,0:0:0:0:
436,237,846461,1,0,0:0:0:0:
436,237,846554,1,0,0:0:0:0:
436,237,846646,2,0,L|429:153,1,47.5,8|0,0:0|0:0,0:0:0:0:
456,331,846832,2,0,P|408:319|350:356,1,95,0|8,0:0|0:0,0:0:0:0:
209,360,847109,5,0,0:0:0:0:
209,360,847202,6,0,L|161:364,1,47.5
184,213,847387,2,0,L|232:209,1,47.5,8|0,0:0|0:0,0:0:0:0:
106,271,847572,1,0,0:0:0:0:
106,271,847665,1,0,0:0:0:0:
106,271,847758,2,0,L|99:187,1,47.5,8|0,0:0|0:0,0:0:0:0:
292,305,847943,1,0,0:0:0:0:
292,305,848035,1,0,0:0:0:0:
292,305,848128,2,0,L|299:389,1,47.5,8|0,0:0|0:0,0:0:0:0:
385,317,848313,5,8,0:0:0:0:
378,246,848409,1,8,0:0:0:0:
372,175,848506,1,8,0:0:0:0:
367,106,848603,1,8,0:0:0:0:
302,48,848700,6,0,L|210:54,1,47.5000018119813,12|0,0:0|0:0,0:0:0:0:
169,56,848946,1,0,0:0:0:0:
254,133,849069,6,0,L|162:139,1,47.5000018119813,8|0,0:0|0:0,0:0:0:0:
121,141,849315,1,0,0:0:0:0:
178,228,849438,5,4,0:0:0:0:
263,224,849561,1,0,0:0:0:0:
348,221,849684,1,0,0:0:0:0:
168,244,849807,5,8,0:0:0:0:
253,240,849930,1,0,0:0:0:0:
338,237,850053,1,8,0:0:0:0:
419,316,850176,6,0,L|427:374,2,47.5000018119813,4|0|0,0:0|0:0|0:0,0:0:0:0:
482,236,850546,2,0,L|476:189,2,47.5000018119813,8|0|0,0:0|0:0|0:0,0:0:0:0:
327,336,850915,6,0,L|269:344,2,47.5000018119813,4|0|0,0:0|0:0|0:0,0:0:0:0:
337,236,851284,2,0,L|385:230,2,47.5000018119813,8|0|0,0:0|0:0|0:0,0:0:0:0:
216,247,851653,5,4,0:0:0:0:
189,357,851776,1,0,0:0:0:0:
160,165,851900,1,0,0:0:0:0:
270,317,852023,5,8,0:0:0:0:
117,254,852146,1,0,0:0:0:0:
337,236,852269,1,0,0:0:0:0:
160,165,852392,6,0,L|149:89,2,47.5000018119813,4|0|0,0:0|0:0|0:0,0:0:0:0:
45,190,852761,2,0,L|38:142,2,47.5000018119813,8|0|0,0:0|0:0|0:0,0:0:0:0:
117,254,853130,5,4,0:0:0:0:
305,128,853253,1,0,0:0:0:0:
160,165,853376,1,0,0:0:0:0:
231,248,853500,5,8,0:0:0:0:
238,47,853623,1,0,0:0:0:0:
160,165,853746,1,0,0:0:0:0:
330,221,853869,6,0,L|417:200,2,47.5000018119813,4|0|0,0:0|0:0|0:0,0:0:0:0:
400,114,854238,2,0,L|487:93,2,47.5000018119813,8|0|8,0:0|0:0|0:0,0:0:0:0:
476,312,854607,6,0,P|428:294|358:320,1,95.0000036239625,4|0,0:0|0:0,0:0:0:0:
311,331,854976,5,8,0:0:0:0:
205,376,855100,1,0,0:0:0:0:
217,264,855223,1,0,0:0:0:0:
147,108,855346,5,4,0:0:0:0:
135,220,855470,1,0,0:0:0:0:
241,175,855593,1,0,0:0:0:0:
136,313,855715,5,8,0:0:0:0:
30,358,855839,1,0,0:0:0:0:
42,246,855962,1,0,0:0:0:0:
241,175,856084,6,0,L|324:146,2,47.5000018119813,4|0|0,0:0|0:0|0:0,0:0:0:0:
147,108,856453,2,0,L|230:79,2,47.5000018119813,8|0|0,0:0|0:0|0:0,0:0:0:0:
343,92,856823,6,0,L|426:63,2,47.5000018119813,4|0|0,0:0|0:0|0:0,0:0:0:0:
249,25,857192,2,0,L|332:-4,2,47.5000018119813,8|0|0,0:0|0:0|0:0,0:0:0:0:
236,157,857561,5,4,0:0:0:0:
317,324,857684,1,0,0:0:0:0:
343,92,857807,1,0,0:0:0:0:
177,232,857930,5,8,0:0:0:0:
437,194,858053,1,0,0:0:0:0:
236,157,858176,1,0,0:0:0:0:
317,324,858300,6,0,L|376:312,2,47.5000018119813,4|0|0,0:0|0:0|0:0,0:0:0:0:
437,194,858669,2,0,L|496:182,2,47.5000018119813,8|0|0,0:0|0:0|0:0,0:0:0:0:
317,324,859038,5,4,0:0:0:0:
512,288,859161,1,0,0:0:0:0:
277,242,859284,1,0,0:0:0:0:
400,368,859407,5,8,0:0:0:0:
315,164,859530,1,0,0:0:0:0:
240,368,859653,1,0,0:0:0:0:
427,240,859776,6,0,L|444:157,2,47.5000018119813,4|0|0,0:0|0:0|0:0,0:0:0:0:
403,100,860146,2,0,L|420:17,2,47.5000018119813,8|0|8,0:0|0:0|0:0,0:0:0:0:
312,50,860515,6,0,P|242:50|209:16,1,95.0000036239625,4|0,0:0|0:0,0:0:0:0:
90,142,860884,5,8,0:0:0:0:
129,32,861007,1,0,0:0:0:0:
210,120,861130,1,0,0:0:0:0:
48,241,861253,5,4,0:0:0:0:
162,219,861376,1,0,0:0:0:0:
127,333,861499,1,0,0:0:0:0:
225,318,861623,5,8,0:0:0:0:
342,291,861746,1,0,0:0:0:0:
266,204,861869,1,0,0:0:0:0:
403,361,861992,6,0,L|459:370,2,47.5000018119813,4|0|0,0:0|0:0|0:0,0:0:0:0:
425,250,862361,2,0,L|481:259,2,47.5000018119813,8|0|0,0:0|0:0|0:0,0:0:0:0:
382,152,862730,6,0,L|335:144,2,47.5000018119813,4|0|0,0:0|0:0|0:0,0:0:0:0:
404,41,863099,2,0,L|357:33,2,47.5000018119813,8|0|0,0:0|0:0|0:0,0:0:0:0:
473,112,863469,5,4,0:0:0:0:
249,128,863592,1,0,0:0:0:0:
471,257,863715,1,0,0:0:0:0:
331,110,863838,5,8,0:0:0:0:
275,286,863961,1,0,0:0:0:0:
233,44,864084,1,0,0:0:0:0:
111,143,864207,6,0,L|36:150,2,47.5000018119813,4|0|0,0:0|0:0|0:0,0:0:0:0:
75,240,864576,2,0,L|0:247,2,47.5000018119813,8|0|0,0:0|0:0|0:0,0:0:0:0:
178,338,864946,5,4,0:0:0:0:
459,304,865069,1,0,0:0:0:0:
275,286,865192,1,0,0:0:0:0:
394,367,865315,5,8,0:0:0:0:
309,170,865438,1,0,0:0:0:0:
178,338,865561,1,0,0:0:0:0:
75,240,865684,6,0,L|68:164,2,47.5000018119813,4|0|0,0:0|0:0|0:0,0:0:0:0:
146,140,866053,2,0,L|139:64,2,47.5000018119813,8|0|8,0:0|0:0|0:0,0:0:0:0:
243,51,866423,6,0,B|233:65|233:65|334:54,1,95.0000036239625,4|0,0:0|0:0,0:0:0:0:
400,96,866792,5,8,0:0:0:0:
391,209,866915,1,0,0:0:0:0:
383,322,867038,1,0,0:0:0:0:
416,112,867161,5,4,0:0:0:0:
407,225,867284,1,0,0:0:0:0:
399,338,867407,1,0,0:0:0:0:
432,128,867530,5,8,0:0:0:0:
423,241,867653,1,0,0:0:0:0:
415,354,867776,1,0,0:0:0:0:
292,328,867900,6,0,L|233:313,2,47.5000018119813,4|0|0,0:0|0:0|0:0,0:0:0:0:
269,221,868269,2,0,L|210:206,2,47.5000018119813,8|0|0,0:0|0:0|0:0,0:0:0:0:
134,345,868638,6,0,L|145:298,2,47.5000018119813,4|0|0,0:0|0:0|0:0,0:0:0:0:
103,203,869007,2,0,L|114:156,2,47.5000018119813,8|0|0,0:0|0:0|0:0,0:0:0:0:
201,106,869376,5,4,0:0:0:0:
478,133,869500,1,0,0:0:0:0:
222,209,869623,1,0,0:0:0:0:
320,57,869746,5,8,0:0:0:0:
400,262,869869,1,0,0:0:0:0:
436,15,869992,1,0,0:0:0:0:
265,299,870115,6,0,L|198:317,2,47.5000018119813,4|0|0,0:0|0:0|0:0,0:0:0:0:
222,209,870484,2,0,L|155:227,2,47.5000018119813,8|0|0,0:0|0:0|0:0,0:0:0:0:
321,215,870853,5,4,0:0:0:0:
456,376,870976,1,0,0:0:0:0:
478,133,871100,1,0,0:0:0:0:
347,334,871223,5,8,0:0:0:0:
511,260,871346,1,0,0:0:0:0:
222,209,871469,1,0,0:0:0:0:
113,327,871592,6,0,L|105:398,2,47.5000018119813,4|0|0,0:0|0:0|0:0,0:0:0:0:
46,219,871961,2,0,L|38:290,2,47.5000018119813,8|0|8,0:0|0:0|0:0,0:0:0:0:
58,106,872330,6,0,P|110:135|205:112,1,142.500005435944,4|8,0:0|0:0,0:0:0:0:
279,55,872823,1,0,0:0:0:0:
342,154,872946,2,0,L|338:232,1,47.5000018119813,0|4,0:0|0:0,0:0:0:0:
327,327,873192,1,0,0:0:0:0:
240,245,873315,1,0,0:0:0:0:
424,308,873438,6,0,L|421:355,2,47.5000018119813,8|0|0,0:0|0:0|0:0,0:0:0:0:
205,340,873807,2,0,L|90:327,1,95.0000036239625,4|0,0:0|0:0,0:0:0:0:
64,239,874176,2,0,L|66:191,2,47.5000018119813,8|0|0,0:0|0:0|0:0,0:0:0:0:
264,159,874546,2,0,L|267:112,2,47.5000018119813,4|0|0,0:0|0:0|0:0,0:0:0:0:
77,88,874915,2,0,L|79:40,2,47.5000018119813,8|0|0,0:0|0:0|0:0,0:0:0:0:
215,210,875284,6,0,P|265:201|331:243,1,95.0000036239625,4|0,0:0|0:0,0:0:0:0:
378,265,875653,1,8,0:0:0:0:
342,142,875776,1,0,0:0:0:0:
303,341,875899,1,0,0:0:0:0:
474,327,876023,6,0,L|459:213,1,95.0000036239625,4|0,0:0|0:0,0:0:0:0:
447,141,876392,5,8,0:0:0:0:
218,145,876515,1,0,0:0:0:0:
378,265,876638,1,0,0:0:0:0:
383,64,876761,6,0,B|342:52|342:52|268:70|220:60|220:60|255:33,1,190.000007247925,4|0,0:0|0:0,0:0:0:0:
160,3,877130,2,0,P|146:94|225:146,1,190.000007247925,12|0,0:0|0:0,0:0:0:0:
289,190,877499,2,0,B|313:214|313:214|144:226,1,190.000007247925,4|0,0:0|0:0,0:0:0:0:
83,285,877869,6,0,L|69:181,1,75.9999976806641,8|0,0:0|0:0,0:0:0:0:
169,356,878238,6,4,P|224:319|305:341,1,142.500005435944,4|8,0:0|0:0,0:0:0:0:
400,370,878730,1,0,0:0:0:0:
477,285,878853,2,0,L|464:217,1,47.5000018119813,0|4,0:0|0:0,0:0:0:0:
453,140,879099,1,0,0:0:0:0:
453,140,879223,1,0,0:0:0:0:
345,158,879346,2,0,L|251:175,1,95.0000036239625,8|0,0:0|0:0,0:0:0:0:
110,85,879715,6,0,L|204:68,1,95.0000036239625,4|0,0:0|0:0,0:0:0:0:
341,69,880084,2,0,L|402:83,2,47.5000018119813,8|0|0,0:0|0:0|0:0,0:0:0:0:
334,248,880453,2,0,L|381:259,2,47.5000018119813,4|0|0,0:0|0:0|0:0,0:0:0:0:
226,318,880823,2,0,P|278:317|320:349,1,95.0000036239625,8|0,0:0|0:0,0:0:0:0:
450,369,881192,6,0,L|470:243,1,95.0000036239625,4|0,0:0|0:0,0:0:0:0:
479,181,881561,1,8,0:0:0:0:
272,136,881684,1,0,0:0:0:0:
381,259,881807,1,0,0:0:0:0:
329,91,881930,6,0,P|276:90|222:51,1,95.0000036239625,4|0,0:0|0:0,0:0:0:0:
166,15,882299,1,8,0:0:0:0:
253,230,882423,1,0,0:0:0:0:
299,17,882546,1,0,0:0:0:0:
70,129,882669,6,0,B|120:131|120:131|164:139,1,95.0000036239625,4|0,0:0|0:0,0:0:0:0:
253,230,883038,1,8,0:0:0:0:
126,235,883161,1,0,0:0:0:0:
319,170,883284,1,0,0:0:0:0:
240,349,883407,2,0,L|105:341,1,95.0000036239625,4|0,0:0|0:0,0:0:0:0:
321,315,883776,2,0,L|456:323,1,95.0000036239625,8|0,0:0|0:0,0:0:0:0:
475,253,884146,6,0,P|492:206|465:140,1,95.0000036239625,4|0,0:0|0:0,0:0:0:0:
395,90,884515,1,8,0:0:0:0:
511,92,884638,1,0,0:0:0:0:
298,134,884761,2,0,L|222:149,1,47.5000018119813,0|4,0:0|0:0,0:0:0:0:
367,187,885007,2,0,L|419:201,1,47.5000018119813
284,232,885253,6,0,P|234:219|165:252,1,95.0000036239625,8|0,0:0|0:0,0:0:0:0:
335,361,885623,2,0,L|359:250,1,95.0000036239625,4|0,0:0|0:0,0:0:0:0:
157,324,885992,5,8,0:0:0:0:
157,324,886115,1,4,3:0:0:0:
157,324,886238,1,8,3:0:0:0:
284,232,886361,2,0,L|296:185,2,47.5000018119813,4|8|12,0:0|3:0|3:0,3:0:0:0:
57,155,886730,2,0,L|68:201,2,47.5000018119813,8|8|8,0:0|3:0|3:0,0:0:0:0:
150,121,887099,6,0,P|205:129|265:96,1,95.0000036239625,4|0,0:0|0:0,0:0:0:0:
311,77,887469,1,8,0:0:0:0:
385,238,887592,1,0,0:0:0:0:
422,34,887715,1,0,0:0:0:0:
434,283,887838,6,0,P|379:270|321:312,1,95.0000036239625,4|0,0:0|0:0,0:0:0:0:
277,379,888207,1,8,0:0:0:0:
267,239,888330,1,0,0:0:0:0:
395,351,888453,1,0,0:0:0:0:
182,283,888576,6,0,P|173:219|202:171,1,95.0000036239625,4|0,0:0|0:0,0:0:0:0:
264,128,888946,1,8,0:0:0:0:
412,193,889069,1,0,0:0:0:0:
267,239,889192,1,0,0:0:0:0:
493,148,889315,6,0,L|501:222,1,47.5000018119813,4|0,0:0|0:0,0:0:0:0:
503,277,889561,5,8,0:0:0:0:
267,239,889684,1,8,0:0:0:0:
412,193,889807,1,8,0:0:0:0:
395,351,889930,1,8,0:0:0:0:
229,312,890053,6,0,P|181:299|115:327,1,95.0000036239625,4|0,0:0|0:0,0:0:0:0:
31,255,890423,1,8,0:0:0:0:
31,255,890546,2,0,L|102:293,1,47.5000018119813
267,239,890792,1,4,0:0:0:0:
267,239,890915,2,0,L|196:201,1,47.5000018119813
129,204,891161,6,0,P|118:157|144:103,1,95.0000036239625,8|0,0:0|0:0,0:0:0:0:
308,97,891530,2,0,L|199:106,1,95.0000036239625,4|0,0:0|0:0,0:0:0:0:
379,155,891899,6,0,L|402:88,2,47.5000018119813,8|0|0,0:0|0:0|0:0,0:0:0:0:
448,261,892269,2,0,L|463:305,2,47.5000018119813,4|0|0,0:0|0:0|0:0,0:0:0:0:
475,92,892638,2,0,L|490:47,2,47.5000018119813,8|0|0,0:0|0:0|0:0,0:0:0:0:
379,155,893007,6,0,B|385:145|385:145|291:185,1,95.0000036239625,4|0,0:0|0:0,0:0:0:0:
233,223,893376,1,8,0:0:0:0:
448,261,893499,1,0,0:0:0:0:
213,104,893623,1,0,0:0:0:0:
186,358,893746,6,0,B|293:316,1,106.875004076958,4|0,0:0|0:0,0:0:0:0:
364,291,894115,1,8,0:0:0:0:
162,259,894238,1,0,0:0:0:0:
445,352,894361,1,0,0:0:0:0:
448,261,894484,6,0,L|407:196,1,47.5000018119813,4|0,0:0|0:0,0:0:0:0:
312,135,894730,1,0,0:0:0:0:
364,291,894853,1,8,0:0:0:0:
404,67,894976,1,0,0:0:0:0:
350,381,895100,1,0,0:0:0:0:
338,196,895223,6,0,P|285:168|229:185,1,95.0000036239625,4|0,0:0|0:0,0:0:0:0:
44,247,895592,2,0,P|97:275|153:258,1,95.0000036239625,8|0,0:0|0:0,0:0:0:0:
158,189,895961,6,0,L|146:130,1,47.5
215,92,896145,2,0,L|203:33,1,47.5,8|0,0:0|0:0,0:0:0:0:
338,196,896330,1,0,0:0:0:0:
338,196,896422,1,0,0:0:0:0:
338,196,896514,2,0,L|397:184,1,47.5,8|0,0:0|0:0,0:0:0:0:
269,309,896699,1,0,0:0:0:0:
269,309,896791,1,0,0:0:0:0:
269,309,896883,2,0,L|210:321,1,47.5,8|0,0:0|0:0,0:0:0:0:
435,226,897068,2,0,L|412:113,1,95,0|8,0:0|0:0,0:0:0:0:
389,47,897345,5,0,0:0:0:0:
389,47,897437,6,0,L|330:59,1,47.5
399,319,897622,2,0,L|458:307,1,47.5,8|0,0:0|0:0,0:0:0:0:
295,177,897807,1,0,0:0:0:0:
295,177,897899,1,0,0:0:0:0:
295,177,897991,2,0,L|307:236,1,47.5,8|0,0:0|0:0,0:0:0:0:
512,188,898176,1,0,0:0:0:0:
512,188,898268,1,0,0:0:0:0:
512,188,898360,2,0,L|500:129,1,47.5,8|0,0:0|0:0,0:0:0:0:
425,76,898545,2,0,P|386:74|337:96,1,71.2500027179719,0|8,0:0|0:0,0:0:0:0:
304,223,898914,6,0,L|313:269,1,47.5
505,68,899099,2,0,L|495:21,1,47.5,8|0,0:0|0:0,0:0:0:0:
431,198,899284,1,0,0:0:0:0:
431,198,899376,1,0,0:0:0:0:
431,198,899468,2,0,L|372:210,1,47.5,8|0,0:0|0:0,0:0:0:0:
228,106,899653,1,0,0:0:0:0:
228,106,899745,1,0,0:0:0:0:
228,106,899837,2,0,L|287:94,1,47.5,8|0,0:0|0:0,0:0:0:0:
224,243,900022,2,0,L|130:261,1,95,0|8,0:0|0:0,0:0:0:0:
45,277,900299,5,0,0:0:0:0:
45,277,900391,6,0,L|35:230,1,47.5
115,30,900576,2,0,L|124:76,1,47.5,8|0,0:0|0:0,0:0:0:0:
48,146,900761,1,0,0:0:0:0:
48,146,900853,1,0,0:0:0:0:
48,146,900945,2,0,L|-11:158,1,47.5,8|0,0:0|0:0,0:0:0:0:
130,261,901130,5,8,0:0:0:0:
200,249,901222,1,8,0:0:0:0:
269,235,901314,1,8,0:0:0:0:
339,223,901407,1,8,0:0:0:0:
361,301,901499,5,4,0:0:0:0:
356,302,901591,1,0,0:0:0:0:
351,303,901684,1,0,0:0:0:0:
346,304,901776,1,0,0:0:0:0:
431,350,901868,6,0,L|440:303,1,47.5,4|0,0:0|0:0,0:0:0:0:
371,90,902053,2,0,L|361:136,1,47.5,8|0,0:0|0:0,0:0:0:0:
439,225,902237,1,0,0:0:0:0:
439,225,902329,1,0,0:0:0:0:
439,225,902421,2,0,L|498:237,1,47.5,8|0,0:0|0:0,0:0:0:0:
509,60,902607,1,0,0:0:0:0:
509,60,902699,1,0,0:0:0:0:
509,60,902791,2,0,L|450:48,1,47.5,8|0,0:0|0:0,0:0:0:0:
267,118,902976,2,0,L|361:136,1,95,0|8,0:0|0:0,0:0:0:0:
349,213,903253,5,0,0:0:0:0:
349,213,903345,6,0,L|340:260,1,47.5
180,120,903530,2,0,L|189:73,1,47.5,8|0,0:0|0:0,0:0:0:0:
191,208,903714,1,0,0:0:0:0:
191,208,903806,1,0,0:0:0:0:
191,208,903898,2,0,L|132:196,1,47.5,8|0,0:0|0:0,0:0:0:0:
314,44,904084,1,0,0:0:0:0:
314,44,904176,1,0,0:0:0:0:
314,44,904268,2,0,L|373:56,1,47.5,8|0,0:0|0:0,0:0:0:0:
188,73,904453,2,0,P|150:59|94:61,1,71.2500027179719,0|8,0:0|0:0,0:0:0:0:
44,101,904822,6,0,L|35:148,1,47.5
242,180,905007,2,0,L|251:133,1,47.5,8|0,0:0|0:0,0:0:0:0:
27,237,905191,1,0,0:0:0:0:
27,237,905283,1,0,0:0:0:0:
27,237,905375,2,0,L|86:249,1,47.5,8|0,0:0|0:0,0:0:0:0:
171,154,905561,1,0,0:0:0:0:
171,154,905653,1,0,0:0:0:0:
171,154,905745,2,0,L|112:142,1,47.5,8|0,0:0|0:0,0:0:0:0:
81,351,905930,2,0,L|175:369,1,95,0|8,0:0|0:0,0:0:0:0:
254,313,906207,5,0,0:0:0:0:
254,313,906299,6,0,L|263:266,1,47.5
209,31,906484,2,8,L|200:78,1,47.5,8|0,0:0|0:0,0:0:0:0:
264,170,906668,2,4,L|311:179,1,47.5,4|4,3:0|3:0,3:0:0:0:
339,34,906853,2,4,L|292:25,1,47.5,4|4,3:0|3:0,3:0:0:0:
369,113,907037,5,12,3:0:0:0:
400,118,907129,1,12,3:0:0:0:
431,124,907221,1,12,3:0:0:0:
462,130,907313,1,12,3:0:0:0:
462,224,907407,5,4,3:0:0:0:
431,229,907499,1,4,3:0:0:0:
400,235,907591,1,4,3:0:0:0:
369,241,907683,1,4,3:0:0:0:
302,341,907776,6,0,P|362:336|394:357,1,95,0|8,0:0|0:0,0:0:0:0:
202,306,908145,1,0,0:0:0:0:
167,290,908237,1,0,0:0:0:0:
132,273,908330,1,8,0:0:0:0:
330,156,908514,2,0,P|345:99|325:65,1,95,0|8,0:0|0:0,0:0:0:0:
243,237,908884,1,0,0:0:0:0:
243,237,908976,1,0,0:0:0:0:
243,237,909068,2,0,L|306:224,1,47.5,8|0,0:0|0:0,0:0:0:0:
457,277,909253,6,0,L|350:255,1,95,0|8,0:0|0:0,0:0:0:0:
38,253,909622,2,0,L|144:274,1,95,0|8,0:0|0:0,0:0:0:0:
486,264,909991,2,0,L|379:242,1,95,0|8,0:0|0:0,0:0:0:0:
117,163,910361,1,0,0:0:0:0:
93,127,910453,1,0,0:0:0:0:
95,84,910545,1,8,0:0:0:0:
120,49,910637,1,0,0:0:0:0:
162,41,910730,6,0,P|204:59|270:54,1,95,0|8,0:0|0:0,0:0:0:0:
420,27,911099,1,0,0:0:0:0:
461,36,911191,1,0,0:0:0:0:
481,73,911284,1,8,0:0:0:0:
484,115,911376,1,0,0:0:0:0:
460,150,911468,6,0,B|380:163|380:163|409:143,1,95,0|8,0:0|0:0,0:0:0:0:
355,242,911837,2,0,P|306:200|299:152,1,95,0|8,0:0|0:0,0:0:0:0:
441,251,912207,2,0,P|490:293|497:341,1,95,0|8,0:0|0:0,0:0:0:0:
341,361,912576,5,0,0:0:0:0:
298,356,912668,1,0,0:0:0:0:
255,350,912761,1,8,0:0:0:0:
203,264,912945,2,0,L|221:130,1,95,0|8,0:0|0:0,0:0:0:0:
227,87,913314,5,8,0:0:0:0:
158,106,913407,1,8,0:0:0:0:
243,89,913499,1,8,0:0:0:0:
173,31,913591,1,8,0:0:0:0:
292,156,913684,6,0,P|341:152|393:179,1,95,4|8,0:0|0:0,0:0:0:0:
203,264,914053,1,0,0:0:0:0:
163,281,914145,1,0,0:0:0:0:
123,298,914237,1,8,0:0:0:0:
433,231,914422,2,0,P|462:171|452:134,1,95,0|8,0:0|0:0,0:0:0:0:
387,57,914791,1,0,0:0:0:0:
387,57,914884,1,0,0:0:0:0:
387,57,914976,2,0,L|314:43,1,47.5,8|0,0:0|0:0,0:0:0:0:
398,318,915161,6,0,L|536:291,1,95,0|8,0:0|0:0,0:0:0:0:
281,108,915530,2,0,L|142:134,1,95,0|8,0:0|0:0,0:0:0:0:
411,328,915899,2,0,L|549:301,1,95,0|8,0:0|0:0,0:0:0:0:
260,351,916268,5,0,0:0:0:0:
217,354,916361,1,0,0:0:0:0:
175,345,916453,1,8,0:0:0:0:
141,318,916545,1,0,0:0:0:0:
133,275,916637,6,0,B|134:194|134:194|168:235,1,95,0|8,0:0|0:0,0:0:0:0:
270,243,917007,2,0,L|206:270,1,47.5
34,160,917191,2,0,L|98:133,1,47.5,8|0,0:0|0:0,0:0:0:0:
303,131,917376,2,0,P|344:176|335:236,1,95,0|8,0:0|0:0,0:0:0:0:
216,130,917745,2,0,P|234:71|290:49,1,95,0|8,0:0|0:0,0:0:0:0:
421,200,918114,2,0,P|402:258|346:280,1,95,0|8,0:0|0:0,0:0:0:0:
288,276,918391,5,8,0:0:0:0:
288,276,918484,2,8,L|224:261,1,47.5
424,123,918668,2,8,L|488:138,1,47.5
444,350,918853,5,8,3:0:0:0:
392,354,918945,1,8,3:0:0:0:
340,358,919037,1,8,3:0:0:0:
287,362,919130,1,8,3:0:0:0:
192,352,919222,2,4,L|128:337,1,47.5,4|4,3:0|3:0,3:0:0:0:
174,331,919407,2,4,L|110:316,1,47.5,4|4,3:0|3:0,3:0:0:0:
86,246,919591,5,4,0:0:0:0:
86,174,919684,1,0,0:0:0:0:
135,123,919776,1,0,0:0:0:0:
206,123,919868,1,0,0:0:0:0:
259,171,919961,1,0,0:0:0:0:
309,220,920053,1,0,0:0:0:0:
379,226,920145,1,0,0:0:0:0:
429,176,920237,1,0,0:0:0:0:
436,104,920330,1,8,0:0:0:0:
436,104,921068,5,4,0:0:0:0:
374,67,921161,1,0,0:0:0:0:
306,90,921253,1,0,0:0:0:0:
297,160,921345,1,0,0:0:0:0:
346,210,921437,1,0,0:0:0:0:
414,229,921530,1,0,0:0:0:0:
421,299,921622,1,0,0:0:0:0:
372,350,921714,1,0,0:0:0:0:
306,320,921807,1,8,0:0:0:0:
306,320,922545,5,4,0:0:0:0:
246,281,922637,1,0,0:0:0:0:
174,281,922730,1,0,0:0:0:0:
123,331,922822,1,0,0:0:0:0:
174,380,922914,1,0,0:0:0:0:
212,319,923007,1,0,0:0:0:0:
211,247,923099,1,0,0:0:0:0:
157,199,923191,1,0,0:0:0:0:
85,206,923284,1,8,0:0:0:0:
85,206,924022,5,4,0:0:0:0:
132,258,924114,1,0,0:0:0:0:
203,267,924207,1,0,0:0:0:0:
251,215,924299,1,0,0:0:0:0:
282,151,924391,1,0,0:0:0:0:
350,128,924484,1,0,0:0:0:0:
418,145,924576,1,0,0:0:0:0:
460,202,924668,1,0,0:0:0:0:
460,273,924761,1,8,0:0:0:0:
460,273,925499,5,4,0:0:0:0:
391,292,925591,1,0,0:0:0:0:
342,239,925684,1,0,0:0:0:0:
351,168,925776,1,0,0:0:0:0:
418,145,925868,1,0,0:0:0:0:
480,109,925961,1,0,0:0:0:0:
494,50,926053,1,0,0:0:0:0:
439,4,926145,1,0,0:0:0:0:
371,24,926237,1,8,0:0:0:0:
371,24,926976,5,4,0:0:0:0:
312,63,927068,1,0,0:0:0:0:
242,80,927161,1,0,0:0:0:0:
175,54,927253,1,0,0:0:0:0:
107,31,927345,1,0,0:0:0:0:
45,65,927437,1,0,0:0:0:0:
34,136,927530,1,0,0:0:0:0:
82,187,927622,1,0,0:0:0:0:
152,177,927714,1,8,0:0:0:0:
152,177,928453,5,4,0:0:0:0:
172,108,928545,1,0,0:0:0:0:
118,61,928637,1,0,0:0:0:0:
49,81,928730,1,0,0:0:0:0:
35,150,928822,1,0,0:0:0:0:
61,215,928914,1,0,0:0:0:0:
120,255,929007,1,0,0:0:0:0:
122,325,929099,1,0,0:0:0:0:
69,373,929191,1,8,0:0:0:0:
69,373,929930,5,4,0:0:0:0:
95,307,930022,1,0,0:0:0:0:
158,274,930114,1,0,0:0:0:0:
224,300,930207,1,0,0:0:0:0:
263,358,930299,1,0,0:0:0:0:
332,372,930391,1,0,0:0:0:0:
393,334,930484,1,0,0:0:0:0:
409,264,930576,1,0,0:0:0:0:
359,212,930668,5,8,0:0:0:0:
421,131,930853,5,0,0:0:0:0:
421,131,930945,1,0,0:0:0:0:
421,131,931037,2,0,L|467:120,1,47.5,8|0,0:0|0:0,0:0:0:0:
359,212,931407,6,0,P|302:214|251:189,1,95,4|8,0:0|0:0,0:0:0:0:
213,105,931776,1,0,0:0:0:0:
240,72,931868,1,0,0:0:0:0:
269,40,931961,1,8,0:0:0:0:
447,222,932145,2,0,L|436:345,1,95,0|8,0:0|0:0,0:0:0:0:
272,359,932514,1,0,0:0:0:0:
230,369,932607,1,0,0:0:0:0:
188,361,932699,1,8,0:0:0:0:
158,330,932791,1,0,0:0:0:0:
151,287,932884,6,0,B|194:217|194:217|203:260,1,95,0|8,0:0|0:0,0:0:0:0:
80,241,933253,2,0,P|30:223|4:151,1,95,0|8,0:0|0:0,0:0:0:0:
202,154,933622,2,0,P|252:172|278:244,1,95,0|8,0:0|0:0,0:0:0:0:
122,138,933991,1,0,0:0:0:0:
122,138,934084,1,0,0:0:0:0:
122,138,934176,2,0,L|47:129,1,47.5,8|0,0:0|0:0,0:0:0:0:
192,61,934361,6,0,L|300:73,1,95,0|8,0:0|0:0,0:0:0:0:
424,164,934730,1,0,0:0:0:0:
451,131,934822,1,0,0:0:0:0:
478,98,934914,1,8,0:0:0:0:
366,24,935099,1,0,0:0:0:0:
480,251,935284,1,8,0:0:0:0:
478,98,935468,1,0,0:0:0:0:
431,328,935653,1,8,0:0:0:0:
480,251,935837,6,0,L|371:238,1,95,0|8,0:0|0:0,0:0:0:0:
228,218,936207,1,0,0:0:0:0:
219,176,936299,1,0,0:0:0:0:
210,134,936391,1,8,0:0:0:0:
250,306,936576,2,0,L|344:317,1,95,0|8,0:0|0:0,0:0:0:0:
148,345,936945,1,0,0:0:0:0:
139,303,937037,1,0,0:0:0:0:
130,261,937129,1,8,0:0:0:0:
105,136,937314,6,0,B|56:136|56:136|5:148,1,95,4|8,0:0|0:0,0:0:0:0:
228,218,937684,1,0,0:0:0:0:
270,211,937776,1,0,0:0:0:0:
312,205,937868,1,8,0:0:0:0:
388,113,938053,2,0,L|372:19,1,95,0|8,0:0|0:0,0:0:0:0:
285,91,938422,1,0,0:0:0:0:
285,91,938514,1,0,0:0:0:0:
285,91,938607,2,0,L|210:101,1,47.5,8|0,0:0|0:0,0:0:0:0:
286,295,938791,6,0,L|400:276,1,95,0|8,0:0|0:0,0:0:0:0:
500,257,939161,1,0,0:0:0:0:
458,368,939345,1,8,0:0:0:0:
228,218,939530,2,0,L|342:199,1,95,0|8,0:0|0:0,0:0:0:0:
461,178,939899,1,0,0:0:0:0:
487,139,939991,1,0,0:0:0:0:
490,91,940084,1,8,0:0:0:0:
464,51,940176,1,0,0:0:0:0:
419,33,940268,6,0,L|305:52,1,95,0|8,0:0|0:0,0:0:0:0:
142,187,940637,1,0,1:0:0:0:
135,145,940729,1,0,1:0:0:0:
129,103,940821,1,8,1:0:0:0:
321,202,941007,2,0,P|341:257|323:312,1,95,0|8,0:0|0:0,0:0:0:0:
161,327,941376,1,0,1:0:0:0:
119,333,941468,1,0,1:0:0:0:
77,340,941560,1,8,1:0:0:0:
262,138,941745,6,0,B|309:121|309:121|367:124,1,95,0|8,0:0|0:0,0:0:0:0:
456,173,942114,1,0,1:0:0:0:
463,215,942206,1,0,1:0:0:0:
469,257,942298,1,8,1:0:0:0:
398,349,942484,2,0,B|351:366|351:366|293:363,1,95,0|8,0:0|0:0,0:0:0:0:
161,327,942853,2,0,L|92:340,2,47.5,0|0|8,0:0|0:0|0:0,0:0:0:0:
57,246,943222,5,4,0:0:0:0:
74,172,943314,1,0,0:0:0:0:
144,141,943407,1,0,0:0:0:0:
212,172,943499,1,0,0:0:0:0:
262,228,943591,1,0,0:0:0:0:
338,236,943684,1,0,0:0:0:0:
392,183,943776,1,0,0:0:0:0:
396,107,943868,1,0,0:0:0:0:
333,62,943961,1,8,0:0:0:0:
333,62,944699,5,4,0:0:0:0:
270,104,944791,1,0,0:0:0:0:
194,117,944884,1,0,0:0:0:0:
120,99,944976,1,0,0:0:0:0:
64,47,945068,1,0,0:0:0:0:
134,75,945161,1,0,0:0:0:0:
144,150,945253,1,0,0:0:0:0:
106,215,945345,1,0,0:0:0:0:
32,232,945437,1,8,0:0:0:0:
32,232,946176,5,4,0:0:0:0:
89,182,946268,1,0,0:0:0:0:
165,182,946361,1,0,0:0:0:0:
216,237,946453,1,0,0:0:0:0:
242,307,946545,1,0,0:0:0:0:
303,351,946637,1,0,0:0:0:0:
378,362,946730,1,0,0:0:0:0:
452,345,946822,1,0,0:0:0:0:
494,282,946914,1,8,0:0:0:0:
494,282,947653,5,4,0:0:0:0:
467,210,947745,1,0,0:0:0:0:
399,175,947837,1,0,0:0:0:0:
322,175,947930,1,0,0:0:0:0:
271,231,948022,1,0,0:0:0:0:
206,271,948114,1,0,0:0:0:0:
129,269,948207,1,0,0:0:0:0:
61,233,948299,1,0,0:0:0:0:
50,157,948391,5,8,0:0:0:0:
104,361,948760,1,8,0:0:0:0:
50,157,949130,5,4,0:0:0:0:
98,92,949222,1,0,0:0:0:0:
178,95,949314,1,0,0:0:0:0:
232,155,949407,1,0,0:0:0:0:
295,203,949499,1,0,0:0:0:0:
375,207,949591,1,0,0:0:0:0:
445,167,949684,1,0,0:0:0:0:
470,91,949776,1,0,0:0:0:0:
434,19,949868,1,8,0:0:0:0:
434,19,950607,5,4,0:0:0:0:
352,16,950700,1,0,0:0:0:0:
324,91,950792,1,0,0:0:0:0:
361,162,950884,1,0,0:0:0:0:
437,189,950977,1,0,0:0:0:0:
480,256,951069,1,0,0:0:0:0:
457,333,951161,1,0,0:0:0:0:
379,356,951254,1,0,0:0:0:0:
325,296,951346,1,8,0:0:0:0:
325,296,952083,5,4,0:0:0:0:
253,257,952176,1,0,0:0:0:0:
173,247,952268,1,0,0:0:0:0:
99,279,952360,1,0,0:0:0:0:
63,351,952453,1,0,0:0:0:0:
131,308,952545,1,0,0:0:0:0:
153,230,952637,1,0,0:0:0:0:
125,154,952729,1,0,0:0:0:0:
51,120,952822,1,8,0:0:0:0:
51,120,953561,5,4,0:0:0:0:
92,189,953654,1,0,0:0:0:0:
169,210,953746,1,0,0:0:0:0:
242,176,953838,1,0,0:0:0:0:
293,113,953930,1,0,0:0:0:0:
366,77,954023,1,0,0:0:0:0:
443,99,954115,1,0,0:0:0:0:
493,161,954207,1,0,0:0:0:0:
485,241,954300,1,8,0:0:0:0:
462,323,954484,5,0,0:0:0:0:
462,323,954576,1,0,0:0:0:0:
462,323,954668,1,8,0:0:0:0:
462,323,955037,6,0,P|410:309|346:336,1,95,0|8,0:0|0:0,0:0:0:0:
193,366,955407,1,0,0:0:0:0:
148,348,955499,1,0,0:0:0:0:
103,331,955591,1,8,0:0:0:0:
297,357,955776,2,0,L|293:259,1,95,0|8,0:0|0:0,0:0:0:0:
287,133,956145,1,0,0:0:0:0:
258,95,956237,1,0,0:0:0:0:
211,82,956330,1,8,0:0:0:0:
165,96,956422,1,0,0:0:0:0:
135,132,956514,6,0,P|89:145|42:140,1,95,0|8,0:0|0:0,0:0:0:0:
110,31,956884,2,0,L|164:10,1,47.5
116,233,957068,2,0,L|62:254,1,47.5,8|0,0:0|0:0,0:0:0:0:
200,264,957253,6,0,P|269:269|304:257,1,95,0|8,0:0|0:0,0:0:0:0:
413,200,957622,1,8,0:0:0:0:
444,164,957714,1,8,0:0:0:0:
450,116,957807,1,8,0:0:0:0:
430,72,957899,1,8,0:0:0:0:
393,41,957991,6,0,P|349:52|273:25,1,95,4|8,0:0|0:0,0:0:0:0:
134,107,958360,1,0,0:0:0:0:
144,60,958453,1,0,0:0:0:0:
154,13,958545,1,8,0:0:0:0:
306,193,958730,6,0,L|328:298,1,95,0|8,0:0|0:0,0:0:0:0:
114,199,959099,2,0,L|133:106,1,95,0|8,0:0|0:0,0:0:0:0:
378,106,959468,2,0,L|398:199,1,95,0|8,0:0|0:0,0:0:0:0:
411,334,959837,1,0,0:0:0:0:
376,367,959930,1,0,0:0:0:0:
329,377,960022,1,8,0:0:0:0:
283,365,960114,1,0,0:0:0:0:
248,331,960207,2,0,B|228:254|228:254|251:273,1,95,0|8,0:0|0:0,0:0:0:0:
148,348,960576,6,0,L|83:339,1,47.5
276,186,960760,2,0,L|341:195,1,47.5,8|0,0:0|0:0,0:0:0:0:
66,263,960945,6,0,P|57:207|83:159,1,95,4|8,0:0|0:0,0:0:0:0:
209,102,961314,1,0,0:0:0:0:
256,94,961407,1,0,0:0:0:0:
302,86,961499,1,8,0:0:0:0:
129,35,961684,2,0,L|24:56,1,95,0|8,0:0|0:0,0:0:0:0:
177,213,962053,1,0,0:0:0:0:
217,237,962145,1,0,0:0:0:0:
264,240,962237,1,8,0:0:0:0:
310,227,962330,1,0,0:0:0:0:
345,195,962422,6,0,B|389:132|389:132|339:152,1,95,0|8,0:0|0:0,0:0:0:0:
302,316,962791,2,0,P|349:364|397:369,1,95,0|8,0:0|0:0,0:0:0:0:
452,118,963160,2,0,P|405:70|357:65,1,95,0|8,0:0|0:0,0:0:0:0:
384,292,963530,1,0,0:0:0:0:
430,298,963622,1,0,0:0:0:0:
476,305,963714,1,8,0:0:0:0:
297,130,963899,6,0,L|199:118,1,95,0|8,0:0|0:0,0:0:0:0:
62,167,964268,1,0,0:0:0:0:
26,198,964360,1,0,0:0:0:0:
15,244,964453,1,8,0:0:0:0:
26,289,964545,1,0,0:0:0:0:
60,321,964637,6,0,P|124:341|162:330,1,95,0|8,0:0|0:0,0:0:0:0:
120,104,965007,2,0,P|56:84|18:95,1,95,0|8,0:0|0:0,0:0:0:0:
233,310,965376,2,0,L|272:243,1,47.5
339,334,965560,5,8,0:0:0:0:
409,320,965653,1,8,0:0:0:0:
461,272,965745,1,8,0:0:0:0:
471,201,965837,1,8,0:0:0:0:
442,135,965930,1,8,0:0:0:0:
377,105,966022,1,8,0:0:0:0:
325,184,966114,6,4,L|388:178,1,47.5,4|4,0:3|0:3,0:3:0:0:
485,51,966299,2,4,L|422:57,1,47.5,4|4,0:3|0:3,0:3:0:0:
207,156,966484,2,8,L|270:150,1,47.5,8|8,0:3|0:3,0:3:0:0:
367,23,966669,2,8,L|304:29,1,47.5,8|8,0:3|0:3,0:3:0:0:
68,165,966853,5,4,0:0:0:0:
47,218,966945,1,0,0:0:0:0:
52,274,967037,1,8,0:0:0:0:
79,324,967130,1,0,0:0:0:0:
130,348,967222,1,0,0:0:0:0:
186,344,967314,1,0,0:0:0:0:
232,310,967407,6,0,L|257:247,1,47.5,12|0,0:0|0:0,0:0:0:0:
224,111,967591,2,0,L|206:155,1,47.5,4|0,0:0|0:0,0:0:0:0:
341,239,967776,1,8,0:0:0:0:
392,262,967868,1,0,0:0:0:0:
447,249,967960,2,0,L|472:186,1,47.5,4|0,0:0|0:0,0:0:0:0:
505,317,968145,2,0,L|480:380,1,47.5,12|0,0:0|0:0,0:0:0:0:
375,121,968330,6,0,L|419:138,1,47.5,4|0,0:0|0:0,0:0:0:0:
391,362,968514,1,8,0:0:0:0:
391,362,968607,1,0,0:0:0:0:
391,362,968699,2,0,L|346:344,1,47.5,4|0,0:0|0:0,0:0:0:0:
224,111,968884,1,8,0:0:0:0:
224,111,968977,1,0,0:0:0:0:
224,111,969069,2,0,L|269:129,1,47.5,4|0,0:0|0:0,0:0:0:0:
194,228,969253,5,8,0:0:0:0:
145,198,969345,1,0,0:0:0:0:
115,149,969437,1,0,0:0:0:0:
113,91,969530,1,0,0:0:0:0:
134,38,969622,1,8,0:0:0:0:
181,7,969714,1,0,0:0:0:0:
238,4,969807,6,0,L|283:22,1,47.5,4|0,0:0|0:0,0:0:0:0:
309,268,969991,1,8,0:0:0:0:
276,315,970084,1,0,0:0:0:0:
227,344,970176,1,0,0:0:0:0:
170,343,970268,1,0,0:0:0:0:
118,319,970360,6,0,L|91:265,1,47.5,12|0,0:0|0:0,0:0:0:0:
379,207,970545,2,0,L|406:261,1,47.5,4|0,0:0|0:0,0:0:0:0:
287,159,970730,1,8,0:0:0:0:
316,110,970822,1,0,0:0:0:0:
371,97,970914,2,0,L|429:102,1,47.5,4|0,0:0|0:0,0:0:0:0:
196,195,971099,2,0,L|137:189,1,47.5,12|0,0:0|0:0,0:0:0:0:
507,112,971284,6,0,L|502:159,1,47.5,4|0,0:0|0:0,0:0:0:0:
283,206,971468,1,8,0:0:0:0:
283,206,971560,1,0,0:0:0:0:
283,206,971653,2,0,L|287:158,1,47.5,4|0,0:0|0:0,0:0:0:0:
423,53,971837,1,8,0:0:0:0:
423,53,971929,1,0,0:0:0:0:
423,53,972022,2,0,L|418:100,1,47.5,4|0,0:0|0:0,0:0:0:0:
399,308,972207,5,8,0:0:0:0:
363,352,972299,1,0,0:0:0:0:
308,367,972391,1,0,0:0:0:0:
250,360,972484,1,0,0:0:0:0:
198,335,972576,1,8,0:0:0:0:
166,287,972668,1,0,0:0:0:0:
164,230,972760,6,0,L|168:182,1,47.5,4|0,0:0|0:0,0:0:0:0:
309,99,972945,1,8,0:0:0:0:
356,67,973037,1,0,0:0:0:0:
413,63,973130,1,0,0:0:0:0:
464,87,973222,1,0,0:0:0:0:
489,137,973314,6,0,L|485:185,1,47.5,12|0,0:0|0:0,0:0:0:0:
178,98,973499,2,0,L|182:50,1,47.5,4|0,0:0|0:0,0:0:0:0:
375,176,973684,1,8,0:0:0:0:
387,231,973776,1,0,0:0:0:0:
360,281,973868,2,0,L|312:277,1,47.5,4|0,0:0|0:0,0:0:0:0:
413,63,974053,2,0,L|461:67,1,47.5,12|0,0:0|0:0,0:0:0:0:
289,168,974237,6,0,L|241:164,1,47.5,4|0,0:0|0:0,0:0:0:0:
156,126,974422,1,8,0:0:0:0:
156,126,974514,1,0,0:0:0:0:
156,126,974607,2,0,L|160:78,1,47.5,4|0,0:0|0:0,0:0:0:0:
227,285,974791,1,8,0:0:0:0:
227,285,974883,1,0,0:0:0:0:
227,285,974976,6,0,L|223:333,1,47.5,4|0,0:0|0:0,0:0:0:0:
100,308,975160,1,8,0:0:0:0:
52,275,975253,1,0,0:0:0:0:
34,220,975345,5,0,0:0:0:0:
37,163,975437,1,0,0:0:0:0:
75,120,975530,1,8,0:0:0:0:
130,108,975622,1,0,0:0:0:0:
182,130,975714,6,0,L|208:195,3,47.5,4|0|8|0,0:0|0:0|0:0|0:0,0:0:0:0:
297,67,976084,2,0,L|271:2,3,47.5,4|0|8|0,0:0|0:0|0:0|0:0,0:0:0:0:
454,75,976453,5,4,0:0:0:0:
407,107,976545,1,0,0:0:0:0:
397,162,976637,1,8,0:0:0:0:
409,218,976730,1,0,0:0:0:0:
451,256,976822,5,4,0:0:0:0:
461,311,976914,1,0,0:0:0:0:
430,359,977007,1,8,0:0:0:0:
374,372,977099,1,0,0:0:0:0:
342,324,977191,6,0,L|330:250,1,47.5,4|0,0:0|0:0,0:0:0:0:
252,348,977376,5,8,0:0:0:0:
229,285,977468,1,8,0:0:0:0:
171,252,977560,1,8,0:0:0:0:
104,255,977653,1,8,0:0:0:0:
53,298,977745,1,8,0:0:0:0:
37,362,977837,1,8,0:0:0:0:
111,305,977930,5,4,3:0:0:0:
92,302,978022,1,4,3:0:0:0:
73,300,978114,1,4,3:0:0:0:
53,298,978207,1,4,3:0:0:0:
37,362,978299,5,8,0:0:0:0:
95,322,978391,1,8,0:0:0:0:
119,254,978484,1,8,0:0:0:0:
96,186,978576,1,8,0:0:0:0:
32,155,978668,1,4,0:0:0:0:
98,92,989007,6,0,B|68:76|68:76|70:124|70:124|172:102|172:102|210:117|210:117|263:132|316:100,1,332.5,4|0,0:0|0:0,0:0:0:0:
390,57,989745,1,0,0:0:0:0:
390,57,989837,2,0,L|398:3,1,47.5,0|8,0:0|0:0,0:0:0:0:
440,167,990115,1,0,0:0:0:0:
440,167,990207,2,0,L|448:113,1,47.5,0|8,0:0|0:0,0:0:0:0:
296,231,990484,5,0,0:0:0:0:
296,231,990576,2,0,L|304:177,1,47.5,0|8,0:0|0:0,0:0:0:0:
346,341,990853,1,0,0:0:0:0:
346,341,990945,2,0,L|354:287,1,47.5,0|8,0:0|0:0,0:0:0:0:
197,256,991222,5,0,0:0:0:0:
197,256,991314,2,0,L|150:249,1,47.5,0|8,0:0|0:0,0:0:0:0:
104,361,991591,1,0,0:0:0:0:
85,357,991684,1,0,0:0:0:0:
66,353,991776,1,8,0:0:0:0:
47,350,991868,1,0,0:0:0:0:
28,347,991960,5,4,0:0:0:0:
242,147,992333,1,4,0:0:0:0:
97,145,992707,1,4,0:0:0:0:
273,251,993081,1,4,0:0:0:0:
312,55,993455,5,4,0:0:0:0:
106,306,994202,5,4,0:0:0:0:
379,231,994950,6,0,L|391:75,1,139.333337585449,12|0,0:0|0:0,0:0:0:0:
402,15,995698,5,4,0:0:0:0:
445,275,995947,1,4,0:0:0:0:
496,135,996196,1,4,0:0:0:0:
445,275,996445,6,0,P|378:252|290:287,1,139.333337585449,12|0,0:0|0:0,0:0:0:0:
260,342,997193,5,4,0:0:0:0:
36,307,997442,1,4,0:0:0:0:
313,268,997692,1,4,0:0:0:0:
88,217,997941,6,0,P|78:155|107:103,1,95,4|8,0:0|0:0,0:0:0:0:
203,64,998306,1,0,0:0:0:0:
231,62,998398,1,0,0:0:0:0:
259,60,998489,1,8,0:0:0:0:
333,174,998672,1,0,0:0:0:0:
355,17,998855,1,8,0:0:0:0:
471,131,999038,2,0,P|432:109|368:118,1,95,0|8,0:0|0:0,0:0:0:0:
437,304,999404,6,0,L|459:209,1,95,0|8,0:0|0:0,0:0:0:0:
315,276,999770,1,0,0:0:0:0:
287,269,999861,1,0,0:0:0:0:
260,262,999953,1,8,0:0:0:0:
105,227,1000136,2,0,P|80:273|91:335,1,95,0|8,0:0|0:0,0:0:0:0:
194,203,1000501,1,8,0:0:0:0:
238,174,1000593,1,8,0:0:0:0:
260,126,1000684,1,8,0:0:0:0:
253,74,1000776,1,8,0:0:0:0:
214,38,1000867,5,4,0:0:0:0:
240,71,1000959,1,0,0:0:0:0:
279,86,1001051,1,8,0:0:0:0:
320,76,1001143,1,0,0:0:0:0:
351,47,1001235,1,0,0:0:0:0:
391,33,1001327,1,0,0:0:0:0:
432,41,1001419,1,8,0:0:0:0:
463,69,1001511,1,0,0:0:0:0:
471,110,1001603,6,0,L|428:184,1,47.5
494,213,1001787,2,0,L|451:287,1,47.5,8|0,0:0|0:0,0:0:0:0:
386,223,1001971,1,0,0:0:0:0:
386,223,1002063,1,0,0:0:0:0:
386,223,1002155,2,0,L|362:181,1,47.5,8|0,0:0|0:0,0:0:0:0:
347,339,1002339,5,0,0:0:0:0:
315,303,1002431,1,0,0:0:0:0:
268,294,1002523,1,8,0:0:0:0:
222,306,1002615,1,0,0:0:0:0:
186,337,1002707,1,0,0:0:0:0:
142,356,1002799,1,0,0:0:0:0:
94,354,1002891,1,8,0:0:0:0:
51,332,1002983,1,0,0:0:0:0:
25,291,1003075,5,0,0:0:0:0:
30,243,1003167,1,0,0:0:0:0:
63,209,1003259,1,8,0:0:0:0:
109,197,1003351,1,0,0:0:0:0:
149,221,1003443,6,8,L|160:295,1,47.5
212,154,1003627,2,8,L|201:80,1,47.5
305,258,1003811,5,0,0:0:0:0:
344,284,1003903,1,0,0:0:0:0:
391,287,1003995,1,8,0:0:0:0:
433,266,1004087,1,0,0:0:0:0:
460,227,1004179,1,0,0:0:0:0:
462,179,1004271,1,0,0:0:0:0:
440,136,1004363,1,8,0:0:0:0:
398,112,1004455,1,0,0:0:0:0:
350,107,1004547,6,0,L|295:175,1,47.5
275,39,1004732,2,0,L|330:-29,1,47.5,8|0,0:0|0:0,0:0:0:0:
173,37,1004916,1,0,0:0:0:0:
173,37,1005008,1,0,0:0:0:0:
173,37,1005100,2,0,L|118:105,1,47.5,8|0,0:0|0:0,0:0:0:0:
41,183,1005284,5,0,0:0:0:0:
81,158,1005376,1,0,0:0:0:0:
127,167,1005468,1,8,0:0:0:0:
164,195,1005560,1,0,0:0:0:0:
175,241,1005652,1,0,0:0:0:0:
167,287,1005744,1,0,0:0:0:0:
135,322,1005836,1,8,0:0:0:0:
90,338,1005928,1,0,0:0:0:0:
44,324,1006020,5,0,0:0:0:0:
79,292,1006112,1,0,0:0:0:0:
126,285,1006204,1,8,0:0:0:0:
171,299,1006296,1,0,0:0:0:0:
197,338,1006388,5,8,0:0:0:0:
249,376,1006480,1,8,0:0:0:0:
310,381,1006572,1,8,0:0:0:0:
365,354,1006664,1,8,0:0:0:0:
387,296,1006756,5,4,0:0:0:0:
377,249,1006848,1,0,0:0:0:0:
339,219,1006940,1,8,0:0:0:0:
291,215,1007032,1,0,0:0:0:0:
245,227,1007124,1,0,0:0:0:0:
198,235,1007216,1,0,0:0:0:0:
156,212,1007308,1,8,0:0:0:0:
137,168,1007400,1,0,0:0:0:0:
145,121,1007492,6,0,L|200:71,1,47.5,4|0,0:0|0:0,0:0:0:0:
40,115,1007676,2,0,L|-15:165,1,47.5,12|0,0:0|0:0,0:0:0:0:
242,42,1007860,1,0,0:0:0:0:
242,42,1007952,1,0,0:0:0:0:
242,42,1008044,2,0,L|297:-8,1,47.5,12|0,0:0|0:0,0:0:0:0:
344,80,1008228,5,4,0:0:0:0:
395,87,1008320,1,0,0:0:0:0:
437,118,1008413,1,8,0:0:0:0:
458,165,1008505,1,0,0:0:0:0:
455,217,1008597,1,0,0:0:0:0:
425,259,1008689,1,0,0:0:0:0:
376,278,1008781,1,8,0:0:0:0:
323,281,1008873,1,0,0:0:0:0:
278,251,1008965,6,0,L|261:186,1,47.5,4|0,0:0|0:0,0:0:0:0:
177,321,1009149,2,0,L|189:366,1,47.5,12|0,0:0|0:0,0:0:0:0:
69,266,1009333,1,0,0:0:0:0:
69,266,1009425,1,0,0:0:0:0:
69,266,1009517,2,0,L|52:201,1,47.5,12|0,0:0|0:0,0:0:0:0:
9,148,1009701,6,0,L|74:131,1,47.5,12|0,0:0|0:0,0:0:0:0:
311,193,1009885,2,0,L|246:210,1,47.5,8|0,0:0|0:0,0:0:0:0:
26,129,1010069,6,0,L|91:112,1,47.5,8|0,0:0|0:0,0:0:0:0:
328,174,1010253,2,0,L|263:191,1,47.5,8|0,0:0|0:0,0:0:0:0:
136,69,1010437,6,0,L|119:4,1,47.5,8|0,0:0|0:0,0:0:0:0:
413,154,1010621,2,0,L|430:219,1,47.5,8|0,0:0|0:0,0:0:0:0:
150,52,1010805,6,0,L|133:-13,1,47.5,8|0,0:0|0:0,0:0:0:0:
427,137,1010989,2,0,L|444:202,1,47.5,8|0,0:0|0:0,0:0:0:0:
200,268,1011173,6,0,L|154:280,1,47.5,8|0,0:0|0:0,0:0:0:0:
397,59,1011357,2,0,L|442:46,1,47.5,8|0,0:0|0:0,0:0:0:0:
175,253,1011541,6,0,L|129:265,1,47.5,8|0,0:0|0:0,0:0:0:0:
372,44,1011725,2,0,L|417:31,1,47.5,8|0,0:0|0:0,0:0:0:0:
74,195,1011909,6,0,L|61:149,1,47.5,8|0,0:0|0:0,0:0:0:0:
462,258,1012093,2,0,L|474:303,1,47.5,8|0,0:0|0:0,0:0:0:0:
48,176,1012278,6,0,L|35:130,1,47.5,8|0,0:0|0:0,0:0:0:0:
436,239,1012462,2,0,L|448:284,1,47.5,8|0,0:0|0:0,0:0:0:0:
338,283,1012646,5,12,0:0:0:0:
256,192,1012743,12,0,1013328,0:0:0:0:
83,172,1013425,5,4,0:0:0:0:
256,192,1013522,12,0,1014107,0:0:0:0:
452,98,1014204,5,4,0:0:0:0:
