osu file format v14

[General]
AudioFilename: audio.mp3
AudioLeadIn: 0
PreviewTime: 150920
Countdown: 0
SampleSet: Drum
StackLeniency: 0.5
Mode: 0
LetterboxInBreaks: 0
WidescreenStoryboard: 1

[Editor]
Bookmarks: 610,19744,29018,37509,38721,43557,48333,53027,57698,77104,79993,115588,117983,122795,127535,132323,155025,171230,174194
DistanceSpacing: 1.1
BeatDivisor: 4
GridSize: 32
TimelineZoom: 2.699999

[Metadata]
Title:Behold, The Armies Of War Descend Screaming From The Heavens! (Cut Ver.)
TitleUnicode:Behold, The Armies Of War Descend Screaming From The Heavens! (Cut Ver.)
Artist:Bal-Sagoth
ArtistUnicode:Bal-Sagoth
Creator:Gabdu09
Version:Hard
Source:
Tags:the power cosmic symphonic epic dark black metal fantasy literature science fiction nuclear blast english
BeatmapID:2809460
BeatmapSetID:1348191

[Difficulty]
HPDrainRate:4
CircleSize:3.5
OverallDifficulty:7
ApproachRate:8.2
SliderMultiplier:1.3
SliderTickRate:1

[Events]
//Background and Video events
0,0,"artwork-fantasy-art-fantasy-city-1658419-wallhere.com.jpg",0,0
//Break Periods
//Storyboard Layer 0 (Background)
//Storyboard Layer 1 (Fail)
//Storyboard Layer 2 (Pass)
//Storyboard Layer 3 (Foreground)
//Storyboard Layer 4 (Overlay)
//Storyboard Sound Samples

[TimingPoints]
-551,299.625468164794,4,3,5,60,1,0
-551,-100,4,3,5,60,0,0
645,-333.333333333333,4,3,5,60,0,0
2742,-100,4,3,5,60,0,0
3042,-333.333333333333,4,3,5,60,0,0
5139,-100,4,3,5,60,0,0
5441,297.766749379653,4,3,5,60,1,0
5441,-333.333333333333,4,3,5,60,0,0
6332,-100,4,3,5,60,0,0
6630,-333.333333333333,4,3,5,60,0,0
9905,-100,4,3,5,60,0,0
10205,299.25187032419,4,3,5,60,1,0
10205,-333.333333333333,4,3,5,60,0,0
12297,-100,4,3,5,60,0,0
12597,-333.333333333333,4,3,5,60,0,0
14691,-100,4,3,5,60,0,0
14991,-333.333333333333,4,3,5,60,0,0
15888,-100,4,3,5,60,0,0
16190,307.29833546735,4,3,5,60,1,0
16190,-333.333333333333,4,3,5,60,0,0
17111,276.497695852535,4,3,5,60,1,0
17387,299.925018745314,4,3,5,60,1,0
17387,-333.333333333333,4,3,5,60,0,0
19781,272.727272727273,4,3,5,60,1,0
19781,-100,4,3,5,60,0,0
20053,287.08133971292,4,3,5,60,1,0
20053,-100,4,3,5,60,0,0
20914,285.714285714287,4,3,5,60,1,0
20914,-100,4,3,5,60,0,0
22073,289.855072463769,4,3,5,60,1,0
22073,-100,4,3,5,60,0,0
22360,-100,4,3,6,60,0,0
24389,-100,4,3,5,60,0,0
26714,292.682926829269,4,3,5,60,1,0
26714,-100,4,3,5,60,0,0
27004,-100,4,3,6,60,0,0
27882,-100,4,3,5,60,0,0
29055,326.086956521739,4,3,6,40,1,0
29055,-133.333333333333,4,3,6,30,0,0
30359,312.5,4,3,6,30,1,0
30359,-133.333333333333,4,3,6,30,0,0
31296,260.869565217391,4,3,6,40,1,0
31296,-100,4,3,6,40,0,0
31556,304.568527918782,4,3,6,30,1,0
31556,-135.135135135135,4,3,6,30,0,0
32012,314.13612565445,4,3,6,40,1,0
32012,-100,4,3,6,40,0,0
32483,266.666666666667,4,3,6,40,1,0
32483,-100,4,3,6,40,0,0
32749,324.324324324324,4,3,6,30,1,0
32749,-133.333333333333,4,3,6,30,0,0
33892,303.030303030303,4,3,5,60,1,0
33892,-111.111111111111,4,3,5,60,0,0
34500,283.018867924528,4,3,5,60,1,0
34500,-111.111111111111,4,3,5,60,0,0
35066,307.692307692308,4,3,5,60,1,0
35066,-100,4,3,5,60,0,0
35681,310.880829015544,4,3,5,60,1,0
35681,-111.111111111111,4,3,5,60,0,0
35834,-111.111111111111,4,3,5,25,0,0
36302,310.880829015544,4,3,5,25,1,0
36302,-111.111111111111,4,3,5,25,0,0
37546,303.030303030303,4,3,5,25,1,0
37546,-166.666666666667,4,3,5,25,0,0
38758,-100,4,3,5,25,0,0
42394,300,4,3,5,25,1,0
42394,-166.666666666667,4,3,5,25,0,0
43594,298.507462686567,4,3,5,25,1,0
43594,-100,4,3,5,25,0,0
45532,-125,4,3,5,25,0,0
45980,-100,4,3,5,25,0,0
47174,-166.666666666667,4,3,5,25,0,0
48370,293.398533007335,4,3,5,25,1,0
48370,-100,4,3,5,25,0,0
51888,-166.666666666667,4,3,5,25,0,0
53064,292.682926829268,4,3,5,30,1,0
53064,-90.9090909090909,4,3,5,30,0,0
55405,291.26213592233,4,3,5,50,1,0
55405,-90.9090909090909,4,3,5,50,0,0
56568,-90.9090909090909,4,3,5,60,0,0
57735,301.507537688442,4,3,5,60,1,0
57735,-100,4,3,5,60,0,0
67383,306.122448979592,4,3,5,60,1,0
67383,-90.9090909090909,4,3,5,60,0,0
71896,-90.9090909090909,4,3,5,5,0,0
71972,-90.9090909090909,4,3,5,60,0,0
72280,301.507537688442,4,3,5,60,1,0
72280,-83.3333333333333,4,3,5,60,0,0
73107,-83.3333333333333,4,3,5,5,0,0
73182,-83.3333333333333,4,3,5,60,0,0
74690,-76.9230769230769,4,3,5,60,0,0
74916,-100,4,3,5,5,0,0
74991,-76.9230769230769,4,3,5,60,0,0
75896,-66.6666666666667,4,3,5,60,0,0
77104,292.682926829268,4,3,5,60,1,1
77104,-90.9090909090909,4,3,5,60,0,1
82079,300,4,3,5,60,1,1
82079,-100,4,3,5,60,0,1
82379,304.568527918782,4,3,5,60,1,1
82379,-90.9090909090909,4,3,5,60,0,1
82998,304.568527918782,4,3,5,60,1,1
82998,-90.9090909090909,4,3,5,60,0,1
83607,309.278350515464,4,3,5,60,1,1
83607,-90.9090909090909,4,3,5,60,0,1
84225,292.682926829268,4,3,5,60,1,1
84225,-90.9090909090909,4,3,5,60,0,1
85671,-74.0740740740741,4,3,5,60,0,1
85964,-90.9090909090909,4,3,7,60,0,1
86256,-111.111111111111,4,3,7,60,0,1
86573,294.117647058822,4,3,6,60,1,0
86573,-100,4,3,6,60,0,0
88925,297.029702970295,4,3,6,60,1,0
88925,-100,4,3,6,60,0,0
91317,299.999999999998,4,3,5,60,1,1
91317,-90.9090909090909,4,3,5,60,0,1
92516,312.499999999998,4,3,5,60,1,1
92516,-90.9090909090909,4,3,5,60,0,1
93141,299.999999999999,4,3,5,60,1,1
93141,-90.9090909090909,4,3,5,60,0,1
93741,299.999999999999,4,3,5,60,1,1
93741,-90.9090909090909,4,3,5,60,0,1
94941,304.56852791878,4,3,5,60,1,1
94941,-90.9090909090909,4,3,5,60,0,1
95538,-111.111111111111,4,3,5,60,0,1
95842,-142.857142857143,4,3,7,60,0,1
96190,297.766749379653,4,3,5,60,1,0
97381,306.122448979592,4,3,5,60,1,0
99217,297.029702970297,4,3,5,60,1,0
99811,307.692307692308,4,3,5,60,1,0
100426,297.029702970297,4,3,5,60,1,0
100426,-100,4,3,5,60,0,0
101020,304.568527918782,4,3,5,60,1,0
101020,-100,4,3,5,60,0,0
103456,294.117647058824,4,3,5,60,1,0
103456,-117.647058823529,4,3,5,60,0,0
104074,288.461538461538,4,3,5,60,1,0
104074,-100,4,3,5,60,0,0
104506,292.682926829268,4,3,5,60,1,0
104506,-100,4,3,5,60,0,0
104652,298.507462686567,4,3,5,60,1,0
104652,-117.647058823529,4,3,5,60,0,0
105273,285.714285714286,4,3,5,60,1,0
105846,309.278350515464,4,3,5,60,1,0
106464,300,4,3,5,60,1,0
107664,309.278350515464,4,3,5,60,1,0
108282,296.296296296296,4,3,5,60,1,0
109490,295.566502463054,4,3,5,60,1,0
110670,309.278350515464,4,3,5,60,1,0
111288,315.789473684211,4,3,5,60,1,0
111919,306.122448979592,4,3,5,60,1,0
112531,279.06976744186,4,3,5,60,1,0
112531,-100,4,3,5,60,0,0
113089,304.568527918782,4,3,5,60,1,0
113089,-117.647058823529,4,3,5,60,0,0
113743,300.751879699248,4,3,5,60,1,0
113743,-100,4,3,5,60,0,0
114344,304.568527918782,4,3,5,60,1,0
114344,-117.647058823529,4,3,5,60,0,0
114978,300,4,3,5,60,1,0
115588,307.692307692308,4,3,5,60,1,0
115588,-166.666666666667,4,3,5,60,0,0
115895,-166.666666666667,4,3,5,25,0,0
116818,303.030303030303,4,3,5,25,1,0
116818,-166.666666666667,4,3,5,25,0,0
118030,301.507537688443,4,3,5,25,1,0
118030,-100,4,3,5,25,0,0
120442,300.000000000001,4,3,5,25,1,0
120442,-100,4,3,5,25,0,0
121630,-166.666666666667,4,3,5,25,0,0
122842,296.296296296297,4,3,5,25,1,0
122842,-100,4,3,5,25,0,0
126385,-166.666666666667,4,3,5,25,0,0
127582,298.507462686568,4,3,5,30,1,0
127582,-100,4,3,5,30,0,0
129970,292.682926829269,4,3,5,50,1,0
129970,-100,4,3,5,50,0,0
131140,303.030303030305,4,3,5,60,1,0
131140,-100,4,3,5,60,0,0
131885,-100,4,3,5,30,0,0
131961,-100,4,3,5,35,0,0
132037,-90.9090909090909,4,3,5,45,0,0
132188,-90.9090909090909,4,3,5,60,0,0
132370,312.500000000001,4,3,5,60,1,0
132370,-100,4,3,5,60,0,0
132995,307.692307692309,4,3,5,60,1,0
132995,-100,4,3,5,60,0,0
133610,307.692307692309,4,3,5,60,1,0
133610,-100,4,3,5,60,0,0
134225,298.507462686568,4,3,5,60,1,0
134225,-100,4,3,5,60,0,0
134822,304.568527918783,4,3,5,60,1,0
134822,-100,4,3,5,60,0,0
137258,310.880829015545,4,3,5,60,1,0
137258,-100,4,3,5,60,0,0
139745,304.568527918783,4,3,5,60,1,0
139745,-100,4,3,5,60,0,0
141572,312.500000000001,4,3,5,60,1,0
141572,-100,4,3,5,60,0,0
142197,332.409972299169,4,3,5,60,1,0
142197,-100,4,3,5,60,0,0
142529,320.855614973263,4,3,5,60,1,0
142529,-100,4,3,5,60,0,0
143492,312.500000000001,4,3,5,60,1,0
143492,-100,4,3,5,60,0,0
147242,314.136125654451,4,3,5,60,1,0
147242,-100,4,3,5,60,0,0
149755,306.122448979592,4,3,5,60,1,0
149755,-100,4,3,5,60,0,0
150367,300.000000000001,4,3,5,60,1,0
150367,-100,4,3,5,60,0,0
150967,291.262135922331,4,3,5,60,1,0
150967,-100,4,3,5,60,0,0
151258,283.018867924529,4,3,5,60,1,0
151258,-100,4,3,5,60,0,0
151529,-125,4,3,7,60,0,0
151670,-125,4,3,5,60,0,0
151824,322.58064516129,4,3,5,60,1,0
151824,-100,4,3,5,60,0,0
152053,-100,4,3,5,5,0,0
152146,279.069767441861,4,3,5,60,1,1
152146,-90.9090909090909,4,3,5,60,0,1
152704,285.714285714286,4,3,5,60,1,1
152704,-90.9090909090909,4,3,5,60,0,1
153275,298.507462686568,4,3,5,60,1,1
153275,-90.9090909090909,4,3,5,60,0,1
154469,301.507537688443,4,3,5,60,1,1
154469,-90.9090909090909,4,3,5,60,0,1
155675,295.566502463055,4,3,5,60,1,1
155675,-90.9090909090909,4,3,5,60,0,1
156266,307.692307692309,4,3,5,60,1,1
156266,-90.9090909090909,4,3,5,60,0,1
156891,292.682926829268,4,3,5,60,1,1
156891,-90.9090909090909,4,3,5,60,0,1
157769,295.566502463055,4,3,5,60,1,1
157769,-90.9090909090909,4,3,5,60,0,1
158064,307.692307692309,4,3,5,60,1,1
158064,-90.9090909090909,4,3,5,60,0,1
158679,312.500000000001,4,3,5,60,1,1
158679,-90.9090909090909,4,3,5,60,0,1
159304,301.507537688444,4,3,5,60,1,1
159304,-90.9090909090909,4,3,5,60,0,1
160510,294.117647058825,4,3,5,60,1,1
160510,-90.9090909090909,4,3,5,60,0,1
161092,-111.111111111111,4,3,5,60,0,1
161386,-142.857142857143,4,3,7,60,0,1
161704,297.029702970299,4,3,6,60,1,0
161704,-100,4,3,6,60,0,0
162298,291.262135922331,4,3,6,60,1,0
162298,-100,4,3,6,60,0,0
162880,294.117647058824,4,3,6,60,1,0
162880,-100,4,3,6,60,0,0
164056,300,4,3,6,60,1,0
164056,-100,4,3,6,60,0,0
165856,298.507462686567,4,3,6,60,1,0
165856,-100,4,3,6,60,0,0
166453,300,4,3,5,60,1,1
166453,-90.9090909090909,4,3,5,60,0,1
168853,303.030303030303,4,3,5,60,1,1
168853,-90.9090909090909,4,3,5,60,0,1
170065,297.029702970297,4,3,5,60,1,1
170065,-90.9090909090909,4,3,5,60,0,1
170350,-111.111111111111,4,3,5,60,0,1
170647,-142.857142857143,4,3,7,60,0,1
170944,-200,4,3,5,60,0,1
171277,300,4,3,5,60,1,1
171277,-90.9090909090909,4,3,5,60,0,1
172477,294.117647058824,4,3,5,60,1,1
172477,-90.9090909090909,4,3,5,60,0,1
176042,285.714285714287,4,3,5,60,1,1
176042,-90.9090909090909,4,3,5,60,0,1
176899,291.262135922331,4,3,5,60,1,1
176899,-100,4,3,5,60,0,1
177201,303.030303030305,4,3,5,60,1,1
177201,-90.9090909090909,4,3,5,60,0,1
177807,315.789473684212,4,3,5,60,1,1
177807,-90.9090909090909,4,3,5,60,0,1
178438,300.000000000001,4,3,5,60,1,1
178438,-90.9090909090909,4,3,5,60,0,1
179038,288.461538461538,4,3,5,60,1,1
179038,-90.9090909090909,4,3,5,60,0,1
179326,280.373831775701,4,3,5,60,1,1
179326,-90.9090909090909,4,3,5,60,0,1
179606,285.714285714286,4,3,5,60,1,1
179606,-90.9090909090909,4,3,5,60,0,1
179891,292.682926829268,4,3,5,60,1,1
179891,-74.0740740740741,4,3,5,60,0,1
180183,300,4,3,5,60,1,1
180183,-117.647058823529,4,3,5,60,0,1
180809,300.000000000002,4,3,6,60,1,0
180809,-100,4,3,6,60,0,0
182009,295.566502463056,4,3,6,60,1,0
182009,-100,4,3,6,60,0,0
183782,303.030303030305,4,3,6,60,1,0
183782,-100,4,3,6,60,0,0
184388,306.122448979594,4,3,6,60,1,0
184388,-100,4,3,6,60,0,0
185633,295.566502463056,4,3,5,60,1,1
185633,-90.9090909090909,4,3,5,60,0,1
186815,306.122448979594,4,3,5,60,1,1
186815,-90.9090909090909,4,3,5,60,0,1
187427,312.500000000002,4,3,5,60,1,1
187427,-90.9090909090909,4,3,5,60,0,1
188052,298.507462686569,4,3,5,60,1,1
188052,-90.9090909090909,4,3,5,60,0,1
189246,301.507537688444,4,3,5,60,1,1
189246,-90.9090909090909,4,3,5,60,0,1
189547,310.880829015546,4,3,5,60,1,1
189547,-76.9230769230769,4,3,5,60,0,1
190168,324.324324324326,4,3,5,60,1,1
190168,-76.9230769230769,4,3,5,60,0,1
190492,303.030303030305,4,3,5,60,1,0
190492,-100,4,3,5,60,0,0
192904,-100,4,3,5,5,0,0

[Colours]
Combo1 : 118,130,169
Combo2 : 140,192,214
Combo3 : 58,77,101
Combo4 : 85,124,132

[HitObjects]
68,170,347,5,8,0:0:0:0:
68,170,497,1,8,0:0:0:0:
68,170,647,6,0,B|143:160|195:110|195:110|200:155|231:193,1,233.999992858887,12|0,0:0|0:0,0:0:0:0:
357,184,2744,5,8,0:0:0:0:
357,184,2894,1,8,0:0:0:0:
357,184,3044,6,0,P|415:146|316:107,1,233.999992858887,12|0,0:0|0:0,0:0:0:0:
173,61,5141,5,8,0:0:0:0:
173,61,5291,1,8,0:0:0:0:
173,61,5441,6,0,P|133:58|95:76,1,77.999997619629,12|0,0:0|0:0,0:0:0:0:
122,238,6334,5,8,0:0:0:0:
122,238,6483,1,8,0:0:0:0:
122,238,6632,6,0,P|162:241|200:223,1,77.999997619629,12|0,0:0|0:0,0:0:0:0:
324,140,7525,5,8,0:0:0:0:
446,169,7823,1,8,0:0:0:0:
464,43,8120,6,0,L|474:238,1,194.999994049072,12|0,0:0|0:0,0:0:0:0:
384,336,9907,5,8,0:0:0:0:
384,336,10056,1,8,0:0:0:0:
384,336,10205,6,0,B|334:350|290:303|290:303|299:259|299:259|271:223|224:216,1,233.999992858887,12|0,0:0|0:0,0:0:0:0:
124,262,12299,5,8,0:0:0:0:
124,262,12449,1,8,0:0:0:0:
124,262,12599,6,0,B|105:214|126:168|126:168|50:175|10:105,1,233.999992858887,12|0,0:0|0:0,0:0:0:0:
155,42,14693,5,8,0:0:0:0:
155,42,14843,1,8,0:0:0:0:
155,42,14993,6,0,P|193:47|225:75,1,77.999997619629,12|0,0:0|0:0,0:0:0:0:
328,218,15890,5,8,0:0:0:0:
328,218,16040,1,8,0:0:0:0:
328,218,16190,6,0,P|291:203|250:211,1,77.999997619629,12|0,0:0|0:0,0:0:0:0:
146,342,17111,5,8,0:0:0:0:
278,384,17387,1,8,0:0:0:0:
416,346,17686,6,0,B|429:256|429:256|411:213|411:213|422:113,1,233.999992858887,12|0,0:0|0:0,0:0:0:0:
313,50,19781,6,0,B|269:48|269:48|241:31,1,65,14|2,0:0|0:0,0:0:0:0:
168,18,20053,1,14,0:0:0:0:
109,78,20196,1,14,0:0:0:0:
144,155,20340,2,0,L|136:227,1,65,14|2,0:0|0:0,0:0:0:0:
49,264,20627,2,0,L|41:192,1,65,10|2,0:0|0:0,0:0:0:0:
154,232,20914,6,0,L|161:167,1,65,10|2,0:0|0:0,0:0:0:0:
219,301,21199,2,0,L|258:249,1,65,10|2,0:0|0:0,0:0:0:0:
322,345,21485,2,0,P|361:317|448:314,1,130,10|10,0:0|0:0,0:0:0:0:
469,146,22073,6,0,L|377:150,1,65,14|2,0:0|0:0,0:0:0:0:
371,175,22290,1,2,0:0:0:0:
371,175,22362,2,0,L|381:93,1,65,14|2,0:0|0:0,0:0:0:0:
328,42,22652,2,0,L|236:46,1,65,14|2,0:0|0:0,0:0:0:0:
227,29,22870,1,2,0:0:0:0:
227,29,22942,2,0,L|217:111,1,65,14|2,0:0|0:0,0:0:0:0:
144,135,23232,6,0,B|166:163|166:163|210:178,1,65,14|2,0:0|0:0,0:0:0:0:
268,131,23522,2,0,B|246:103|246:103|202:88,1,65,14|2,0:0|0:0,0:0:0:0:
147,55,23812,1,14,0:0:0:0:
147,55,23957,1,2,0:0:0:0:
147,55,24101,1,14,0:0:0:0:
29,176,24391,6,0,L|96:211,1,65,14|2,0:0|0:0,0:0:0:0:
116,285,24681,1,14,0:0:0:0:
53,342,24826,1,14,0:0:0:0:
139,295,24971,2,0,L|225:304,1,65,14|2,0:0|0:0,0:0:0:0:
311,287,25261,2,0,L|275:208,1,65,10|2,0:0|0:0,0:0:0:0:
218,142,25551,6,0,L|167:211,1,65,10|2,0:0|0:0,0:0:0:0:
136,307,25841,2,0,L|231:309,1,65,10|2,0:0|0:0,0:0:0:0:
325,272,26130,2,0,L|472:274,1,130,10|10,0:0|0:0,0:0:0:0:
326,166,26714,6,0,P|312:131|317:79,1,65,14|2,0:0|0:0,0:0:0:0:
291,66,26933,1,2,0:0:0:0:
291,66,27006,2,0,P|296:28|326:-13,1,65,14|2,0:0|0:0,0:0:0:0:
195,57,27299,2,0,P|198:89|211:119,1,65,14|2,0:0|0:0,0:0:0:0:
230,156,27518,1,2,0:0:0:0:
230,156,27592,2,0,P|200:141|168:138,1,65,14|2,0:0|0:0,0:0:0:0:
74,173,27884,5,14,0:0:0:0:
172,23,28177,1,14,0:0:0:0:
253,183,28470,1,14,0:0:0:0:
253,183,28616,1,6,0:0:0:0:
253,183,28762,1,14,0:0:0:0:
347,108,29055,6,0,B|433:104|471:179|471:179|421:236|337:214,1,292.50001115799,4|0,0:0|0:0,0:0:0:0:
241,219,30359,6,0,B|252:289|252:289|242:304|242:304|252:365,2,146.250005578995,4|0|0,0:0|0:0|0:0,0:0:0:0:
220,130,31556,2,0,B|150:119|108:45|108:45|187:3|257:30,1,292.50001115799,4|0,0:0|0:0,0:0:0:0:
324,80,32749,6,0,B|407:42|390:117|476:54,2,146.250005578995,4|0|0,0:0|0:0|0:0,0:0:0:0:
299,128,33892,6,0,B|325:169|325:169|301:301,1,175.499994644165,6|0,0:0|0:0,0:0:0:0:
238,346,34500,2,0,B|144:285|144:285|211:248,1,175.499994644165,12|2,0:0|0:0,0:0:0:0:
296,215,35066,6,0,L|382:231,1,65,8|8,0:0|0:0,0:0:0:0:
281,120,35373,2,0,L|195:136,1,65,8|8,0:0|0:0,0:0:0:0:
147,62,35681,6,0,L|122:194,1,116.999996429443,6|2,0:0|0:0,0:0:0:0:
34,299,36302,2,0,L|148:320,1,116.999996429443,2|2,0:0|0:0,0:0:0:0:
294,273,36924,2,0,L|408:294,1,116.999996429443,2|2,0:0|0:0,0:0:0:0:
478,121,37546,6,0,P|483:147|486:181,3,38.9999988098145,8|8|8|8,0:0|0:0|0:0|0:0,0:0:0:0:
405,135,38152,2,0,P|410:161|413:195,3,38.9999988098145,8|8|8|8,0:0|0:0|0:0|0:0,0:0:0:0:
351,72,38758,6,0,B|320:55|320:55|294:22,2,65,10|8|8,0:0|0:0|0:0,0:0:0:0:
291,142,39212,1,10,0:0:0:0:
291,142,39364,2,0,B|260:125|260:125|234:92,2,65,10|8|8,0:0|0:0|0:0,0:0:0:0:
231,212,39818,1,10,0:0:0:0:
231,212,39970,6,0,B|200:195|200:195|174:162,2,65,10|8|8,0:0|0:0|0:0,0:0:0:0:
333,272,40424,1,10,0:0:0:0:
333,272,40576,2,0,B|304:277|304:277|274:296,1,65,10|10,0:0|0:0,0:0:0:0:
179,291,40879,2,0,B|179:326|179:326|168:353,1,65,10|10,0:0|0:0,0:0:0:0:
65,383,41182,6,0,P|61:351|70:321,2,65,10|8|8,0:0|0:0|0:0,0:0:0:0:
110,247,41636,1,10,0:0:0:0:
110,247,41788,2,0,P|132:223|144:193,2,65,10|8|8,0:0|0:0|0:0,0:0:0:0:
58,179,42242,1,10,0:0:0:0:
58,179,42394,6,0,L|43:118,3,38.9999988098145,10|8|8|8,0:0|0:0|0:0|0:0,0:0:0:0:
126,104,42994,2,0,L|111:43,3,38.9999988098145,8|8|8|10,0:0|0:0|0:0|0:0,0:0:0:0:
216,57,43594,6,0,B|247:47|247:47|289:56,2,65,10|8|8,0:0|0:0|0:0,0:0:0:0:
285,143,44041,1,10,0:0:0:0:
285,143,44191,2,0,B|253:136|253:136|222:146,2,65,10|8|8,0:0|0:0|0:0,0:0:0:0:
228,235,44638,1,10,0:0:0:0:
228,235,44788,6,0,B|259:225|259:225|291:232,2,65,10|8|8,0:0|0:0|0:0,0:0:0:0:
157,293,45235,1,10,0:0:0:0:
157,293,45385,2,0,L|148:365,1,65,10|10,0:0|0:0,0:0:0:0:
264,327,45683,1,10,0:0:0:0:
358,136,45982,6,0,L|437:143,2,65,10|8|8,0:0|0:0|0:0,0:0:0:0:
408,225,46429,1,10,0:0:0:0:
408,225,46579,2,0,L|487:232,2,65,10|8|8,0:0|0:0|0:0,0:0:0:0:
362,301,47026,1,10,0:0:0:0:
362,301,47176,6,0,P|361:323|369:347,3,38.9999988098145,10|8|8|8,0:0|0:0|0:0|0:0,0:0:0:0:
435,288,47773,2,0,P|439:308|439:328,3,38.9999988098145,8|8|8|10,0:0|0:0|0:0|0:0,0:0:0:0:
489,225,48370,6,0,B|482:189|482:189|498:143,2,65,10|8|8,0:0|0:0|0:0,0:0:0:0:
446,83,48810,1,10,0:0:0:0:
446,83,48956,2,0,B|418:107|418:107|370:116,2,65,10|8|8,0:0|0:0|0:0,0:0:0:0:
344,191,49396,1,10,0:0:0:0:
344,191,49543,6,0,B|378:202|378:202|410:239,2,65,10|8|8,0:0|0:0|0:0,0:0:0:0:
300,114,49983,1,10,0:0:0:0:
300,114,50130,2,0,P|267:145|258:179,1,65,10|10,0:0|0:0,0:0:0:0:
184,207,50423,2,0,P|194:250|219:275,1,65,10|10,0:0|0:0,0:0:0:0:
143,335,50717,6,0,B|93:321|93:321|56:331,2,65,10|8|8,0:0|0:0|0:0,0:0:0:0:
96,234,51157,1,10,0:0:0:0:
96,234,51303,2,0,B|45:246|45:246|18:274,2,65,10|8|8,0:0|0:0|0:0,0:0:0:0:
53,149,51744,1,10,0:0:0:0:
53,149,51890,6,0,L|77:86,3,38.9999988098145,10|8|8|8,0:0|0:0|0:0|0:0,0:0:0:0:
18,22,52477,2,0,L|0:70,3,38.9999988098145,8|8|8|10,0:0|0:0|0:0|0:0,0:0:0:0:
106,21,53064,6,0,P|145:15|183:5,2,71.5000021820069,10|8|8,0:0|0:0|0:0,0:0:0:0:
200,110,53503,1,10,0:0:0:0:
200,110,53649,2,0,P|239:116|277:126,2,71.5000021820069,10|8|8,0:0|0:0|0:0,0:0:0:0:
301,13,54088,1,10,0:0:0:0:
301,13,54234,6,0,P|340:7|378:-3,2,71.5000021820069,10|8|8,0:0|0:0|0:0,0:0:0:0:
424,92,54673,1,10,0:0:0:0:
424,92,54820,2,0,L|352:86,1,71.5000021820069,10|10,0:0|0:0,0:0:0:0:
409,196,55112,2,0,L|473:165,1,71.5000021820069,10|10,0:0|0:0,0:0:0:0:
329,223,55405,6,0,P|276:219|235:235,1,71.5000021820069,10|8,0:0|0:0,0:0:0:0:
202,290,55696,1,8,0:0:0:0:
113,265,55841,1,10,0:0:0:0:
113,265,55987,6,0,P|142:221|149:177,1,71.5000021820069,10|8,0:0|0:0,0:0:0:0:
130,123,56278,1,8,0:0:0:0:
194,55,56424,1,10,0:0:0:0:
194,55,56570,6,0,P|217:102|251:130,1,71.5000021820069,10|8,0:0|0:0,0:0:0:0:
132,142,56861,1,8,0:0:0:0:
33,115,57006,1,10,0:0:0:0:
33,115,57152,6,0,P|54:86|68:53,1,71.5000021820069,10|8,0:0|0:0,0:0:0:0:
128,0,57443,1,8,0:0:0:0:
128,0,57589,1,8,0:0:0:0:
131,130,57735,6,0,L|128:269,1,130,6|2,0:0|0:0,0:0:0:0:
67,328,58187,1,2,0:0:0:0:
67,328,58338,2,0,P|110:305|208:330,1,130,12|0,0:0|0:0,0:0:0:0:
254,370,58790,1,2,0:0:0:0:
254,370,58941,6,0,P|295:360|323:331,1,65,6|0,0:0|0:0,0:0:0:0:
327,262,59242,2,0,P|297:230|259:221,1,65,2|2,0:0|0:0,0:0:0:0:
197,253,59544,2,0,P|184:293|195:332,1,65,8|0,0:0|0:0,0:0:0:0:
279,353,59845,1,2,0:0:0:0:
438,267,60147,6,0,L|422:126,1,130,6|2,0:0|0:0,0:0:0:0:
372,69,60599,1,2,0:0:0:0:
372,69,60750,2,0,P|437:69|436:142,1,130,12|0,0:0|0:0,0:0:0:0:
390,183,61202,1,2,0:0:0:0:
390,183,61353,6,0,P|351:170|326:134,1,65,6|0,0:0|0:0,0:0:0:0:
245,188,61654,2,0,P|236:147|255:108,1,65,2|0,0:0|0:0,0:0:0:0:
168,64,61956,2,0,P|198:36|242:33,1,65,8|0,0:0|0:0,0:0:0:0:
315,30,62257,1,2,0:0:0:0:
184,156,62559,6,0,B|135:167|97:130|97:130|100:157|97:191,1,130,6|2,0:0|0:0,0:0:0:0:
50,235,63011,1,2,0:0:0:0:
50,235,63162,2,0,P|42:285|101:336,1,130,12|2,0:0|0:0,0:0:0:0:
171,294,63614,1,2,0:0:0:0:
171,294,63765,6,0,L|262:312,1,65,6|0,0:0|0:0,0:0:0:0:
314,372,64066,2,0,L|223:390,1,65,0|2,0:0|0:0,0:0:0:0:
312,285,64368,2,0,L|403:303,1,65,8|0,0:0|0:0,0:0:0:0:
331,384,64669,1,0,0:0:0:0:
481,266,64971,6,0,P|454:214|448:134,1,130,6|2,0:0|0:0,0:0:0:0:
484,69,65423,1,2,0:0:0:0:
484,69,65574,2,0,L|353:57,1,130,12|0,0:0|0:0,0:0:0:0:
289,11,66026,1,2,0:0:0:0:
289,11,66177,6,0,P|307:32|318:80,1,65,6|0,0:0|0:0,0:0:0:0:
285,146,66478,1,0,0:0:0:0:
285,146,66629,2,0,L|296:196,2,32.5,2|2|8,0:0|0:0|0:0,0:0:0:0:
198,151,66930,1,2,0:0:0:0:
198,151,67006,1,2,0:0:0:0:
198,151,67081,1,12,0:0:0:0:
141,325,67383,6,0,P|96:363|7:345,1,143.000004364014,6|2,0:0|0:0,0:0:0:0:
6,266,67842,1,2,0:0:0:0:
6,266,67995,2,0,L|27:111,1,143.000004364014,12|0,0:0|0:0,0:0:0:0:
8,35,68454,1,2,0:0:0:0:
95,11,68607,6,0,P|139:26|162:61,1,71.5000021820069,6|0,0:0|0:0,0:0:0:0:
230,105,68913,2,0,P|186:120|163:155,1,71.5000021820069,2|0,0:0|0:0,0:0:0:0:
95,199,69219,2,0,P|139:214|162:249,1,71.5000021820069,8|0,0:0|0:0,0:0:0:0:
139,316,69525,1,2,0:0:0:0:
139,316,69678,1,0,0:0:0:0:
216,363,69831,6,0,B|250:341|250:341|366:351,1,143.000004364014,6|2,0:0|0:0,0:0:0:0:
442,360,70291,1,2,0:0:0:0:
442,360,70444,2,0,L|410:199,1,143.000004364014,12|0,0:0|0:0,0:0:0:0:
339,167,70903,1,2,0:0:0:0:
249,178,71056,6,0,P|225:209|240:258,1,71.5000021820069,6|0,0:0|0:0,0:0:0:0:
183,124,71362,2,0,P|168:87|118:76,1,71.5000021820069,2|2,0:0|0:0,0:0:0:0:
263,94,71668,2,0,L|336:61,1,71.5000021820069,8|0,0:0|0:0,0:0:0:0:
439,110,71974,2,0,L|373:138,1,71.5000021820069,8|2,0:0|0:0,0:0:0:0:
454,198,72280,6,0,L|273:182,1,155.999995239258,6|0,0:0|0:0,0:0:0:0:
215,229,72732,1,2,0:0:0:0:
123,204,72883,2,0,L|113:120,1,77.999997619629,8|0,0:0|0:0,0:0:0:0:
213,68,73184,2,0,L|203:152,1,77.999997619629,8|2,0:0|0:0,0:0:0:0:
215,229,73486,6,0,L|196:388,1,155.999995239258,6|0,0:0|0:0,0:0:0:0:
291,382,73938,1,2,0:0:0:0:
357,315,74089,2,0,P|337:274|285:263,1,77.999997619629,8|2,0:0|0:0,0:0:0:0:
225,216,74390,2,0,P|179:212|143:252,1,77.999997619629,8|2,0:0|0:0,0:0:0:0:
72,293,74692,6,0,L|53:138,1,126.749994197846,6|0,0:0|0:0,0:0:0:0:
72,148,74993,2,0,L|61:56,1,84.4999961318971,12|0,0:0|0:0,0:0:0:0:
135,11,75295,5,2,0:0:0:0:
135,11,75445,1,2,0:0:0:0:
224,38,75596,2,0,P|204:73|153:100,1,84.4999961318971,12|0,0:0|0:0,0:0:0:0:
80,81,75898,5,6,0:0:0:0:
80,81,76048,1,2,0:0:0:0:
105,184,76199,6,0,L|204:204,1,97.50000371933,12|0,0:0|0:0,0:0:0:0:
324,285,76501,2,0,L|225:305,1,97.50000371933,12|0,0:0|0:0,0:0:0:0:
128,349,76802,1,8,0:0:0:0:
120,370,77104,6,0,L|52:229,1,143.000004364014,6|2,0:0|0:0,0:0:0:0:
130,183,77543,1,8,0:0:0:0:
103,94,77689,2,0,P|64:115|44:151,1,71.5000021820069,2|8,0:0|0:0,0:0:0:0:
130,183,77982,2,0,L|184:186,2,35.7500010910034,2|2|8,0:0|0:0|0:0,0:0:0:0:
216,262,78274,6,0,P|205:208|234:106,1,143.000004364014,2|2,0:0|0:0,0:0:0:0:
304,74,78713,1,8,0:0:0:0:
304,74,78860,2,0,L|403:77,1,71.5000021820069,2|8,0:0|0:0,0:0:0:0:
453,25,79152,1,2,0:0:0:0:
458,118,79299,1,8,0:0:0:0:
380,169,79445,6,0,P|366:202|386:253,1,71.5000021820069,2|8,0:0|0:0,0:0:0:0:
452,284,79738,1,2,0:0:0:0:
452,284,79884,1,8,0:0:0:0:
392,354,80030,2,0,B|336:358|336:358|314:377|314:377|256:379,1,143.000004364014,2|2,0:0|0:0,0:0:0:0:
183,320,80469,1,8,0:0:0:0:
262,361,80616,6,0,B|319:358|319:358|341:339|341:339|397:335,1,143.000004364014,2|2,0:0|0:0,0:0:0:0:
456,259,81055,1,8,0:0:0:0:
402,316,81201,2,0,B|346:320|346:320|324:339|324:339|267:342,1,143.000004364014,2|2,0:0|0:0,0:0:0:0:
189,289,81640,1,8,0:0:0:0:
241,163,81786,6,0,P|234:112|141:121,1,143.000004364014,6|2,0:0|0:0,0:0:0:0:
95,180,82229,1,10,0:0:0:0:
95,180,82304,1,2,0:0:0:0:
95,180,82379,6,0,P|59:129|56:88,1,71.5000021820069,2|10,0:0|0:0,0:0:0:0:
24,232,82683,2,0,P|52:253|86:263,1,71.5000021820069,2|10,0:0|0:0,0:0:0:0:
184,307,82998,6,0,L|281:279,1,71.5000021820069,6|10,0:0|0:0,0:0:0:0:
306,206,83302,1,2,0:0:0:0:
306,206,83454,1,10,0:0:0:0:
394,246,83607,6,0,L|462:226,1,71.5000021820069,6|10,0:0|0:0,0:0:0:0:
334,306,83916,2,0,L|344:340,2,35.7500010910034,2|2|10,0:0|0:0|0:0,0:0:0:0:
300,216,84225,5,6,0:0:0:0:
333,124,84371,2,0,P|353:106|381:92,2,35.7500010910034,10|2|2,0:0|0:0|0:0,0:0:0:0:
248,93,84664,2,0,P|257:67|273:41,2,35.7500010910034,10|2|2,0:0|0:0|0:0,0:0:0:0:
171,140,84956,2,0,P|161:114|145:88,2,35.7500010910034,10|2|2,0:0|0:0|0:0,0:0:0:0:
134,214,85249,2,0,P|113:196|86:182,2,35.7500010910034,10|2|2,0:0|0:0|0:0,0:0:0:0:
164,290,85542,1,8,0:0:0:0:
256,301,85688,5,8,0:0:0:0:
256,301,85761,1,8,0:0:0:0:
256,301,85834,1,8,0:0:0:0:
222,384,85981,2,0,L|174:376,2,35.7500010910034,4|4|4,0:0|0:0|0:0,0:0:0:0:
106,360,86273,2,0,L|58:352,2,29.2499991073609,4|4|4,0:0|0:0|0:0,0:0:0:0:
0,265,86573,6,0,B|81:252|29:219|113:212,1,130,6|2,0:0|0:0,0:0:0:0:
202,240,87014,1,8,0:0:0:0:
202,240,87161,1,2,0:0:0:0:
106,100,87455,2,0,L|91:142,2,32.5,2|2|8,0:0|0:0|0:0,0:0:0:0:
68,24,87749,6,0,P|123:15|188:77,1,130,6|2,0:0|0:0,0:0:0:0:
212,139,88190,1,8,0:0:0:0:
212,139,88337,2,0,P|261:99|324:106,1,130,2|2,0:0|0:0,0:0:0:0:
449,217,88925,6,0,L|441:303,1,65,6|8,0:0|0:0,0:0:0:0:
362,309,89222,2,0,L|354:223,1,65,2|8,0:0|0:0,0:0:0:0:
283,200,89519,2,0,L|197:192,1,65,6|8,0:0|0:0,0:0:0:0:
193,285,89816,2,0,L|279:277,1,65,6|8,0:0|0:0,0:0:0:0:
320,192,90113,6,0,L|177:178,1,130,6|2,0:0|0:0,0:0:0:0:
117,222,90558,1,8,0:0:0:0:
117,222,90707,2,0,P|73:200|83:110,1,130,2|2,0:0|0:0,0:0:0:0:
222,0,91317,6,0,L|229:98,1,71.5000021820069,6|10,0:0|0:0,0:0:0:0:
207,162,91617,1,2,0:0:0:0:
207,162,91767,1,10,0:0:0:0:
291,211,91917,6,0,B|303:128,1,71.5000021820069,2|10,0:0|0:0,0:0:0:0:
409,118,92217,1,2,0:0:0:0:
429,124,92292,1,2,0:0:0:0:
445,137,92367,1,10,0:0:0:0:
455,155,92441,1,2,0:0:0:0:
461,174,92516,6,0,L|452:250,1,71.5000021820069,6|10,0:0|0:0,0:0:0:0:
413,343,92828,2,0,L|351:297,1,71.5000021820069,2|10,0:0|0:0,0:0:0:0:
273,231,93141,6,0,P|238:223|197:239,1,71.5000021820069,6|10,0:0|0:0,0:0:0:0:
128,297,93441,2,0,L|70:339,1,71.5000021820069,2|10,0:0|0:0,0:0:0:0:
52,246,93741,6,0,P|62:187|18:115,1,143.000004364014,6|2,0:0|0:0,0:0:0:0:
10,109,94116,1,2,0:0:0:0:
10,109,94191,1,10,0:0:0:0:
42,21,94341,6,0,P|84:54|93:90,1,71.5000021820069,2|10,0:0|0:0,0:0:0:0:
141,143,94641,2,0,L|177:137,2,35.7500010910034,2|2|10,0:0|0:0|0:0,0:0:0:0:
143,232,94941,6,0,L|241:214,1,71.5000021820069,6|10,0:0|0:0,0:0:0:0:
259,126,95245,2,0,L|305:142,2,35.7500010910034,8|8|8,3:1|3:1|3:1,0:0:0:0:
364,192,95550,2,0,L|341:210,2,29.2499991073609,2|2|2,3:1|3:1|3:1,0:0:0:0:
259,245,95854,2,0,L|253:216,2,22.7499993057251,4|4|4,3:0|3:0|3:0,0:0:0:0:
166,150,96190,6,0,P|161:111|173:77,1,65,6|2,0:0|0:0,0:0:0:0:
13,16,96636,2,0,L|27:108,2,65,2|8|2,0:0|0:0|0:0,0:0:0:0:
186,12,97232,1,2,0:0:0:0:
186,12,97381,6,0,P|191:51|179:85,1,65,2|0,0:0|0:0,0:0:0:0:
111,117,97687,1,2,0:0:0:0:
215,249,97993,2,0,L|423:214,1,195,12|2,0:0|0:0,0:0:0:0:
386,133,98605,6,0,B|382:100|382:100|401:59,1,65,2|2,0:0|0:0,0:0:0:0:
477,48,98911,2,0,B|481:81|481:81|462:122,1,65,2|2,0:0|0:0,0:0:0:0:
446,191,99217,2,0,B|442:224|442:224|461:265,1,65,8|2,0:0|0:0,0:0:0:0:
379,321,99514,2,0,B|383:288|383:288|364:247,1,65,2|2,0:0|0:0,0:0:0:0:
302,207,99811,6,0,P|258:202|216:221,1,65,2|0,0:0|0:0,0:0:0:0:
170,256,100118,1,2,0:0:0:0:
30,356,100426,2,0,L|14:133,1,195,12|0,0:0|0:0,0:0:0:0:
11,77,101020,6,0,P|36:51|82:48,1,65,6|2,0:0|0:0,0:0:0:0:
218,101,101476,2,0,L|138:124,2,65,2|8|2,0:0|0:0|0:0,0:0:0:0:
334,19,102085,1,2,0:0:0:0:
334,19,102238,6,0,P|364:27|386:51,1,65,2|0,0:0|0:0,0:0:0:0:
381,135,102542,1,2,0:0:0:0:
511,243,102847,2,0,L|303:278,1,195,12|2,0:0|0:0,0:0:0:0:
303,294,103380,1,2,0:0:0:0:
303,294,103456,6,0,P|325:328|336:366,2,73.6666680717469,6|6|6,0:0|0:0|0:0,0:0:0:0:
182,335,104074,1,12,0:0:0:0:
77,114,104506,1,2,0:0:0:0:
77,114,104579,1,2,0:0:0:0:
77,114,104652,6,0,P|55:148|44:186,2,73.6666680717469,6|6|6,0:0|0:0|0:0,0:0:0:0:
198,155,105273,1,12,0:0:0:0:
198,155,105846,6,0,P|230:139|266:129,1,65,6|2,0:0|0:0,0:0:0:0:
376,18,106309,1,2,0:0:0:0:
376,18,106464,2,0,L|382:99,1,65,8|2,0:0|0:0,0:0:0:0:
496,205,106914,1,2,0:0:0:0:
496,205,107064,6,0,P|484:250|452:265,1,65,2|0,0:0|0:0,0:0:0:0:
385,262,107364,1,2,0:0:0:0:
256,151,107664,2,0,L|237:351,1,195,12|2,0:0|0:0,0:0:0:0:
221,357,108205,1,2,0:0:0:0:
221,357,108282,6,0,B|186:337|186:337|142:341,1,65,2|2,0:0|0:0,0:0:0:0:
71,296,108578,2,0,B|105:275|105:275|124:235,1,65,2|2,0:0|0:0,0:0:0:0:
24,154,108874,2,0,B|24:194|24:194|49:230,1,65,8|2,0:0|0:0,0:0:0:0:
116,253,109170,2,0,B|126:230|126:230|161:210,1,65,2|2,0:0|0:0,0:0:0:0:
235,168,109490,6,0,P|279:152|298:114,1,65,2|0,0:0|0:0,0:0:0:0:
301,54,109785,1,2,0:0:0:0:
132,37,110081,2,0,L|149:239,1,195,12|0,0:0|0:0,0:0:0:0:
95,294,110670,6,0,P|135:312|171:308,1,65,6|2,0:0|0:0,0:0:0:0:
323,291,111133,1,2,0:0:0:0:
323,291,111288,2,0,L|263:260,1,65,8|2,0:0|0:0,0:0:0:0:
457,367,111761,1,2,0:0:0:0:
457,367,111919,6,0,P|444:333|447:282,1,65,2|0,0:0|0:0,0:0:0:0:
471,225,112225,1,2,0:0:0:0:
337,96,112531,2,0,B|354:221|354:221|272:211,1,195,12|0,0:0|0:0,0:0:0:0:
228,202,113089,6,0,P|236:234|217:280,2,73.6666680717469,6|6|6,0:0|0:0|0:0,0:0:0:0:
134,100,113743,1,12,0:0:0:0:
137,277,114344,6,0,P|127:308|88:339,2,73.6666680717469,6|6|6,0:0|0:0|0:0,0:0:0:0:
92,146,114978,1,12,0:0:0:0:
173,20,115278,1,12,0:0:0:0:
333,21,115588,5,8,0:0:0:0:
423,142,115895,2,0,P|405:159|363:172,1,38.9999988098145,8|8,0:0|0:0,0:0:0:0:
475,208,116203,2,0,P|457:225|415:238,3,38.9999988098145,8|8|8|8,0:0|0:0|0:0|0:0,0:0:0:0:
362,243,116818,6,0,P|338:235|306:206,3,38.9999988098145,8|8|8|8,0:0|0:0|0:0|0:0,0:0:0:0:
275,162,117424,2,0,P|269:137|279:95,3,38.9999988098145,8|8|8|10,0:0|0:0|0:0|0:0,0:0:0:0:
207,37,118030,6,0,B|171:37|179:52|144:51,2,65,10|8|8,0:0|0:0|0:0,0:0:0:0:
165,141,118482,1,10,0:0:0:0:
165,141,118633,2,0,B|133:121|133:138|103:120,2,65,10|8|8,0:0|0:0|0:0,0:0:0:0:
76,208,119085,1,10,0:0:0:0:
76,208,119236,6,0,B|58:175|49:190|32:159,2,65,10|8|8,0:0|0:0|0:0,0:0:0:0:
76,300,119688,1,10,0:0:0:0:
76,300,119839,2,0,P|56:331|13:351,1,65,10|10,0:0|0:0,0:0:0:0:
166,257,120140,2,0,P|167:308|171:335,1,65,10|10,0:0|0:0,0:0:0:0:
254,359,120442,6,0,P|287:345|322:352,2,65,10|8|8,0:0|0:0|0:0,0:0:0:0:
248,274,120892,1,10,0:0:0:0:
248,274,121042,2,0,P|281:260|316:267,2,65,10|8|8,0:0|0:0|0:0,0:0:0:0:
242,189,121492,1,10,0:0:0:0:
242,189,121642,6,0,L|246:137,3,38.9999988098145,10|8|8|8,0:0|0:0|0:0|0:0,0:0:0:0:
254,71,122242,2,0,L|258:19,3,38.9999988098145,8|8|8|10,0:0|0:0|0:0|0:0,0:0:0:0:
347,0,122842,6,0,P|391:19|411:54,2,65,10|8|8,0:0|0:0|0:0,0:0:0:0:
337,83,123286,1,10,0:0:0:0:
337,83,123434,2,0,P|365:121|365:161,2,65,10|8|8,0:0|0:0|0:0,0:0:0:0:
445,109,123879,1,10,0:0:0:0:
445,109,124027,6,0,P|450:156|430:191,2,65,10|8|8,0:0|0:0|0:0,0:0:0:0:
433,9,124471,1,10,0:0:0:0:
433,9,124619,2,0,L|349:-2,1,65,10|10,0:0|0:0,0:0:0:0:
280,49,124916,2,0,L|196:38,1,65,10|10,0:0|0:0,0:0:0:0:
119,25,125212,6,0,P|85:40|69:74,2,65,10|8|8,0:0|0:0|0:0,0:0:0:0:
152,107,125656,1,10,0:0:0:0:
152,107,125804,2,0,P|133:133|104:146,2,65,10|8|8,0:0|0:0|0:0,0:0:0:0:
126,9,126249,1,10,0:0:0:0:
126,9,126397,6,0,P|90:13|78:19,3,38.9999988098145,10|8|8|8,0:0|0:0|0:0|0:0,0:0:0:0:
26,73,126990,2,0,P|11:106|10:119,3,38.9999988098145,8|8|8|10,0:0|0:0|0:0|0:0,0:0:0:0:
35,205,127582,6,0,L|27:277,2,65,10|8|8,0:0|0:0|0:0,0:0:0:0:
131,176,128029,1,10,0:0:0:0:
131,176,128179,2,0,L|139:248,2,65,10|8|8,0:0|0:0|0:0,0:0:0:0:
237,209,128626,1,10,0:0:0:0:
237,209,128776,6,0,L|229:281,2,65,10|8|8,0:0|0:0|0:0,0:0:0:0:
320,310,129223,1,10,0:0:0:0:
320,310,129373,2,0,P|308:331|265:362,1,65,10|10,0:0|0:0,0:0:0:0:
345,216,129671,2,0,P|337:192|346:140,1,65,10|10,0:0|0:0,0:0:0:0:
311,57,129970,6,0,P|275:40|224:54,1,65,10|8,0:0|0:0,0:0:0:0:
188,98,130262,1,8,0:0:0:0:
112,58,130409,1,10,0:0:0:0:
112,58,130555,6,0,L|95:148,1,65,10|8,0:0|0:0,0:0:0:0:
184,119,130848,1,8,0:0:0:0:
262,162,130994,1,10,0:0:0:0:
262,162,131140,6,0,L|279:252,1,65,10|8,0:0|0:0,0:0:0:0:
174,207,131443,1,8,0:0:0:0:
86,252,131594,1,10,0:0:0:0:
86,252,131746,6,0,L|69:342,1,65,10|8,0:0|0:0,0:0:0:0:
167,372,132049,5,8,0:0:0:0:
181,361,132124,1,8,0:0:0:0:
197,354,132200,1,8,0:0:0:0:
215,351,132276,1,8,0:0:0:0:
234,352,132370,6,0,B|324:324|324:324|363:349,1,130,6|8,0:0|0:0,0:0:0:0:
503,237,132995,2,0,L|500:301,1,65,2|2,0:0|0:0,0:0:0:0:
449,375,133302,2,0,L|393:340,1,65,8|2,0:0|0:0,0:0:0:0:
314,291,133610,6,0,L|318:161,1,130,6|8,0:0|0:0,0:0:0:0:
402,102,134071,1,0,0:0:0:0:
402,102,134225,2,0,L|450:111,2,32.5,2|2|2,0:0|0:0|0:0,0:0:0:0:
341,28,134523,2,0,L|277:16,1,65,8|2,0:0|0:0,0:0:0:0:
168,18,134822,6,0,P|137:51|170:135,1,130,6|8,0:0|0:0,0:0:0:0:
232,165,135278,1,0,0:0:0:0:
232,165,135431,2,0,L|83:185,1,130,2|8,0:0|0:0,0:0:0:0:
53,260,135887,1,2,0:0:0:0:
53,260,136040,6,0,L|201:280,1,130,6|8,0:0|0:0,0:0:0:0:
364,351,136649,2,0,L|337:379,2,32.5,2|2|2,0:0|0:0|0:0,0:0:0:0:
350,259,136953,2,0,L|260:274,1,65,8|2,0:0|0:0,0:0:0:0:
213,185,137258,6,0,P|232:131|298:143,1,130,6|8,0:0|0:0,0:0:0:0:
418,20,137879,2,0,P|383:35|369:73,1,65,2|2,0:0|0:0,0:0:0:0:
389,147,138190,2,0,P|419:168|459:162,1,65,8|2,0:0|0:0,0:0:0:0:
492,272,138501,6,0,P|425:261|343:261,1,130,6|8,0:0|0:0,0:0:0:0:
242,358,139123,1,6,0:0:0:0:
76,354,139434,1,8,0:0:0:0:
76,354,139589,1,2,0:0:0:0:
76,354,139745,6,0,P|71:284|53:205,1,130,6|8,0:0|0:0,0:0:0:0:
103,138,140201,1,0,0:0:0:0:
103,138,140354,2,0,P|48:127|17:48,1,130,2|8,0:0|0:0,0:0:0:0:
214,27,140963,6,0,L|196:83,2,32.5,6|2|6,0:0|0:0|0:0,0:0:0:0:
311,20,141267,1,8,0:0:0:0:
311,20,141343,1,8,0:0:0:0:
311,20,141420,1,8,0:0:0:0:
365,83,141572,6,0,L|347:139,2,32.5,6|2|6,0:0|0:0|0:0,0:0:0:0:
460,72,141884,1,8,0:0:0:0:
460,72,141962,1,8,0:0:0:0:
460,72,142040,1,8,0:0:0:0:
498,148,142197,6,0,P|479:192|395:181,1,130,6|8,0:0|0:0,0:0:0:0:
327,159,142689,1,2,0:0:0:0:
253,201,142849,2,0,P|260:232|262:274,1,65,2|0,0:0|0:0,0:0:0:0:
326,319,143170,1,8,0:0:0:0:
157,364,143492,6,0,P|96:327|13:323,1,130,6|8,0:0|0:0,0:0:0:0:
22,236,143960,1,2,0:0:0:0:
68,165,144117,2,0,P|66:125|58:83,1,65,6|0,0:0|0:0,0:0:0:0:
28,23,144429,1,8,0:0:0:0:
28,23,144585,1,2,0:0:0:0:
111,6,144742,6,0,P|176:42|169:109,1,130,6|8,0:0|0:0,0:0:0:0:
126,157,145210,1,0,0:0:0:0:
149,238,145367,2,0,P|213:219|285:217,1,130,2|8,0:0|0:0,0:0:0:0:
351,253,145835,1,2,0:0:0:0:
351,253,145992,6,0,P|339:308|267:307,1,130,6|8,0:0|0:0,0:0:0:0:
235,238,146460,1,0,0:0:0:0:
293,176,146617,2,0,B|311:115|275:116|299:60,1,97.5,2|8,0:0|0:0,0:0:0:0:
300,58,146929,1,0,0:0:0:0:
381,24,147085,1,8,0:0:0:0:
381,24,147163,1,8,0:0:0:0:
381,24,147242,6,0,P|437:53|435:118,1,130,6|8,0:0|0:0,0:0:0:0:
368,162,147713,1,2,0:0:0:0:
296,116,147870,2,0,P|236:104|208:107,1,65,2|0,0:0|0:0,0:0:0:0:
153,134,148184,1,8,0:0:0:0:
26,246,148498,6,0,P|98:255|149:204,1,130,6|8,0:0|0:0,0:0:0:0:
51,21,149126,2,0,L|32:152,1,130,6|8,0:0|0:0,0:0:0:0:
26,246,149598,1,2,0:0:0:0:
26,246,149755,6,0,B|95:247|95:247|148:297,1,130,6|8,0:0|0:0,0:0:0:0:
166,368,150214,1,0,0:0:0:0:
252,363,150367,2,0,P|308:320|288:253,1,130,2|8,0:0|0:0,0:0:0:0:
207,119,150967,5,8,0:0:0:0:
207,119,151039,1,8,0:0:0:0:
207,119,151112,1,2,0:0:0:0:
254,52,151258,2,0,P|277:72|287:90,2,32.5,2|2|2,3:1|3:1|0:0,0:0:0:0:
355,49,151541,2,0,P|362:70|362:86,2,26,4|4|2,3:0|3:0|0:0,0:0:0:0:
437,101,151824,1,12,0:0:0:0:
391,272,152146,6,0,B|383:203|383:203|472:242,1,143.000004364014,6|2,0:0|0:0,0:0:0:0:
488,318,152564,1,8,0:0:0:0:
411,368,152704,2,0,P|375:370|342:358,1,71.5000021820069,2|8,0:0|0:0,0:0:0:0:
301,286,152989,1,2,0:0:0:0:
301,286,153132,1,8,0:0:0:0:
218,318,153275,6,0,P|153:318|68:342,1,143.000004364014,2|2,0:0|0:0,0:0:0:0:
17,266,153722,1,8,0:0:0:0:
17,266,153872,2,0,P|23:207|47:188,1,71.5000021820069,2|8,0:0|0:0,0:0:0:0:
120,183,154170,1,2,0:0:0:0:
161,99,154319,1,8,0:0:0:0:
122,14,154469,6,0,L|35:27,1,71.5000021820069,2|8,0:0|0:0,0:0:0:0:
0,103,154770,2,0,L|87:116,1,71.5000021820069,2|8,0:0|0:0,0:0:0:0:
161,99,155072,2,0,B|228:108|228:108|252:102|252:102|324:113,1,143.000004364014,2|2,0:0|0:0,0:0:0:0:
374,55,155524,1,8,0:0:0:0:
314,123,155675,6,0,B|264:115|264:115|240:122|240:122|173:112,1,143.000004364014,6|6,0:0|0:0,0:0:0:0:
121,45,156118,1,8,0:0:0:0:
185,125,156266,2,0,L|268:137,1,71.5000021820069,6|8,0:0|0:0,0:0:0:0:
332,97,156573,2,0,L|414:109,1,71.5000021820069,6|8,0:0|0:0,0:0:0:0:
492,179,156891,6,0,P|494:225|398:235,1,143.000004364014,6|2,0:0|0:0,0:0:0:0:
324,202,157330,1,10,0:0:0:0:
324,202,157403,1,2,0:0:0:0:
324,202,157476,6,0,L|309:298,1,71.5000021820069,2|10,0:0|0:0,0:0:0:0:
243,331,157769,1,2,0:0:0:0:
243,331,157916,1,10,0:0:0:0:
192,257,158064,6,0,L|203:186,1,71.5000021820069,6|10,0:0|0:0,0:0:0:0:
273,125,158371,2,0,L|278:89,2,35.7500010910034,2|2|10,0:0|0:0|0:0,0:0:0:0:
200,28,158679,6,0,L|190:99,1,71.5000021820069,6|10,0:0|0:0,0:0:0:0:
100,90,158991,2,0,L|95:54,2,35.7500010910034,6|2|10,0:0|0:0|0:0,0:0:0:0:
25,150,159304,5,6,0:0:0:0:
104,198,159454,2,0,B|126:202|126:202|168:197,2,35.7500010910034,10|2|2,0:0|0:0|0:0,0:0:0:0:
108,292,159756,2,0,B|130:296|130:296|172:291,2,35.7500010910034,10|2|2,0:0|0:0|0:0,0:0:0:0:
233,314,160057,2,0,B|237:292|237:292|232:250,2,35.7500010910034,10|2|2,0:0|0:0|0:0,0:0:0:0:
258,185,160359,2,0,B|236:181|236:181|194:186,2,35.7500010910034,10|2|2,0:0|0:0|0:0,0:0:0:0:
255,103,160657,1,8,0:0:0:0:
216,26,160804,6,0,P|250:18|277:22,2,35.7500010910034,8|8|8,3:1|3:1|3:1,0:0:0:0:
348,120,161098,2,0,P|344:137|337:153,2,29.2499991073609,2|2|2,3:1|3:1|3:1,0:0:0:0:
199,176,161392,2,0,P|187:166|178:155,2,22.7499993057251,4|4|4,3:0|3:0|3:0,0:0:0:0:
285,225,161704,6,0,P|277:320|324:351,1,130,6|2,0:0|0:0,0:0:0:0:
381,345,162149,1,8,0:0:0:0:
381,345,162298,1,2,0:0:0:0:
471,202,162589,2,0,L|516:192,2,32.5,2|2|8,0:0|0:0|0:0,0:0:0:0:
393,170,162880,6,0,L|256:143,1,130,6|2,0:0|0:0,0:0:0:0:
206,83,163321,1,8,0:0:0:0:
206,83,163468,2,0,L|69:110,1,130,2|2,0:0|0:0,0:0:0:0:
114,269,164056,6,0,P|109:223|83:192,1,65,6|8,0:0|0:0,0:0:0:0:
15,192,164356,2,0,P|19:237|45:268,1,65,6|8,0:0|0:0,0:0:0:0:
62,340,164656,2,0,P|103:358|143:351,1,65,6|8,0:0|0:0,0:0:0:0:
213,373,164956,2,0,P|250:345|264:308,1,65,6|8,0:0|0:0,0:0:0:0:
324,276,165256,6,0,P|311:211|337:125,1,130,6|2,0:0|0:0,0:0:0:0:
398,106,165706,1,8,0:0:0:0:
398,106,165856,2,0,P|442:128|432:218,1,130,2|2,0:0|0:0,0:0:0:0:
313,322,166453,6,0,L|281:234,1,71.5000021820069,6|10,0:0|0:0,0:0:0:0:
205,208,166753,1,2,0:0:0:0:
205,208,166903,1,10,0:0:0:0:
131,272,167053,6,0,P|147:312|111:353,1,71.5000021820069,2|8,0:0|0:0,0:0:0:0:
26,337,167353,1,2,0:0:0:0:
14,318,167428,1,2,0:0:0:0:
11,296,167503,1,10,0:0:0:0:
15,275,167578,1,2,0:0:0:0:
28,257,167653,6,0,P|31:221|52:193,1,71.5000021820069,6|10,0:0|0:0,0:0:0:0:
129,141,167953,2,0,L|205:153,1,71.5000021820069,2|10,0:0|0:0,0:0:0:0:
288,125,168253,6,0,P|308:96|311:61,1,71.5000021820069,6|10,0:0|0:0,0:0:0:0:
240,0,168553,2,0,L|164:12,1,71.5000021820069,2|10,0:0|0:0,0:0:0:0:
146,100,168853,6,0,L|171:267,1,143.000004364014,6|2,0:0|0:0,0:0:0:0:
184,257,169231,1,2,0:0:0:0:
184,257,169307,1,10,0:0:0:0:
259,202,169459,6,0,P|303:187|346:190,1,71.5000021820069,2|10,0:0|0:0,0:0:0:0:
403,241,169762,2,0,L|414:299,2,35.7500010910034,2|2|10,0:0|0:0|0:0,0:0:0:0:
459,164,170065,6,0,P|477:141|476:117,2,35.7500010910034,8|8|8,3:1|3:1|3:1,0:0:0:0:
406,100,170362,2,0,P|398:83|384:72,2,29.2499991073609,2|2|2,3:1|3:1|3:1,0:0:0:0:
328,130,170659,2,0,P|310:132|295:142,2,22.7499993057251,4|4|4,0:0|0:0|0:0,0:0:0:0:
333,212,170956,2,0,P|331:220|333:229,2,16.25,2|2|2,0:0|0:0|0:0,0:0:0:0:
413,234,171277,6,0,P|430:289|378:361,1,143.000004364014,6|2,0:0|0:0,0:0:0:0:
293,346,171727,1,8,0:0:0:0:
251,262,171877,2,0,L|266:106,1,143.000004364014,2|2,0:0|0:0,0:0:0:0:
92,38,172477,6,0,L|107:194,1,143.000004364014,2|2,0:0|0:0,0:0:0:0:
62,262,172918,1,8,0:0:0:0:
62,262,173065,2,0,L|8:250,2,35.7500010910034,2|2|8,0:0|0:0|0:0,0:0:0:0:
111,340,173359,1,2,0:0:0:0:
203,336,173506,1,8,0:0:0:0:
250,255,173653,6,0,L|243:183,1,71.5000021820069,2|8,0:0|0:0,0:0:0:0:
185,111,173947,1,2,0:0:0:0:
185,111,174094,1,8,0:0:0:0:
259,55,174241,2,0,B|307:30|307:30|334:125,1,143.000004364014,2|2,0:0|0:0,0:0:0:0:
331,207,174682,1,8,0:0:0:0:
346,123,174829,6,0,B|321:37|321:37|273:62,1,143.000004364014,6|6,0:0|0:0,0:0:0:0:
216,114,175271,1,8,0:0:0:0:
287,69,175418,2,0,B|335:44|335:44|350:95,1,71.5000021820069,6|8,0:0|0:0,0:0:0:0:
423,103,175712,2,0,B|427:119|427:119|475:94,1,71.5000021820069,6|8,0:0|0:0,0:0:0:0:
319,167,176042,6,0,P|307:235|353:287,1,143.000004364014,6|10,0:0|0:0,0:0:0:0:
447,345,176470,1,10,0:0:0:0:
447,345,176542,1,2,0:0:0:0:
447,345,176613,6,0,P|458:311|459:264,1,71.5000021820069,2|10,0:0|0:0,0:0:0:0:
414,194,176899,1,2,0:0:0:0:
414,194,177044,1,10,0:0:0:0:
333,235,177201,6,0,L|250:217,1,71.5000021820069,6|10,0:0|0:0,0:0:0:0:
209,299,177504,2,0,L|278:314,1,71.5000021820069,2|10,0:0|0:0,0:0:0:0:
342,218,177807,6,0,P|306:213|273:200,1,71.5000021820069,6|10,0:0|0:0,0:0:0:0:
174,185,178122,2,0,L|166:219,2,35.7500010910034,6|2|10,0:0|0:0|0:0,0:0:0:0:
198,96,178438,5,6,0:0:0:0:
141,30,178588,2,0,P|122:20|99:12,2,35.7500010910034,10|2|2,0:0|0:0|0:0,0:0:0:0:
35,80,178888,2,0,P|17:80|0:83,2,35.7500010910034,10|2|2,0:0|0:0|0:0,0:0:0:0:
100,147,179182,2,0,P|118:158|136:174,2,35.7500010910034,10|2|2,0:0|0:0|0:0,0:0:0:0:
32,199,179466,2,0,P|15:192|0:183,2,35.7500010910034,10|2|2,0:0|0:0|0:0,0:0:0:0:
96,264,179748,1,8,0:0:0:0:
191,239,179891,5,8,0:0:0:0:
191,239,179964,1,8,0:0:0:0:
191,239,180037,1,8,0:0:0:0:
153,146,180183,2,0,L|165:105,2,27.6250005269051,2|2|2,3:1|3:1|3:1,3:1:0:0:
63,142,180483,5,8,0:0:0:0:
63,142,180558,1,8,0:0:0:0:
63,142,180633,1,8,0:0:0:0:
58,46,180809,6,0,B|131:31|111:83|181:65,1,130,6|2,0:0|0:0,0:0:0:0:
249,9,181259,1,8,0:0:0:0:
249,9,181409,1,2,0:0:0:0:
248,177,181709,2,0,P|231:193|206:209,2,32.5,2|2|8,0:0|0:0|0:0,0:0:0:0:
315,121,182009,6,0,B|389:107|369:159|439:141,1,130,6|2,0:0|0:0,0:0:0:0:
500,79,182452,1,8,0:0:0:0:
436,22,182600,2,0,P|414:87|460:157,1,130,2|2,0:0|0:0,0:0:0:0:
379,298,183191,6,0,L|313:276,1,65,6|8,0:0|0:0,0:0:0:0:
383,210,183486,2,0,L|444:230,1,65,2|8,0:0|0:0,0:0:0:0:
510,290,183782,2,0,L|457:336,1,65,6|8,0:0|0:0,0:0:0:0:
360,302,184085,2,0,L|294:280,1,65,6|8,0:0|0:0,0:0:0:0:
224,219,184388,6,0,P|179:223|133:293,1,130,6|2,0:0|0:0,0:0:0:0:
84,358,184847,1,8,0:0:0:0:
84,358,185000,2,0,L|66:209,1,130,2|2,0:0|0:0,0:0:0:0:
19,29,185633,6,0,P|52:57|104:61,1,71.5000021820069,6|10,0:0|0:0,0:0:0:0:
172,40,185928,1,2,0:0:0:0:
172,40,186076,1,10,0:0:0:0:
243,101,186224,6,0,B|219:143|219:143|182:161,1,71.5000021820069,2|8,0:0|0:0,0:0:0:0:
113,206,186519,1,2,0:0:0:0:
105,226,186593,1,2,0:0:0:0:
105,247,186667,1,10,0:0:0:0:
111,267,186741,1,2,0:0:0:0:
123,283,186815,6,0,L|212:292,1,71.5000021820069,6|10,0:0|0:0,0:0:0:0:
280,342,187121,2,0,L|369:351,1,71.5000021820069,2|10,0:0|0:0,0:0:0:0:
437,300,187427,6,0,P|456:271|443:221,1,71.5000021820069,6|10,0:0|0:0,0:0:0:0:
390,167,187739,2,0,P|355:165|318:201,1,71.5000021820069,2|10,0:0|0:0,0:0:0:0:
277,270,188052,6,0,L|263:109,1,143.000004364014,6|2,0:0|0:0,0:0:0:0:
250,105,188425,1,2,0:0:0:0:
250,105,188499,1,10,0:0:0:0:
173,158,188649,6,0,P|118:171|84:158,1,71.5000021820069,2|10,0:0|0:0,0:0:0:0:
50,92,188947,2,0,P|49:62|43:42,2,35.7500010910034,2|2|10,0:0|0:0|0:0,0:0:0:0:
8,174,189246,6,0,L|33:306,1,107.25000327301,6|2,0:0|0:0,0:0:0:0:
18,308,189547,6,0,L|75:320,3,42.2499980659486,8|8|8|8,0:0|0:0|0:0|0:0,0:0:0:0:
79,342,189857,2,0,L|136:354,3,42.2499980659486,8|8|8|8,0:0|0:0|0:0|0:0,0:0:0:0:
148,335,190168,2,0,L|204:347,3,42.2499980659486,8|8|8|8,0:0|0:0|0:0|0:0,0:0:0:0:
209,369,190492,1,6,0:0:0:0:
256,192,190567,12,0,193522,0:0:0:0:
