osu file format v14

[General]
AudioFilename: audio.mp3
AudioLeadIn: 0
PreviewTime: 29770
Countdown: 0
SampleSet: Soft
StackLeniency: 0.7
Mode: 0
LetterboxInBreaks: 0
WidescreenStoryboard: 1

[Editor]
DistanceSpacing: 1
BeatDivisor: 2
GridSize: 4
TimelineZoom: 2.799999

[Metadata]
Title:Nujabes - Beyond
TitleUnicode:Nujabes - Beyond
Artist:Bakkati
ArtistUnicode:Bakkati
Creator:Mawkawa
Version:Insane
Source:
Tags:
BeatmapID:1341562
BeatmapSetID:597266

[Difficulty]
HPDrainRate:5
CircleSize:4
OverallDifficulty:7
ApproachRate:9
SliderMultiplier:1.6
SliderTickRate:2

[Events]
//Background and Video events
0,0,"blondes_flowers_yellow_eyes_an_1600x1200_miscellaneoushi.com.jpg",0,0
//Break Periods
//Storyboard Layer 0 (Background)
//Storyboard Layer 1 (Fail)
//Storyboard Layer 2 (Pass)
//Storyboard Layer 3 (Foreground)
//Storyboard Sound Samples

[TimingPoints]
271,320.648936170213,4,2,0,69,1,0
5401,-100,4,2,0,60,0,0
6363,-100,4,2,0,50,0,0
7485,-100,4,2,0,40,0,0
8607,-133.333333333333,4,2,0,35,0,0
8688,-100,4,2,0,35,0,0
9249,-100,4,2,0,35,0,0
10531,-100,4,2,0,70,0,0
18868,-133.333333333333,4,2,0,70,0,0
18948,-100,4,2,0,70,0,0
21273,-133.333333333333,4,2,0,70,0,0
21353,-100,4,2,0,70,0,0
27864,-100,4,2,0,69,0,0
34099,-133.333333333333,4,2,0,69,0,0
34179,-100,4,2,0,69,0,0
39229,-133.333333333333,4,2,0,69,0,0
39310,-100,4,2,0,69,0,0
46364,-58.8235294117647,4,2,0,50,0,0
48208,-50,4,2,0,65,0,0
48528,-50,4,2,0,85,0,0
49009,-50,4,2,0,70,0,0
50933,-100,4,2,0,69,0,0
51574,-100,4,2,0,69,0,1
51735,-86.9565217391304,4,2,0,69,0,0
66965,-58.8235294117647,4,2,0,69,0,1
69210,-100,4,2,0,69,0,0
72096,-81.9672131147541,4,2,0,69,0,0

[Colours]
Combo1 : 115,118,242
Combo2 : 83,152,255
Combo3 : 254,214,129
Combo4 : 255,193,232

[HitObjects]
112,136,271,6,0,P|160:108|284:120,1,160
323,207,751,1,0,0:0:0:0:
408,136,912,1,0,0:0:0:0:
261,109,1072,1,0,0:0:0:0:
229,266,1232,2,0,B|273:282|309:278|309:278|345:242|321:202,1,160
184,152,1874,2,0,B|132:152|84:172|72:212|72:212|96:236,1,160
180,304,2355,6,0,B|180:268|180:268|156:228,2,80
244,368,2836,2,0,B|232:337|248:312|280:296|328:320|308:372|380:360|416:332|432:280|384:244,1,240
356,104,3477,2,0,B|360:156|360:156|380:196,1,80
407,280,3798,6,0,B|391:252|407:224|439:224|447:244|483:220|499:176|479:128,1,160
407,280,4439,2,0,B|423:252|407:224|375:224|367:244|331:220|315:176|335:128,1,160
400,84,4920,6,0,B|420:104|404:160,1,80
316,284,5241,1,0,0:0:0:0:
176,204,5401,2,0,B|236:196|261:177|288:136|280:104|280:104|268:92|268:92|276:80|276:80|264:68|264:68|256:56|256:56|264:36|264:36|244:8|216:4|188:16|176:40,1,320
128,152,6363,5,0,0:0:0:0:
64,208,6523,2,0,P|112:240|152:220,1,80
300,152,6844,1,0,0:0:0:0:
360,228,7004,2,0,P|304:244|268:232,1,80
176,188,7325,5,0,0:0:0:0:
300,152,7485,1,0,0:0:0:0:
220,264,7645,1,0,0:0:0:0:
204,116,7806,1,0,0:0:0:0:
300,152,7966,2,0,B|308:172|332:184|352:176|356:148|332:128|332:80|368:56|404:52|444:88|444:124|420:148,1,240
356,292,8607,6,0,L|264:256,1,60.0000022888184
228,244,8928,1,0,0:0:0:0:
182,310,9088,2,0,L|234:234,1,80
136,368,9409,1,0,0:0:0:0:
102,298,9569,2,0,L|186:310,2,80
252,320,10050,1,0,0:0:0:0:
28,288,10210,1,0,0:0:0:0:
112,116,10531,6,0,P|164:88|304:144,1,160
396,300,11173,2,0,P|320:336|208:316,1,160
128,304,11654,1,0,0:0:0:0:
40,224,11814,1,0,0:0:0:0:
8,108,11974,2,0,P|0:64|4:16,1,80
140,226,12295,2,0,P|136:282|112:326,1,80
40,224,12776,5,0,0:0:0:0:
200,108,12936,1,0,0:0:0:0:
216,196,13096,2,0,L|232:288,1,80
340,172,13417,2,0,L|326:93,1,80
108,212,13738,2,0,L|4:228,1,80
428,168,14058,2,0,L|507:155,1,80
192,96,14379,6,0,P|204:176|244:296,1,160
336,336,15020,2,0,P|352:224|340:164,1,160
312,72,15662,2,0,P|212:48|116:72,1,160
132,76,16303,6,0,L|164:180,1,80
200,252,16624,1,0,0:0:0:0:
284,212,16784,1,0,0:0:0:0:
192,244,16944,1,0,0:0:0:0:
284,224,17105,2,0,B|280:276|280:276|264:304,1,80
100,240,17425,2,0,B|96:204|112:184|112:184|156:164,1,80
276,232,17746,5,0,0:0:0:0:
391,200,17906,1,0,0:0:0:0:
360,80,18067,1,0,0:0:0:0:
276,232,18227,2,0,P|280:284|308:308,1,80
391,200,18547,2,0,L|359:96,1,80
376,32,18868,5,0,0:0:0:0:
220,60,19028,1,0,0:0:0:0:
216,64,19189,1,0,0:0:0:0:
212,68,19349,2,0,L|212:160,1,80
212,272,19670,1,0,0:0:0:0:
284,212,19830,2,0,B|312:176|312:176|300:136,1,80
69,245,20151,2,0,P|116:281|221:265,1,160
244,160,20632,5,0,0:0:0:0:
400,272,20792,2,0,P|432:180|368:56,1,240
112,136,21433,6,0,P|128:180|168:204,1,80
216,284,21754,1,0,0:0:0:0:
308,144,21914,2,0,P|288:184|248:196,1,80
80,204,22235,1,0,0:0:0:0:
228,60,22395,6,0,B|209:97|209:97|204:164,1,80
260,312,22716,1,0,0:0:0:0:
312,128,22876,1,0,0:0:0:0:
112,232,23037,2,0,P|164:248|208:216,1,80
100,136,23357,2,0,P|48:156|32:276,1,160
332,168,23999,6,0,B|312:200|256:224,1,80
176,268,24319,1,0,0:0:0:0:
340,268,24479,1,0,0:0:0:0:
256,64,24640,2,0,P|257:217|257:64,1,480
112,196,25922,5,0,0:0:0:0:
96,220,26003,1,0,0:0:0:0:
80,240,26083,1,0,0:0:0:0:
124,332,26243,6,0,L|160:284,2,40
256,296,26564,2,0,L|232:328,2,40
256,200,26884,2,0,L|232:168,2,40
340,172,27205,2,0,L|364:204,2,40
408,112,27525,5,0,0:0:0:0:
392,92,27605,1,0,0:0:0:0:
376,68,27686,1,0,0:0:0:0:
356,40,27766,2,0,L|328:0,3,40
300,80,28167,5,0,0:0:0:0:
228,116,28327,1,0,0:0:0:0:
304,160,28488,1,0,0:0:0:0:
20,308,29129,1,0,0:0:0:0:
180,324,29450,1,0,0:0:0:0:
180,244,29610,1,0,0:0:0:0:
180,164,29770,1,0,0:0:0:0:
332,164,30091,1,0,0:0:0:0:
332,244,30251,1,0,0:0:0:0:
332,324,30411,1,0,0:0:0:0:
176,292,30732,6,0,P|148:248|168:208,1,80
296,272,31053,2,0,P|276:308|168:264,1,160
376,272,31694,2,0,L|280:272,2,80
456,272,32175,1,0,0:0:0:0:
296,272,32335,1,0,0:0:0:0:
148,332,32656,6,0,L|116:240,1,80
224,332,32977,2,0,L|112:332,1,80
64,332,33297,1,0,0:0:0:0:
144,332,33458,1,0,0:0:0:0:
224,332,33618,2,0,P|284:280|272:168,1,160
