osu file format v14

[General]
AudioFilename: audio.mp3
AudioLeadIn: 0
PreviewTime: 29770
Countdown: 0
SampleSet: Soft
StackLeniency: 0.7
Mode: 0
LetterboxInBreaks: 0
WidescreenStoryboard: 0

[Editor]
DistanceSpacing: 1.5
BeatDivisor: 4
GridSize: 4
TimelineZoom: 2.799999

[Metadata]
Title:Nujabes - Beyond
TitleUnicode:Nujabes - Beyond
Artist:Bakkati
ArtistUnicode:Bakkati
Creator:Mawkawa
Version:Chill
Source:
Tags:
BeatmapID:1262719
BeatmapSetID:597266

[Difficulty]
HPDrainRate:5
CircleSize:4
OverallDifficulty:8.5
ApproachRate:9.2
SliderMultiplier:1.6
SliderTickRate:1

[Events]
//Background and Video events
0,0,"blondes_flowers_yellow_eyes_an_1600x1200_miscellaneoushi.com.jpg",0,0
//Break Periods
2,28046,29200
//Storyboard Layer 0 (Background)
//Storyboard Layer 1 (Fail)
//Storyboard Layer 2 (Pass)
//Storyboard Layer 3 (Foreground)
//Storyboard Sound Samples

[TimingPoints]
271,320.648936170213,4,2,0,69,1,0
5401,-100,4,2,0,60,0,0
6363,-100,4,2,0,50,0,0
7485,-100,4,2,0,40,0,0
8607,-133.333333333333,4,2,0,35,0,0
8688,-100,4,2,0,35,0,0
9249,-100,4,2,0,35,0,0
10531,-100,4,2,0,70,0,0
13738,-133.333333333333,4,2,0,70,0,0
13818,-100,4,2,0,70,0,0
18868,-133.333333333333,4,2,0,70,0,0
18948,-100,4,2,0,70,0,0
21273,-133.333333333333,4,2,0,70,0,0
21353,-100,4,2,0,70,0,0
25602,-58.8235294117647,4,2,0,50,0,0
27864,-100,4,2,0,69,0,0
34099,-133.333333333333,4,2,0,69,0,0
34179,-100,4,2,0,69,0,0
39229,-133.333333333333,4,2,0,69,0,0
39310,-100,4,2,0,69,0,0
46364,-58.8235294117647,4,2,0,50,0,0
48208,-50,4,2,0,65,0,0
48528,-50,4,2,0,85,0,0
49009,-50,4,2,0,70,0,0
50933,-100,4,2,0,69,0,0
51574,-100,4,2,0,69,0,1
51735,-86.9565217391304,4,2,0,69,0,0
60125,-57.1428571428571,4,2,0,69,0,0
61194,-86.9565217391304,4,2,0,69,0,0
66965,-58.8235294117647,4,2,0,69,0,1
69210,-100,4,2,0,69,0,0
72096,-81.9672131147541,4,2,0,69,0,0
81395,-81.9672131147541,4,2,0,85,0,0
85082,-81.9672131147541,4,2,0,34,0,0
87327,-81.9672131147541,4,2,0,69,0,0
92457,-81.9672131147541,4,2,0,11,0,0

[Colours]
Combo1 : 115,118,242
Combo2 : 83,152,255
Combo3 : 254,214,129
Combo4 : 255,193,232

[HitObjects]
144,132,271,6,0,P|229:117|308:128,1,160,6|0,0:0|1:0,0:0:0:0:
376,156,751,1,0,0:0:0:0:
444,200,912,1,8,0:0:0:0:
444,200,1072,1,0,0:0:0:0:
104,232,1232,6,0,P|189:217|268:228,1,160,6|0,0:0|0:0,0:0:0:0:
340,252,1713,1,0,0:0:0:0:
444,200,1874,2,0,P|364:152|270:170,2,160,2|8|0,0:0|0:0|0:0,0:0:0:0:
352,312,2836,6,0,P|272:288|184:308,1,160,6|0,0:0|1:0,0:0:0:0:
123,330,3317,1,0,0:0:0:0:
136,151,3477,1,8,0:0:0:0:
260,368,3637,1,0,0:0:0:0:
64,276,3798,6,0,P|36:216|64:104,1,160,6|0,0:0|0:0,0:0:0:0:
100,60,4279,1,0,1:0:0:0:
132,160,4439,2,0,P|176:108|280:72,2,160,8|8|0,0:0|0:0|0:0,0:0:0:0:
115,284,5401,6,0,P|163:236|115:152,1,160,6|0,0:0|0:0,0:0:0:0:
52,140,5882,1,0,1:0:0:0:
88,216,6042,1,8,0:0:0:0:
114,26,6203,1,0,0:0:0:0:
4,232,6363,6,0,P|16:276|120:304,1,160,6|0,0:0|0:0,0:0:0:0:
292,248,7004,2,0,P|216:212|148:264,1,160,2|12,0:0|0:0,0:0:0:0:
164,340,7485,2,2,P|188:364|244:344,2,80
192,256,7966,6,0,P|292:228|368:248,1,160
420,276,8607,2,0,L|448:312,1,30.0000011444092,0|0,1:0|1:0,1:0:0:0:
348,384,8768,2,0,B|328:356|328:356|344:328|344:328|344:280,1,80
345,238,9088,1,0,1:0:0:0:
416,156,9249,6,0,P|368:100|268:144,1,160,2|0,0:0|0:0,0:0:0:0:
252,240,9890,2,0,P|196:284|224:376,1,160,14|0,0:0|0:0,0:0:0:0:
396,336,10531,6,0,P|416:284|396:236,1,80,14|0,0:0|0:0,0:0:0:0:
376,92,10852,1,0,1:0:0:0:
284,208,11012,1,0,1:0:0:0:
488,232,11173,1,10,0:0:0:0:
204,156,11493,5,2,0:0:0:0:
128,200,11654,1,2,0:0:0:0:
292,184,11814,1,2,0:0:0:0:
200,292,11974,2,0,P|144:300|100:288,1,80,0|0,1:0|1:0,1:0:0:0:
292,184,12295,2,0,P|348:176|392:188,1,80,2|10,1:0|0:0,1:0:0:0:
432,276,12776,6,0,P|396:300|348:296,1,80,2|0,0:0|0:0,0:0:0:0:
280,292,13096,2,0,B|340:208|344:136|344:136|328:168|284:192,1,240,14|0,0:0|0:0,0:0:0:0:
193,179,13738,2,0,L|238:187,1,30.0000011444092
264,216,14058,5,0,1:0:0:0:
320,272,14219,1,0,1:0:0:0:
400,268,14379,2,0,L|444:176,1,80,0|0,1:0|2:0,0:0:0:0:
370,112,14700,2,0,L|335:184,1,80,0|0,1:0|2:0,2:0:0:0:
272,344,15020,2,0,B|260:320|284:316|284:316|312:368|372:320|348:260|304:232|256:240|180:260|212:368,1,320,10|6,0:0|0:0,0:0:0:0:
328,344,15982,5,0,1:0:0:0:
408,252,16143,1,0,1:0:0:0:
456,100,16303,1,10,0:0:0:0:
212,112,16624,5,0,1:0:0:0:
316,156,16784,1,0,1:0:0:0:
148,144,16944,1,10,0:0:0:0:
384,144,17105,1,0,0:0:0:0:
208,184,17265,1,0,1:0:0:0:
276,76,17425,1,0,1:0:0:0:
264,224,17586,1,12,0:0:0:0:
456,221,17746,5,2,0:0:0:0:
256,278,17906,1,2,0:0:0:0:
39,336,18067,1,2,0:0:0:0:
132,212,18227,2,0,P|220:192|312:200,1,160,6|0,0:0|0:0,0:0:0:0:
336,205,18868,6,0,L|342:251,1,30.0000011444092
388,276,19028,1,0,0:0:0:0:
260,260,19189,1,0,1:0:0:0:
408,284,19349,1,0,1:0:0:0:
236,260,19509,6,0,P|152:256|65:281,1,160,8|0,0:0|1:0,0:0:0:0:
80,360,19990,1,0,1:0:0:0:
332,164,20151,2,0,P|264:140|179:217,1,160,8|0,0:0|1:0,0:0:0:0:
72,220,20792,6,0,P|20:180|24:76,1,160,6|0,0:0|0:0,0:0:0:0:
224,156,21273,2,0,L|180:164,2,30.0000011444092,8|0|0,0:0|1:0|0:0,0:0:0:0:
68,184,21594,1,0,1:0:0:0:
260,196,21755,1,0,0:0:0:0:
132,100,21915,1,10,2:0:0:0:
336,180,22075,6,0,P|440:156|480:104,1,160,2|0,2:0|0:0,0:0:0:0:
472,28,22556,1,0,1:0:0:0:
456,24,22716,1,0,1:0:0:0:
440,20,22876,1,0,1:0:0:0:
324,84,23037,2,0,P|360:96|404:72,1,80,2|0,0:0|0:0,0:0:0:0:
280,12,23357,2,0,P|247:81|316:168,1,160,14|0,0:0|0:0,0:0:0:0:
412,224,23999,1,8,0:0:0:0:
416,312,24640,6,2,P|256:288|96:312,1,320
12,268,25842,1,0,0:0:0:0:
36,292,25922,1,0,0:0:0:0:
64,304,26003,2,0,P|112:288|152:288,1,68.0000012969971
208,344,26163,2,0,P|160:360|120:360,1,68.0000012969971
208,256,26323,6,0,P|256:240|296:240,1,68.0000012969971
352,296,26484,2,0,P|304:312|264:312,1,68.0000012969971
352,208,26644,6,0,P|400:192|440:192,1,68.0000012969971
496,248,26804,2,0,P|448:264|408:264,1,68.0000012969971
248,240,26965,6,0,P|232:200|248:160,1,68.0000012969971
360,104,27125,2,0,P|412:120|432:156,1,68.0000012969971
418,257,27285,2,0,P|376:296|332:296,1,68.0000012969971
256,144,27445,6,0,P|292:112|352:108,1,68.0000012969971
436,160,27606,2,0,P|444:200|412:256,1,68.0000012969971
324,304,27766,2,0,P|285:290|252:235,1,68.0000012969971
144,136,29770,5,0,0:0:0:0:
200,192,30412,1,2,0:0:0:0:
64,312,31053,2,0,P|152:336|236:288,1,160,6|0,0:0|1:0,0:0:0:0:
272,264,31534,1,0,1:0:0:0:
368,88,31694,2,0,P|296:112|272:208,1,160,8|0,0:0|1:0,0:0:0:0:
288,344,32175,5,0,1:0:0:0:
408,296,32335,1,8,0:0:0:0:
240,320,32496,1,0,1:0:0:0:
408,296,32656,1,0,1:0:0:0:
216,272,32816,1,0,1:0:0:0:
408,296,32977,1,8,0:0:0:0:
424,164,33297,5,0,1:0:0:0:
368,104,33458,1,0,1:0:0:0:
416,40,33618,2,0,P|296:48|224:64,1,160,2|0,0:0|0:0,0:0:0:0:
456,136,34099,5,0,0:0:0:0:
456,152,34179,5,0,0:0:0:0:
440,144,34259,5,0,1:0:0:0:
296,132,34420,1,0,1:0:0:0:
156,164,34580,1,0,1:0:0:0:
44,252,34740,1,8,0:0:0:0:
456,280,34901,5,0,1:0:0:0:
340,256,35061,1,0,1:0:0:0:
224,284,35221,1,0,1:0:0:0:
136,368,35382,1,0,1:0:0:0:
408,352,35542,6,0,P|344:344|256:384,1,160,12|0,0:0|0:0,0:0:0:0:
448,152,36183,2,0,P|320:136|264:160,1,160,6|0,0:0|0:0,0:0:0:0:
96,216,36824,1,8,0:0:0:0:
200,64,37145,5,0,0:0:0:0:
240,176,37305,1,0,1:0:0:0:
280,288,37466,1,10,0:0:0:0:
132,88,37626,5,0,0:0:0:0:
304,148,37786,1,0,1:0:0:0:
216,312,37947,1,0,1:0:0:0:
368,372,38107,1,8,0:0:0:0:
496,208,38267,5,2,0:0:0:0:
256,232,38428,1,2,0:0:0:0:
16,256,38588,1,2,0:0:0:0:
256,360,38748,2,0,P|336:304|352:232,1,160,6|0,0:0|0:0,0:0:0:0:
224,136,39229,6,0,P|248:128|272:128,1,30.0000011444092,0|0,1:0|1:0,1:0:0:0:
376,144,39390,1,8,0:0:0:0:
172,292,39550,1,0,0:0:0:0:
236,184,39710,1,0,1:0:0:0:
408,184,39871,1,0,1:0:0:0:
144,196,40031,6,0,P|136:144|144:104,1,80,10|0,0:0|1:0,0:0:0:0:
408,184,40352,1,0,1:0:0:0:
408,184,40512,1,0,1:0:0:0:
92,152,40672,6,0,P|104:112|132:84,1,80,10|0,0:0|1:0,0:0:0:0:
408,184,40993,1,0,1:0:0:0:
408,184,41153,1,0,1:0:0:0:
60,100,41314,6,0,P|136:68|220:76,1,160,14|0,0:0|0:0,0:0:0:0:
436,172,41955,2,0,B|406:192|392:204|392:244|408:276|408:276|384:260|360:264,1,160,10|0,0:0|1:0,0:0:0:0:
292,264,42436,1,0,1:0:0:0:
216,292,42596,1,2,0:0:0:0:
164,352,42756,1,0,1:0:0:0:
342,333,42917,1,0,1:0:0:0:
292,264,43077,1,0,1:0:0:0:
244,200,43237,1,12,0:0:0:0:
80,148,43558,6,0,P|84:192|128:224,1,80,2|0,0:0|0:0,0:0:0:0:
184,236,43879,2,0,P|124:224|52:304,1,160,6|0,0:0|0:0,0:0:0:0:
144,364,44520,6,0,P|156:328|132:288,1,80,8|0,0:0|0:0,0:0:0:0:
40,328,44841,1,0,1:0:0:0:
232,308,45001,1,0,1:0:0:0:
68,280,45161,2,2,B|152:256|232:308|232:308|300:236|384:280,1,320,6|10,0:0|0:0,0:0:0:0:
196,236,46444,6,0,P|212:184|196:136,1,68.0000012969971
312,92,46604,6,0,P|264:80|224:88,1,68.0000012969971
144,0,46765,6,0,P|144:56|172:84,1,68.0000012969971
56,128,46925,6,0,P|96:152|140:136,1,68.0000012969971
280,168,47085,6,0,P|317:207|366:218,1,68.0000012969971
346,340,47245,6,0,P|380:304|393:265,1,68.0000012969971
510,240,47406,6,0,P|461:212|423:222,1,68.0000012969971
443,100,47566,6,0,P|402:122|394:168,1,68.0000012969971
327,200,47727,1,0,0:0:0:0:
355,220,47807,1,0,0:0:0:0:
387,228,47887,1,0,0:0:0:0:
419,224,47967,1,0,0:0:0:0:
451,212,48047,1,0,0:0:0:0:
140,132,48208,5,0,1:0:0:0:
132,84,48288,1,0,0:0:0:0:
156,44,48368,1,8,0:0:0:0:
204,36,48448,1,0,0:0:0:0:
196,100,48528,5,0,0:0:0:0:
204,164,48608,1,0,0:0:0:0:
252,204,48688,1,0,0:0:0:0:
316,208,48769,1,0,0:0:0:0:
372,180,48849,1,0,0:0:0:0:
396,120,48929,1,0,0:0:0:0:
384,96,49009,5,0,1:0:0:0:
348,140,49089,1,0,0:0:0:0:
292,152,49169,1,0,0:0:0:0:
236,144,49250,1,0,0:0:0:0:
192,108,49330,1,0,0:0:0:0:
168,56,49410,1,0,0:0:0:0:
132,76,49490,5,0,0:0:0:0:
92,116,49570,1,0,0:0:0:0:
108,168,49650,1,12,0:0:0:0:
164,172,49731,1,0,0:0:0:0:
184,120,49811,1,0,0:0:0:0:
136,128,49891,1,0,0:0:0:0:
92,148,49971,5,8,0:0:0:0:
72,160,50051,1,0,0:0:0:0:
52,172,50131,1,8,0:0:0:0:
36,192,50212,1,0,0:0:0:0:
32,216,50292,1,12,0:0:0:0:
40,228,50372,1,0,0:0:0:0:
52,240,50452,1,0,0:0:0:0:
68,248,50532,1,0,0:0:0:0:
84,252,50612,1,0,1:0:0:0:
100,252,50693,1,0,0:0:0:0:
116,248,50773,1,0,1:0:0:0:
132,244,50853,1,0,0:0:0:0:
148,236,50933,2,0,P|240:208|316:220,2,160,8|0|2,0:0|0:0|0:0,0:0:0:0:
100,188,51895,6,0,P|132:224|184:228,1,92.0000017547608,0|0,0:0|1:0,0:0:0:0:
308,208,52216,1,8,0:0:0:0:
472,88,52376,2,0,P|424:128|432:256,1,184.000003509522
432,336,52857,5,0,0:0:0:0:
408,332,52937,1,0,0:0:0:0:
388,320,53017,1,0,0:0:0:0:
340,240,53178,1,0,0:0:0:0:
268,316,53338,1,0,0:0:0:0:
248,328,53418,1,0,0:0:0:0:
224,332,53498,1,8,0:0:0:0:
168,260,53659,5,0,0:0:0:0:
188,216,53739,1,0,0:0:0:0:
188,172,53819,1,0,0:0:0:0:
168,132,53899,1,0,0:0:0:0:
132,104,53979,1,0,0:0:0:0:
72,212,54140,2,0,P|116:308|284:304,1,276.000005264282,6|0,0:0|0:0,0:0:0:0:
404,216,54781,5,8,0:0:0:0:
204,240,54941,1,0,0:0:0:0:
472,264,55101,1,0,1:0:0:0:
308,32,55262,1,0,1:0:0:0:
460,64,55422,1,0,1:0:0:0:
434,102,55502,1,0,0:0:0:0:
394,125,55582,1,0,0:0:0:0:
348,135,55663,1,0,0:0:0:0:
302,126,55743,1,0,1:0:0:0:
192,56,55903,5,0,1:0:0:0:
308,32,56063,2,0,P|296:144|276:228,1,184.000003509522,8|0,0:0|1:0,0:0:0:0:
96,280,56544,1,0,1:0:0:0:
360,316,56705,2,0,P|272:300|168:324,2,184.000003509522,6|0|10,0:0|0:0|0:0,0:0:0:0:
472,348,57506,5,0,0:0:0:0:
364,208,57667,2,0,P|404:252|432:296,1,92.0000017547608,0|0,1:0|1:0,0:0:0:0:
128,160,57987,2,0,P|240:136|308:168,1,184.000003509522,0|0,1:0|0:0,0:0:0:0:
340,188,58388,5,0,0:0:0:0:
380,236,58468,1,0,1:0:0:0:
384,300,58548,1,0,0:0:0:0:
352,356,58629,1,8,0:0:0:0:
292,372,58709,1,0,0:0:0:0:
232,348,58789,1,0,0:0:0:0:
200,292,58869,1,0,0:0:0:0:
208,228,58949,2,0,P|232:180|276:164,1,92.0000017547608,4|2,0:0|0:0,0:0:0:0:
428,184,59270,6,0,P|424:252|308:240,1,184.000003509522,6|0,0:0|0:0,0:0:0:0:
328,80,59751,6,0,P|384:56|432:56,1,92.0000017547608,0|8,0:0|0:0,0:0:0:0:
216,260,60125,6,0,P|168:272|108:228,1,93.3333342234294
152,40,60339,6,0,P|128:80|176:148,1,93.3333342234294
196,196,60553,5,0,0:0:0:0:
263,212,60633,1,0,0:0:0:0:
330,229,60713,1,0,0:0:0:0:
398,244,60793,1,0,0:0:0:0:
398,185,60873,5,0,0:0:0:0:
329,198,60953,1,0,0:0:0:0:
263,212,61033,1,0,0:0:0:0:
195,231,61114,1,0,0:0:0:0:
232,136,61194,2,0,P|176:128|128:160,1,92.0000017547608,12|0,0:0|0:0,0:0:0:0:
92,260,61514,2,0,P|104:308|160:344,1,92.0000017547608,2|0,0:0|0:0,0:0:0:0:
284,360,61835,5,14,0:0:0:0:
320,316,61915,1,0,0:0:0:0:
356,276,61995,1,0,0:0:0:0:
389,99,62156,5,0,0:0:0:0:
332,88,62236,1,0,0:0:0:0:
278,100,62316,1,0,0:0:0:0:
164,164,62476,2,0,P|224:192|256:156,1,92.0000017547608,0|12,1:0|0:0,0:0:0:0:
332,88,62797,1,0,1:0:0:0:
208,36,62957,1,8,0:0:0:0:
352,304,63118,2,0,P|296:268|164:280,2,184.000003509522,4|0|2,0:0|0:0|0:0,0:0:0:0:
300,128,63919,6,0,P|260:120|180:132,1,92.0000017547608
52,164,64240,1,0,0:0:0:0:
132,320,64400,1,6,0:0:0:0:
152,300,64480,1,0,0:0:0:0:
164,276,64561,1,0,0:0:0:0:
172,248,64641,1,0,0:0:0:0:
168,220,64721,1,0,0:0:0:0:
156,196,64801,1,0,0:0:0:0:
140,176,64881,1,0,0:0:0:0:
116,160,64961,1,0,0:0:0:0:
92,148,65042,1,8,0:0:0:0:
76,160,65122,1,0,0:0:0:0:
64,172,65202,1,0,0:0:0:0:
52,184,65282,1,0,0:0:0:0:
40,196,65362,1,0,1:0:0:0:
4,280,65523,5,0,1:0:0:0:
72,340,65683,2,2,P|240:324|204:160,1,368.000007019043,2|8,0:0|0:0,0:0:0:0:
174,80,66965,1,0,0:0:0:0:
182,124,67045,1,0,0:0:0:0:
148,155,67125,1,0,0:0:0:0:
105,141,67205,1,0,0:0:0:0:
94,97,67285,1,0,0:0:0:0:
125,65,67365,1,0,0:0:0:0:
174,80,67446,6,0,P|220:112|216:156,1,68.0000012969971
188,204,67607,2,0,P|140:216|112:188,1,68.0000012969971
52,276,67767,2,0,P|76:300|124:304,1,68.0000012969971
256,324,67927,5,0,0:0:0:0:
248,280,68007,1,0,0:0:0:0:
282,249,68087,1,0,0:0:0:0:
325,263,68167,1,0,0:0:0:0:
336,307,68247,1,0,0:0:0:0:
304,339,68327,1,0,0:0:0:0:
264,328,68408,6,0,P|236:356|248:404,1,68.0000012969971
404,344,68569,6,0,P|436:333|461:311,1,68.0000012969971,2|0,0:0|0:0,0:0:0:0:
359,204,68729,6,0,P|332:180|300:170,1,68.0000012969971,2|0,0:0|0:0,0:0:0:0:
178,186,68889,1,0,0:0:0:0:
192,128,70813,5,0,0:0:0:0:
248,176,71455,1,8,0:0:0:0:
172,344,72096,6,0,P|204:272|108:196,1,195.199991958008,6|0,0:0|0:0,0:0:0:0:
36,192,72577,1,0,0:0:0:0:
256,192,72737,2,0,P|304:172|324:132,2,97.5999959790041,8|0|2,0:0|0:0|0:0,0:0:0:0:
36,192,73218,1,2,0:0:0:0:
232,64,73378,2,0,P|252:120|240:256,1,195.199991958008,2|0,0:0|0:0,0:0:0:0:
188,348,73859,5,0,0:0:0:0:
340,228,74020,1,8,0:0:0:0:
32,156,74180,1,0,0:0:0:0:
164,248,74340,2,0,P|180:216|180:148,1,97.5999959790041,2|0,0:0|0:0,0:0:0:0:
64,268,74661,2,0,P|104:324|240:320,1,195.199991958008,2|0,0:0|0:0,0:0:0:0:
380,208,75142,6,0,P|308:224|284:276,1,97.5999959790041,0|8,0:0|0:0,0:0:0:0:
492,320,75463,2,0,P|476:248|424:224,1,97.5999959790041,0|2,0:0|0:0,0:0:0:0:
280,168,75783,1,2,0:0:0:0:
352,300,75944,1,2,0:0:0:0:
136,168,76104,1,0,0:0:0:0:
275,239,76264,2,0,L|367:311,1,97.5999959790041,2|2,0:0|0:0,0:0:0:0:
268,352,76585,2,0,L|191:291,2,97.5999959790041,12|0|0,0:0|0:0|0:0,0:0:0:0:
420,264,77066,5,0,0:0:0:0:
152,156,77226,2,0,P|224:132|244:8,1,195.199991958008,2|0,0:0|0:0,0:0:0:0:
152,156,77707,2,0,P|96:160|64:196,2,97.5999959790041,0|10|0,0:0|0:0|0:0,0:0:0:0:
448,304,78188,1,0,0:0:0:0:
376,28,78349,1,0,0:0:0:0:
284,250,78509,2,0,P|188:238|164:114,1,195.199991958008,10|0,0:0|0:0,0:0:0:0:
176,40,78990,1,0,0:0:0:0:
24,208,79150,6,0,P|76:252|128:236,1,97.5999959790041,2|0,0:0|0:0,0:0:0:0:
218,96,79471,2,0,P|170:116|150:168,1,97.5999959790041,2|0,0:0|0:0,0:0:0:0:
152,328,79791,2,0,P|240:272|256:180,2,195.199991958008,14|0|0,0:0|0:0|0:0,0:0:0:0:
60,332,80593,5,2,0:0:0:0:
160,236,80753,1,2,0:0:0:0:
20,164,80914,1,2,0:0:0:0:
192,364,81074,1,2,0:0:0:0:
284,248,81234,1,0,0:0:0:0:
80,88,81395,6,0,P|164:128|272:108,1,195.199991958008,14|8,0:0|0:0,0:0:0:0:
80,196,81876,1,0,0:0:0:0:
400,88,82036,1,6,0:0:0:0:
188,0,82196,1,0,0:0:0:0:
144,320,82357,2,0,P|188:356|240:380,1,97.5999959790041,2|0,0:0|0:0,0:0:0:0:
440,312,82677,1,0,0:0:0:0:
144,92,82838,1,0,0:0:0:0:
432,56,82998,6,0,P|396:92|432:144,1,97.5999959790041,14|0,0:0|0:0,0:0:0:0:
480,196,83319,1,0,0:0:0:0:
144,328,83479,1,0,0:0:0:0:
308,8,83639,2,0,P|280:84|352:204,1,195.199991958008,6|0,0:1|0:0,0:0:0:0:
456,280,84120,1,2,0:0:0:0:
280,376,84281,5,8,0:0:0:0:
196,260,84441,2,0,P|184:200|184:144,1,97.5999959790041,0|2,0:0|0:0,0:0:0:0:
196,69,84761,2,0,P|184:132|184:185,1,97.5999959790041,2|0,0:0|0:0,0:0:0:0:
236,348,85082,1,0,0:0:0:0:
316,288,85242,1,2,0:0:0:0:
112,344,85403,6,0,P|136:296|184:232,1,97.5999959790041,2|8,0:0|0:0,0:0:0:0:
240,156,85723,2,0,P|288:104|328:72,1,97.5999959790041,0|2,0:0|0:0,0:0:0:0:
420,4,86044,1,0,0:0:0:0:
312,264,86204,1,2,0:0:0:0:
240,156,86365,1,0,0:0:0:0:
468,288,86525,1,0,0:0:0:0:
136,364,86685,1,0,0:0:0:0:
167,90,86846,2,0,L|251:166,1,97.5999959790041,12|0,0:0|0:0,0:0:0:0:
360,192,87166,1,0,0:0:0:0:
312,28,87327,5,0,0:0:0:0:
312,28,87407,1,0,0:0:0:0:
312,28,87487,2,0,P|272:76|260:220,1,195.199991958008,2|2,0:0|0:0,0:0:0:0:
388,300,87968,2,0,P|384:220|352:188,1,97.5999959790041,0|10,0:0|0:0,0:0:0:0:
162,197,88289,2,0,P|218:213|266:197,1,97.5999959790041,0|2,0:0|0:0,0:0:0:0:
344,132,88609,1,0,0:0:0:0:
232,80,88770,2,0,P|224:164|280:264,1,195.199991958008,2|0,0:0|0:0,0:0:0:0:
372,276,89251,5,2,0:0:0:0:
198,276,89411,2,0,P|172:232|155:161,1,97.5999959790041,8|0,0:0|0:0,0:0:0:0:
481,117,89732,2,0,P|497:177|453:201,1,97.5999959790041
274,259,90052,2,0,P|232:140|252:60,1,195.199991958008,2|0,0:0|0:0,0:0:0:0:
376,136,90694,5,0,0:0:0:0:
376,136,90854,1,0,0:0:0:0:
240,160,91014,5,2,0:0:0:0:
496,192,91174,1,2,0:0:0:0:
284,248,91335,1,8,0:0:0:0:
284,248,91655,1,2,0:0:0:0:
0,188,91816,1,2,0:0:0:0:
52,284,91976,2,0,B|81:258|81:258|94:249|94:249|99:238|99:238|128:212,2,97.5999959790041,8|0|0,0:0|0:0|0:0,0:0:0:0:
210,116,92457,5,0,0:0:0:0:
134,192,92617,1,0,0:0:0:0:
210,116,92778,1,0,0:0:0:0:
256,268,93098,1,0,0:0:0:0:
316,360,93419,5,0,0:0:0:0:
386,278,93579,1,0,0:0:0:0:
316,360,93740,1,0,0:0:0:0:
256,268,93900,1,0,0:0:0:0:
316,360,94060,1,0,0:0:0:0:
128,276,94381,5,0,0:0:0:0:
260,268,94541,1,0,0:0:0:0:
128,276,94702,1,0,0:0:0:0:
280,256,94862,1,0,0:0:0:0:
108,296,95022,1,0,0:0:0:0:
312,240,95183,1,0,0:0:0:0:
