osu file format v14

[General]
AudioFilename: audio.mp3
AudioLeadIn: 0
PreviewTime: 150753
Countdown: 1
SampleSet: Normal
StackLeniency: 0.7
Mode: 1
LetterboxInBreaks: 0
WidescreenStoryboard: 1

[Editor]
DistanceSpacing: 1.4
BeatDivisor: 8
GridSize: 32
TimelineZoom: 3.199999

[Metadata]
Title:Baiana
TitleUnicode:BaianĂ¡
Artist:Bakermat
ArtistUnicode:Bakermat
Creator:-[ ix Ishida xi ]-
Version:-[ ix Taiko xi ]- (NSC)
Source:
Tags:
BeatmapID:2122089
BeatmapSetID:1013926

[Difficulty]
HPDrainRate:5
CircleSize:5
OverallDifficulty:5
ApproachRate:5
SliderMultiplier:1.4
SliderTickRate:1

[Events]
//Background and Video events
0,0,"ba.jpg",0,0
//Break Periods
//Storyboard Layer 0 (Background)
//Storyboard Layer 1 (Fail)
//Storyboard Layer 2 (Pass)
//Storyboard Layer 3 (Foreground)
//Storyboard Sound Samples

[TimingPoints]
21810,588.235294117647,4,1,0,55,1,0
31218,564.705882352941,4,1,0,55,1,0
35735,559.701492537313,4,1,0,55,1,0
40212,546.697038724374,4,1,0,55,1,0
44585,536.193029490617,4,1,0,55,1,0
48874,525.164113785558,4,1,0,55,1,0
53075,514.579759862779,4,1,0,55,1,0
57191,506.756756756757,4,1,0,55,1,0
57697,-100,4,1,0,55,0,0
58204,-100,4,1,0,55,0,0
58711,-100,4,1,0,55,0,0
59218,-100,4,1,0,55,0,0
59724,-100,4,1,0,55,0,0
60231,-100,4,1,0,55,0,0
60738,-100,4,1,0,55,0,0
61245,495.25381758151,4,1,0,55,1,0
61245,-100,4,1,0,55,0,0
65207,491.803278688525,4,1,0,55,1,0
67174,-100,4,1,0,55,0,0
69141,-100,4,1,0,55,0,0
69633,-100,4,1,0,55,0,0
70125,-100,4,1,0,55,0,0
70616,-100,4,1,0,55,0,0
71108,-100,4,1,0,55,0,0
71354,-100,4,1,0,55,0,0
71600,-100,4,1,0,55,0,0
71846,-100,4,1,0,55,0,0
72092,-100,4,1,0,55,0,0
72215,-100,4,1,0,55,0,0
73075,-100,4,1,0,55,0,1
88813,-100,4,1,0,55,0,0
88936,-100,4,1,0,55,0,0
90780,-100,4,1,0,55,0,1
92747,-100,4,1,0,55,0,0
92870,-100,4,1,0,55,0,0
94715,-100,4,1,0,55,0,1
96682,-100,4,1,0,55,0,0
96805,-100,4,1,0,55,0,0
98649,-100,4,1,0,55,0,1
100616,-100,4,1,0,55,0,0
100620,491.803278688525,4,1,0,55,1,8
100739,-100,4,1,0,55,0,0
102587,-100,4,1,0,55,0,0
104554,-100,4,1,0,55,0,0
120292,-100,4,1,0,55,0,0
136152,-100,4,1,0,55,0,0
143898,-100,4,1,0,55,0,0
145865,-100,4,1,0,55,0,0
147792,-100,4,1,0,55,0,0
147833,-100,4,1,0,55,0,0
148816,-100,4,1,0,55,0,0
149800,-100,4,1,0,55,0,0
149861,-100,4,1,0,55,0,0
149923,-100,4,1,0,55,0,0
149984,-100,4,1,0,55,0,0
150046,-100,4,1,0,55,0,0
150107,-100,4,1,0,55,0,0
150169,-100,4,1,0,55,0,0
150230,-100,4,1,0,55,0,0
150292,-100,4,1,0,55,0,0
150353,-100,4,1,0,55,0,0
150415,-100,4,1,0,55,0,0
150476,-100,4,1,0,55,0,0
150538,-100,4,1,0,55,0,0
150599,-100,4,1,0,55,0,0
150660,-100,4,1,0,55,0,0
150722,-100,4,1,0,55,0,0
150783,-100,4,1,0,55,0,0
151767,-100,4,1,0,55,0,1
183242,-100,4,1,0,55,0,0
187177,-100,4,1,0,55,0,0
191111,-100,4,1,0,55,0,0
195046,-100,4,1,0,55,0,0

[HitObjects]
256,192,21810,5,0,0:0:0:0:
256,192,22986,1,8,0:0:0:0:
256,192,24162,1,0,0:0:0:0:
256,192,25339,1,8,0:0:0:0:
256,192,26515,1,0,0:0:0:0:
256,192,27692,1,8,0:0:0:0:
256,192,28868,1,0,0:0:0:0:
256,192,30045,1,0,0:0:0:0:
256,192,30339,1,8,0:0:0:0:
256,192,30633,1,0,0:0:0:0:
256,192,30780,1,8,0:0:0:0:
256,192,31218,1,0,0:0:0:0:
256,192,31782,1,8,0:0:0:0:
256,192,32912,1,8,0:0:0:0:
256,192,34041,1,8,0:0:0:0:
256,192,35170,1,8,0:0:0:0:
256,192,35735,1,0,0:0:0:0:
256,192,36294,1,8,0:0:0:0:
256,192,37414,1,8,0:0:0:0:
256,192,38533,1,8,0:0:0:0:
256,192,39652,1,8,0:0:0:0:
256,192,39932,1,0,0:0:0:0:
256,192,40212,1,0,0:0:0:0:
256,192,40758,1,8,0:0:0:0:
256,192,41305,1,0,0:0:0:0:
256,192,41578,1,0,0:0:0:0:
256,192,41852,1,8,0:0:0:0:
256,192,42398,1,0,0:0:0:0:
256,192,42945,1,8,0:0:0:0:
256,192,43218,1,0,0:0:0:0:
256,192,43492,1,0,0:0:0:0:
256,192,43765,1,0,0:0:0:0:
256,192,44038,1,8,0:0:0:0:
256,192,44312,1,0,0:0:0:0:
256,192,44585,1,0,0:0:0:0:
256,192,45121,1,8,0:0:0:0:
256,192,45657,1,0,0:0:0:0:
256,192,45925,1,0,0:0:0:0:
256,192,46193,1,8,0:0:0:0:
256,192,46729,1,0,0:0:0:0:
256,192,46997,1,0,0:0:0:0:
256,192,47265,1,8,0:0:0:0:
256,192,47534,1,0,0:0:0:0:
256,192,47802,1,0,0:0:0:0:
256,192,48070,1,8,0:0:0:0:
256,192,48338,1,0,0:0:0:0:
256,192,48472,1,8,0:0:0:0:
256,192,48606,1,0,0:0:0:0:
256,192,48874,1,0,0:0:0:0:
256,192,49136,1,8,0:0:0:0:
256,192,49399,1,0,0:0:0:0:
256,192,49661,1,8,0:0:0:0:
256,192,49793,1,0,0:0:0:0:
256,192,49924,1,0,0:0:0:0:
256,192,50186,1,8,0:0:0:0:
256,192,50449,1,0,0:0:0:0:
256,192,50580,1,8,0:0:0:0:
256,192,50712,1,8,0:0:0:0:
256,192,50843,1,8,0:0:0:0:
256,192,50974,1,0,0:0:0:0:
256,192,51237,1,8,0:0:0:0:
256,192,51499,1,0,0:0:0:0:
256,192,51762,1,8,0:0:0:0:
256,192,51893,1,0,0:0:0:0:
256,192,52024,1,0,0:0:0:0:
256,192,52287,1,8,0:0:0:0:
256,192,52550,1,0,0:0:0:0:
256,192,52812,1,8,0:0:0:0:
256,192,53075,1,0,0:0:0:0:
256,192,53332,1,8,0:0:0:0:
256,192,53589,1,0,0:0:0:0:
256,192,53846,1,8,0:0:0:0:
256,192,53975,1,0,0:0:0:0:
256,192,54104,1,0,0:0:0:0:
256,192,54232,1,8,0:0:0:0:
256,192,54490,1,0,0:0:0:0:
256,192,54618,1,0,0:0:0:0:
256,192,54876,1,8,0:0:0:0:
256,192,55133,1,0,0:0:0:0:
256,192,55390,1,8,0:0:0:0:
256,192,55647,1,0,0:0:0:0:
256,192,55905,1,8,0:0:0:0:
256,192,56033,1,0,0:0:0:0:
256,192,56162,1,0,0:0:0:0:
256,192,56419,1,8,0:0:0:0:
256,192,56548,1,0,0:0:0:0:
256,192,56677,1,8,0:0:0:0:
256,192,56805,1,8,0:0:0:0:
256,192,56934,1,0,0:0:0:0:
256,192,57191,1,0,0:0:0:0:
256,192,57697,1,0,0:0:0:0:
256,192,58204,1,0,0:0:0:0:
256,192,58711,1,0,0:0:0:0:
256,192,59218,1,0,0:0:0:0:
256,192,59724,1,0,0:0:0:0:
256,192,60231,1,0,0:0:0:0:
256,192,60738,1,0,0:0:0:0:
256,192,61245,12,0,65083,0:0:0:0:
256,192,65207,5,0,0:0:0:0:
256,192,65453,1,8,0:0:0:0:
256,192,65699,1,0,0:0:0:0:
256,192,65944,1,8,0:0:0:0:
256,192,66067,1,0,0:0:0:0:
256,192,66190,1,0,0:0:0:0:
256,192,66436,1,8,0:0:0:0:
256,192,66560,1,0,0:0:0:0:
256,192,66806,1,0,0:0:0:0:
256,192,66929,1,8,0:0:0:0:
256,192,67175,1,0,0:0:0:0:
256,192,67298,1,0,0:0:0:0:
256,192,67421,1,8,0:0:0:0:
256,192,67666,1,0,0:0:0:0:
256,192,67912,1,8,0:0:0:0:
256,192,68035,1,0,0:0:0:0:
256,192,68158,1,0,0:0:0:0:
256,192,68404,1,8,0:0:0:0:
256,192,68526,1,0,0:0:0:0:
256,192,68650,1,8,0:0:0:0:
256,192,68772,1,0,0:0:0:0:
256,192,68895,1,8,0:0:0:0:
256,192,69142,1,0,0:0:0:0:
256,192,69264,1,8,0:0:0:0:
256,192,69387,1,8,0:0:0:0:
256,192,69510,1,8,0:0:0:0:
256,192,69633,1,0,0:0:0:0:
256,192,69756,1,8,0:0:0:0:
256,192,69879,1,8,0:0:0:0:
256,192,70002,1,8,0:0:0:0:
256,192,70125,1,0,0:0:0:0:
256,192,70248,1,8,0:0:0:0:
256,192,70371,1,8,0:0:0:0:
256,192,70494,1,8,0:0:0:0:
256,192,70617,1,0,0:0:0:0:
256,192,70740,1,8,0:0:0:0:
256,192,70862,1,8,0:0:0:0:
256,192,70985,1,8,0:0:0:0:
256,192,71108,1,0,0:0:0:0:
256,192,71170,1,8,0:0:0:0:
256,192,71231,1,8,0:0:0:0:
256,192,71293,1,8,0:0:0:0:
256,192,71354,1,0,0:0:0:0:
256,192,71416,1,8,0:0:0:0:
256,192,71477,1,8,0:0:0:0:
256,192,71539,1,8,0:0:0:0:
256,192,71600,1,0,0:0:0:0:
256,192,71662,1,8,0:0:0:0:
256,192,71723,1,8,0:0:0:0:
256,192,71785,1,8,0:0:0:0:
256,192,71846,1,0,0:0:0:0:
256,192,71908,1,8,0:0:0:0:
256,192,71969,1,8,0:0:0:0:
256,192,72030,1,8,0:0:0:0:
256,192,72092,1,4,0:0:0:0:
256,192,72339,1,0,0:0:0:0:
256,192,72584,1,8,0:0:0:0:
256,192,72707,1,8,0:0:0:0:
256,192,72830,1,0,0:0:0:0:
256,192,73076,1,4,0:0:0:0:
256,192,73321,1,8,0:0:0:0:
256,192,73485,1,0,0:0:0:0:
256,192,73567,1,8,0:0:0:0:
256,192,73813,1,0,0:0:0:0:
256,192,73977,1,8,0:0:0:0:
256,192,74059,1,0,0:0:0:0:
256,192,74223,1,8,0:0:0:0:
256,192,74305,1,0,0:0:0:0:
256,192,74387,1,0,0:0:0:0:
256,192,74469,1,0,0:0:0:0:
256,192,74551,1,8,0:0:0:0:
256,192,74797,1,8,0:0:0:0:
256,192,74961,1,8,0:0:0:0:
256,192,75043,1,0,0:0:0:0:
256,192,75289,1,8,0:0:0:0:
256,192,75453,1,0,0:0:0:0:
256,192,75535,1,8,0:0:0:0:
256,192,75780,1,0,0:0:0:0:
256,192,75944,1,8,0:0:0:0:
256,192,76026,1,0,0:0:0:0:
256,192,76190,1,8,0:0:0:0:
256,192,76272,1,0,0:0:0:0:
256,192,76436,1,0,0:0:0:0:
256,192,76518,1,8,0:0:0:0:
256,192,76682,1,8,0:0:0:0:
256,192,76764,1,8,0:0:0:0:
256,192,76928,1,8,0:0:0:0:
256,192,77010,1,0,0:0:0:0:
256,192,77256,1,8,0:0:0:0:
256,192,77420,1,0,0:0:0:0:
256,192,77502,1,8,0:0:0:0:
256,192,77666,1,0,0:0:0:0:
256,192,77912,1,8,0:0:0:0:
256,192,77994,1,0,0:0:0:0:
256,192,78158,1,8,0:0:0:0:
256,192,78240,1,0,0:0:0:0:
256,192,78403,1,0,0:0:0:0:
256,192,78485,1,8,0:0:0:0:
256,192,78731,1,0,0:0:0:0:
256,192,78977,1,0,0:0:0:0:
256,192,79141,1,8,0:0:0:0:
256,192,79223,1,0,0:0:0:0:
256,192,79305,1,0,0:0:0:0:
256,192,79387,1,0,0:0:0:0:
256,192,79469,1,8,0:0:0:0:
256,192,79633,1,8,0:0:0:0:
256,192,79715,1,0,0:0:0:0:
256,192,79797,1,0,0:0:0:0:
256,192,79879,1,0,0:0:0:0:
256,192,79961,1,0,0:0:0:0:
256,192,80125,1,8,0:0:0:0:
256,192,80207,1,0,0:0:0:0:
256,192,80289,1,0,0:0:0:0:
256,192,80371,1,0,0:0:0:0:
256,192,80453,1,8,0:0:0:0:
256,192,80535,1,0,0:0:0:0:
256,192,80617,1,8,0:0:0:0:
256,192,80699,1,0,0:0:0:0:
256,192,80944,1,4,0:0:0:0:
256,192,81190,1,8,0:0:0:0:
256,192,81354,1,0,0:0:0:0:
256,192,81436,1,8,0:0:0:0:
256,192,81682,1,0,0:0:0:0:
256,192,81846,1,8,0:0:0:0:
256,192,81928,1,0,0:0:0:0:
256,192,82092,1,8,0:0:0:0:
256,192,82174,1,0,0:0:0:0:
256,192,82256,1,0,0:0:0:0:
256,192,82338,1,0,0:0:0:0:
256,192,82420,1,8,0:0:0:0:
256,192,82666,1,8,0:0:0:0:
256,192,82830,1,8,0:0:0:0:
256,192,82912,1,0,0:0:0:0:
256,192,83158,1,8,0:0:0:0:
256,192,83321,1,0,0:0:0:0:
256,192,83403,1,8,0:0:0:0:
256,192,83649,1,0,0:0:0:0:
256,192,83813,1,8,0:0:0:0:
256,192,83895,1,0,0:0:0:0:
256,192,84059,1,8,0:0:0:0:
256,192,84141,1,0,0:0:0:0:
256,192,84305,1,0,0:0:0:0:
256,192,84387,1,8,0:0:0:0:
256,192,84551,1,8,0:0:0:0:
256,192,84633,1,8,0:0:0:0:
256,192,84797,1,8,0:0:0:0:
256,192,84879,1,0,0:0:0:0:
256,192,85125,1,8,0:0:0:0:
256,192,85289,1,0,0:0:0:0:
256,192,85535,1,0,0:0:0:0:
256,192,85780,1,8,0:0:0:0:
256,192,85862,1,0,0:0:0:0:
256,192,86026,1,8,0:0:0:0:
256,192,86108,1,0,0:0:0:0:
256,192,86272,1,0,0:0:0:0:
256,192,86354,1,8,0:0:0:0:
256,192,86518,1,8,0:0:0:0:
256,192,86600,1,0,0:0:0:0:
256,192,86846,1,4,0:0:0:0:
256,192,87010,1,8,0:0:0:0:
256,192,87092,1,0,0:0:0:0:
256,192,87174,1,0,0:0:0:0:
256,192,87256,1,0,0:0:0:0:
256,192,87338,1,8,0:0:0:0:
256,192,87502,1,8,0:0:0:0:
256,192,87584,1,0,0:0:0:0:
256,192,87666,1,0,0:0:0:0:
256,192,87748,1,0,0:0:0:0:
256,192,87830,1,0,0:0:0:0:
256,192,87994,1,8,0:0:0:0:
256,192,88076,1,0,0:0:0:0:
256,192,88158,1,0,0:0:0:0:
256,192,88240,1,0,0:0:0:0:
256,192,88321,1,8,0:0:0:0:
256,192,88444,1,8,0:0:0:0:
256,192,88567,1,0,0:0:0:0:
256,192,88813,1,4,0:0:0:0:
256,192,89059,1,8,0:0:0:0:
256,192,89223,1,0,0:0:0:0:
256,192,89305,1,8,0:0:0:0:
256,192,89469,1,0,0:0:0:0:
256,192,89715,1,8,0:0:0:0:
256,192,89797,1,0,0:0:0:0:
256,192,89961,1,8,0:0:0:0:
256,192,90043,1,0,0:0:0:0:
256,192,90207,1,0,0:0:0:0:
256,192,90289,1,8,0:0:0:0:
256,192,90453,1,8,0:0:0:0:
256,192,90535,1,0,0:0:0:0:
256,192,90780,1,0,0:0:0:0:
256,192,90944,1,0,0:0:0:0:
256,192,91026,1,8,0:0:0:0:
256,192,91190,1,8,0:0:0:0:
256,192,91272,1,0,0:0:0:0:
256,192,91354,1,0,0:0:0:0:
256,192,91436,1,0,0:0:0:0:
256,192,91518,1,8,0:0:0:0:
256,192,91682,1,8,0:0:0:0:
256,192,91764,1,0,0:0:0:0:
256,192,91928,1,0,0:0:0:0:
256,192,92010,1,8,0:0:0:0:
256,192,92174,1,8,0:0:0:0:
256,192,92256,1,0,0:0:0:0:
256,192,92338,1,0,0:0:0:0:
256,192,92420,1,0,0:0:0:0:
256,192,92502,1,8,0:0:0:0:
256,192,92666,1,8,0:0:0:0:
256,192,92748,1,0,0:0:0:0:
256,192,92994,1,8,0:0:0:0:
256,192,93158,1,0,0:0:0:0:
256,192,93240,1,8,0:0:0:0:
256,192,93404,1,0,0:0:0:0:
256,192,93650,1,8,0:0:0:0:
256,192,93732,1,0,0:0:0:0:
256,192,93896,1,8,0:0:0:0:
256,192,93978,1,0,0:0:0:0:
256,192,94142,1,0,0:0:0:0:
256,192,94224,1,8,0:0:0:0:
256,192,94388,1,8,0:0:0:0:
256,192,94470,1,0,0:0:0:0:
256,192,94715,1,0,0:0:0:0:
256,192,94879,1,0,0:0:0:0:
256,192,94961,1,8,0:0:0:0:
256,192,95125,1,8,0:0:0:0:
256,192,95207,1,0,0:0:0:0:
256,192,95371,1,0,0:0:0:0:
256,192,95453,1,8,0:0:0:0:
256,192,95617,1,8,0:0:0:0:
256,192,95699,1,0,0:0:0:0:
256,192,95780,1,0,0:0:0:0:
256,192,95862,1,8,0:0:0:0:
256,192,95944,1,0,0:0:0:0:
256,192,96026,1,0,0:0:0:0:
256,192,96109,1,8,0:0:0:0:
256,192,96191,1,0,0:0:0:0:
256,192,96272,1,0,0:0:0:0:
256,192,96354,1,0,0:0:0:0:
256,192,96436,1,8,0:0:0:0:
256,192,96601,1,8,0:0:0:0:
256,192,96683,1,0,0:0:0:0:
256,192,96928,1,8,0:0:0:0:
256,192,97092,1,0,0:0:0:0:
256,192,97174,1,8,0:0:0:0:
256,192,97338,1,0,0:0:0:0:
256,192,97584,1,8,0:0:0:0:
256,192,97666,1,0,0:0:0:0:
256,192,97830,1,8,0:0:0:0:
256,192,97912,1,0,0:0:0:0:
256,192,98076,1,0,0:0:0:0:
256,192,98158,1,8,0:0:0:0:
256,192,98322,1,8,0:0:0:0:
256,192,98404,1,0,0:0:0:0:
256,192,98649,1,0,0:0:0:0:
256,192,98813,1,0,0:0:0:0:
256,192,98895,1,8,0:0:0:0:
256,192,99059,1,8,0:0:0:0:
256,192,99141,1,0,0:0:0:0:
256,192,99223,1,0,0:0:0:0:
256,192,99305,1,0,0:0:0:0:
256,192,99387,1,8,0:0:0:0:
256,192,99551,1,8,0:0:0:0:
256,192,99633,1,0,0:0:0:0:
256,192,99797,1,0,0:0:0:0:
256,192,99879,1,8,0:0:0:0:
256,192,100043,1,8,0:0:0:0:
256,192,100125,1,0,0:0:0:0:
256,192,100370,1,0,0:0:0:0:
256,192,100534,1,8,0:0:0:0:
256,192,100616,1,0,0:0:0:0:
256,192,100865,1,8,0:0:0:0:
256,192,101111,1,0,0:0:0:0:
256,192,101234,1,8,0:0:0:0:
256,192,101603,1,0,0:0:0:0:
256,192,101972,1,8,0:0:0:0:
256,192,102095,1,0,0:0:0:0:
256,192,102341,1,8,0:0:0:0:
256,192,102587,1,0,0:0:0:0:
256,192,102833,1,8,0:0:0:0:
256,192,103079,1,0,0:0:0:0:
256,192,103201,1,8,0:0:0:0:
256,192,103570,1,0,0:0:0:0:
256,192,103939,1,8,0:0:0:0:
256,192,104062,1,0,0:0:0:0:
256,192,104308,1,8,0:0:0:0:
256,192,104554,1,0,0:0:0:0:
256,192,104800,1,8,0:0:0:0:
256,192,105046,1,8,0:0:0:0:
256,192,105538,1,0,0:0:0:0:
256,192,105906,1,8,0:0:0:0:
256,192,106275,1,8,0:0:0:0:
256,192,106521,1,0,0:0:0:0:
256,192,106767,1,8,0:0:0:0:
256,192,107013,1,8,0:0:0:0:
256,192,107505,1,0,0:0:0:0:
256,192,107628,1,0,0:0:0:0:
256,192,107751,1,8,0:0:0:0:
256,192,107833,1,0,0:0:0:0:
256,192,107915,1,0,0:0:0:0:
256,192,107997,1,8,0:0:0:0:
256,192,108160,1,8,0:0:0:0:
256,192,108242,1,0,0:0:0:0:
256,192,108488,1,0,0:0:0:0:
256,192,108734,1,8,0:0:0:0:
256,192,108980,1,8,0:0:0:0:
256,192,109472,1,0,0:0:0:0:
256,192,109718,1,8,0:0:0:0:
256,192,109964,1,8,0:0:0:0:
256,192,110210,1,0,0:0:0:0:
256,192,110456,1,0,0:0:0:0:
256,192,110947,1,8,0:0:0:0:
256,192,111357,1,0,0:0:0:0:
256,192,111685,1,0,0:0:0:0:
256,192,111931,1,8,0:0:0:0:
256,192,112095,1,8,0:0:0:0:
256,192,112177,1,0,0:0:0:0:
256,192,112423,1,0,0:0:0:0:
256,192,112915,1,8,0:0:0:0:
256,192,113283,1,0,0:0:0:0:
256,192,113652,1,0,0:0:0:0:
256,192,113898,1,8,0:0:0:0:
256,192,114062,1,8,0:0:0:0:
256,192,114144,1,0,0:0:0:0:
256,192,114390,1,0,0:0:0:0:
256,192,114636,1,0,0:0:0:0:
256,192,114882,1,8,0:0:0:0:
256,192,115128,1,0,0:0:0:0:
256,192,115251,1,8,0:0:0:0:
256,192,115497,1,8,0:0:0:0:
256,192,115620,1,0,0:0:0:0:
256,192,115783,1,0,0:0:0:0:
256,192,115865,1,8,0:0:0:0:
256,192,116029,1,8,0:0:0:0:
256,192,116111,1,0,0:0:0:0:
256,192,116275,1,0,0:0:0:0:
256,192,116603,1,8,0:0:0:0:
256,192,116849,1,0,0:0:0:0:
256,192,117013,1,0,0:0:0:0:
256,192,117095,1,8,0:0:0:0:
256,192,117259,1,8,0:0:0:0:
256,192,117341,1,0,0:0:0:0:
256,192,117505,1,0,0:0:0:0:
256,192,117587,1,8,0:0:0:0:
256,192,117669,1,8,0:0:0:0:
256,192,117751,1,8,0:0:0:0:
256,192,117833,1,0,0:0:0:0:
256,192,117997,1,0,0:0:0:0:
256,192,118079,1,8,0:0:0:0:
256,192,118242,1,8,0:0:0:0:
256,192,118324,1,0,0:0:0:0:
256,192,118570,1,8,0:0:0:0:
256,192,118734,1,8,0:0:0:0:
256,192,118816,1,0,0:0:0:0:
256,192,119062,1,8,0:0:0:0:
256,192,119226,1,8,0:0:0:0:
256,192,119308,1,0,0:0:0:0:
256,192,119390,1,0,0:0:0:0:
256,192,119472,1,0,0:0:0:0:
256,192,119554,1,8,0:0:0:0:
256,192,119636,1,8,0:0:0:0:
256,192,119718,1,8,0:0:0:0:
256,192,119800,1,0,0:0:0:0:
256,192,119964,1,8,0:0:0:0:
256,192,120046,1,8,0:0:0:0:
256,192,120210,1,8,0:0:0:0:
256,192,120292,1,0,0:0:0:0:
256,192,120538,1,8,0:0:0:0:
256,192,120783,1,0,0:0:0:0:
256,192,120947,1,0,0:0:0:0:
256,192,121029,1,8,0:0:0:0:
256,192,121275,1,0,0:0:0:0:
256,192,121521,1,8,0:0:0:0:
256,192,121767,1,0,0:0:0:0:
256,192,121931,1,0,0:0:0:0:
256,192,122013,1,8,0:0:0:0:
256,192,122177,1,0,0:0:0:0:
256,192,122505,1,8,0:0:0:0:
256,192,122751,1,0,0:0:0:0:
256,192,122915,1,0,0:0:0:0:
256,192,122997,1,8,0:0:0:0:
256,192,123242,1,0,0:0:0:0:
256,192,123406,1,8,0:0:0:0:
256,192,123488,1,0,0:0:0:0:
256,192,123570,1,0,0:0:0:0:
256,192,123652,1,0,0:0:0:0:
256,192,123734,1,8,0:0:0:0:
256,192,123898,1,8,0:0:0:0:
256,192,123980,1,0,0:0:0:0:
256,192,124226,1,0,0:0:0:0:
256,192,124472,1,8,0:0:0:0:
256,192,124718,1,0,0:0:0:0:
256,192,125210,1,0,0:0:0:0:
256,192,125374,1,0,0:0:0:0:
256,192,125456,1,8,0:0:0:0:
256,192,125620,1,8,0:0:0:0:
256,192,125701,1,0,0:0:0:0:
256,192,125865,1,0,0:0:0:0:
256,192,125947,1,8,0:0:0:0:
256,192,126111,1,8,0:0:0:0:
256,192,126193,1,0,0:0:0:0:
256,192,126439,1,8,0:0:0:0:
256,192,126685,1,0,0:0:0:0:
256,192,126849,1,0,0:0:0:0:
256,192,126931,1,8,0:0:0:0:
256,192,127095,1,0,0:0:0:0:
256,192,127341,1,0,0:0:0:0:
256,192,127423,1,8,0:0:0:0:
256,192,127669,1,0,0:0:0:0:
256,192,127751,1,0,0:0:0:0:
256,192,127833,1,0,0:0:0:0:
256,192,127915,1,8,0:0:0:0:
256,192,128079,1,8,0:0:0:0:
256,192,128160,1,0,0:0:0:0:
256,192,128406,1,0,0:0:0:0:
256,192,128652,1,8,0:0:0:0:
256,192,128898,1,8,0:0:0:0:
256,192,129062,1,0,0:0:0:0:
256,192,129308,1,0,0:0:0:0:
256,192,129390,1,8,0:0:0:0:
256,192,129554,1,0,0:0:0:0:
256,192,129636,1,8,0:0:0:0:
256,192,129759,1,8,0:0:0:0:
256,192,129882,1,0,0:0:0:0:
256,192,130128,1,0,0:0:0:0:
256,192,130374,1,0,0:0:0:0:
256,192,130620,1,8,0:0:0:0:
256,192,130865,1,0,0:0:0:0:
256,192,130988,1,8,0:0:0:0:
256,192,131234,1,8,0:0:0:0:
256,192,131357,1,0,0:0:0:0:
256,192,131521,1,8,0:0:0:0:
256,192,131603,1,8,0:0:0:0:
256,192,131767,1,8,0:0:0:0:
256,192,131849,1,0,0:0:0:0:
256,192,132013,1,0,0:0:0:0:
256,192,132341,1,0,0:0:0:0:
256,192,132587,1,8,0:0:0:0:
256,192,132833,1,0,0:0:0:0:
256,192,132997,1,8,0:0:0:0:
256,192,133079,1,0,0:0:0:0:
256,192,133242,1,8,0:0:0:0:
256,192,133324,1,0,0:0:0:0:
256,192,133488,1,0,0:0:0:0:
256,192,133570,1,8,0:0:0:0:
256,192,133734,1,8,0:0:0:0:
256,192,133816,1,0,0:0:0:0:
256,192,134062,1,0,0:0:0:0:
256,192,134226,1,8,0:0:0:0:
256,192,134308,1,0,0:0:0:0:
256,192,134390,1,0,0:0:0:0:
256,192,134472,1,0,0:0:0:0:
256,192,134554,1,8,0:0:0:0:
256,192,134718,1,8,0:0:0:0:
256,192,134800,1,0,0:0:0:0:
256,192,134882,1,0,0:0:0:0:
256,192,134964,1,0,0:0:0:0:
256,192,135046,1,0,0:0:0:0:
256,192,135210,1,8,0:0:0:0:
256,192,135292,1,0,0:0:0:0:
256,192,135374,1,0,0:0:0:0:
256,192,135456,1,0,0:0:0:0:
256,192,135538,1,8,0:0:0:0:
256,192,135620,1,0,0:0:0:0:
256,192,135701,1,0,0:0:0:0:
256,192,135783,1,8,0:0:0:0:
256,192,135865,1,8,0:0:0:0:
256,192,135947,1,8,0:0:0:0:
256,192,136029,1,0,0:0:0:0:
256,192,136275,1,8,0:0:0:0:
256,192,136521,1,0,0:0:0:0:
256,192,136685,1,0,0:0:0:0:
256,192,136767,1,8,0:0:0:0:
256,192,137013,1,0,0:0:0:0:
256,192,137259,1,8,0:0:0:0:
256,192,137505,1,0,0:0:0:0:
256,192,137669,1,0,0:0:0:0:
256,192,137751,1,8,0:0:0:0:
256,192,137915,1,0,0:0:0:0:
256,192,138242,1,8,0:0:0:0:
256,192,138488,1,0,0:0:0:0:
256,192,138652,1,0,0:0:0:0:
256,192,138734,1,8,0:0:0:0:
256,192,138980,1,0,0:0:0:0:
256,192,139144,1,8,0:0:0:0:
256,192,139226,1,0,0:0:0:0:
256,192,139308,1,0,0:0:0:0:
256,192,139390,1,0,0:0:0:0:
256,192,139472,1,8,0:0:0:0:
256,192,139636,1,8,0:0:0:0:
256,192,139718,1,0,0:0:0:0:
256,192,139964,1,0,0:0:0:0:
256,192,140456,1,8,0:0:0:0:
256,192,140701,1,0,0:0:0:0:
256,192,140865,1,0,0:0:0:0:
256,192,140947,1,0,0:0:0:0:
256,192,141111,1,0,0:0:0:0:
256,192,141193,1,8,0:0:0:0:
256,192,141357,1,0,0:0:0:0:
256,192,141439,1,8,0:0:0:0:
256,192,141603,1,8,0:0:0:0:
256,192,141685,1,0,0:0:0:0:
256,192,141849,1,0,0:0:0:0:
256,192,141931,1,8,0:0:0:0:
256,192,142095,1,0,0:0:0:0:
256,192,142177,1,0,0:0:0:0:
256,192,142341,1,0,0:0:0:0:
256,192,142423,1,8,0:0:0:0:
256,192,142587,1,8,0:0:0:0:
256,192,142669,1,0,0:0:0:0:
256,192,142833,1,0,0:0:0:0:
256,192,142915,1,8,0:0:0:0:
256,192,143079,1,0,0:0:0:0:
256,192,143160,1,0,0:0:0:0:
256,192,143324,1,0,0:0:0:0:
256,192,143406,1,8,0:0:0:0:
256,192,143570,1,8,0:0:0:0:
256,192,143652,1,0,0:0:0:0:
256,192,143898,1,4,0:0:0:0:
256,192,144144,1,0,0:0:0:0:
256,192,144390,1,8,0:0:0:0:
256,192,144636,1,0,0:0:0:0:
256,192,144800,1,0,0:0:0:0:
256,192,144882,1,0,0:0:0:0:
256,192,145046,1,8,0:0:0:0:
256,192,145128,1,0,0:0:0:0:
256,192,145292,1,0,0:0:0:0:
256,192,145374,1,8,0:0:0:0:
256,192,145497,1,0,0:0:0:0:
256,192,145865,1,4,0:0:0:0:
256,192,146111,1,0,0:0:0:0:
256,192,146357,1,8,0:0:0:0:
256,192,146603,1,0,0:0:0:0:
256,192,146767,1,0,0:0:0:0:
256,192,146849,1,0,0:0:0:0:
256,192,147013,1,0,0:0:0:0:
256,192,147095,1,8,0:0:0:0:
256,192,147259,1,0,0:0:0:0:
256,192,147341,1,8,0:0:0:0:
256,192,147505,1,8,0:0:0:0:
256,192,147587,1,0,0:0:0:0:
256,192,147751,1,0,0:0:0:0:
256,192,147792,1,0,0:0:0:0:
256,192,147833,1,0,0:0:0:0:
256,192,147956,1,0,0:0:0:0:
256,192,148079,1,0,0:0:0:0:
256,192,148201,1,0,0:0:0:0:
256,192,148324,1,8,0:0:0:0:
256,192,148447,1,0,0:0:0:0:
256,192,148570,1,0,0:0:0:0:
256,192,148693,1,0,0:0:0:0:
256,192,148816,1,0,0:0:0:0:
256,192,148939,1,8,0:0:0:0:
256,192,149062,1,0,0:0:0:0:
256,192,149185,1,0,0:0:0:0:
256,192,149308,1,8,0:0:0:0:
256,192,149431,1,0,0:0:0:0:
256,192,149554,1,0,0:0:0:0:
256,192,149677,1,0,0:0:0:0:
256,192,149800,1,8,0:0:0:0:
256,192,149861,1,8,0:0:0:0:
256,192,149923,1,8,0:0:0:0:
256,192,149984,1,8,0:0:0:0:
256,192,150046,1,8,0:0:0:0:
256,192,150107,1,8,0:0:0:0:
256,192,150169,1,8,0:0:0:0:
256,192,150230,1,8,0:0:0:0:
256,192,150292,1,8,0:0:0:0:
256,192,150353,1,8,0:0:0:0:
256,192,150415,1,8,0:0:0:0:
256,192,150476,1,8,0:0:0:0:
256,192,150538,1,8,0:0:0:0:
256,192,150599,1,8,0:0:0:0:
256,192,150660,1,8,0:0:0:0:
256,192,150722,1,8,0:0:0:0:
256,192,150783,1,12,0:0:0:0:
256,192,151029,1,0,0:0:0:0:
256,192,151275,1,8,0:0:0:0:
256,192,151398,1,8,0:0:0:0:
256,192,151521,1,0,0:0:0:0:
256,192,151767,1,0,0:0:0:0:
256,192,151890,1,0,0:0:0:0:
256,192,152013,1,8,0:0:0:0:
256,192,152095,1,0,0:0:0:0:
256,192,152177,1,0,0:0:0:0:
256,192,152259,1,8,0:0:0:0:
256,192,152423,1,0,0:0:0:0:
256,192,152505,1,8,0:0:0:0:
256,192,152587,1,8,0:0:0:0:
256,192,152669,1,8,0:0:0:0:
256,192,152751,1,0,0:0:0:0:
256,192,152915,1,8,0:0:0:0:
256,192,152997,1,0,0:0:0:0:
256,192,153120,1,8,0:0:0:0:
256,192,153242,1,8,0:0:0:0:
256,192,153406,1,0,0:0:0:0:
256,192,153488,1,8,0:0:0:0:
256,192,153611,1,8,0:0:0:0:
256,192,153734,1,0,0:0:0:0:
256,192,153857,1,0,0:0:0:0:
256,192,153980,1,8,0:0:0:0:
256,192,154062,1,0,0:0:0:0:
256,192,154144,1,0,0:0:0:0:
256,192,154226,1,8,0:0:0:0:
256,192,154349,1,0,0:0:0:0:
256,192,154410,1,0,0:0:0:0:
256,192,154472,1,8,0:0:0:0:
256,192,154636,1,8,0:0:0:0:
256,192,154718,1,0,0:0:0:0:
256,192,154964,1,8,0:0:0:0:
256,192,155128,1,0,0:0:0:0:
256,192,155210,1,8,0:0:0:0:
256,192,155292,1,8,0:0:0:0:
256,192,155374,1,8,0:0:0:0:
256,192,155456,1,0,0:0:0:0:
256,192,155620,1,8,0:0:0:0:
256,192,155701,1,0,0:0:0:0:
256,192,155865,1,0,0:0:0:0:
256,192,155947,1,8,0:0:0:0:
256,192,156029,1,0,0:0:0:0:
256,192,156111,1,0,0:0:0:0:
256,192,156193,1,8,0:0:0:0:
256,192,156357,1,0,0:0:0:0:
256,192,156439,1,8,0:0:0:0:
256,192,156603,1,8,0:0:0:0:
256,192,156685,1,0,0:0:0:0:
256,192,156849,1,8,0:0:0:0:
256,192,156931,1,0,0:0:0:0:
256,192,157054,1,8,0:0:0:0:
256,192,157176,1,8,0:0:0:0:
256,192,157340,1,0,0:0:0:0:
256,192,157422,1,8,0:0:0:0:
256,192,157668,1,0,0:0:0:0:
256,192,157792,1,0,0:0:0:0:
256,192,157915,1,8,0:0:0:0:
256,192,157997,1,0,0:0:0:0:
256,192,158079,1,0,0:0:0:0:
256,192,158160,1,8,0:0:0:0:
256,192,158324,1,0,0:0:0:0:
256,192,158406,1,8,0:0:0:0:
256,192,158488,1,0,0:0:0:0:
256,192,158570,1,0,0:0:0:0:
256,192,158652,1,8,0:0:0:0:
256,192,158816,1,0,0:0:0:0:
256,192,158898,1,8,0:0:0:0:
256,192,158980,1,0,0:0:0:0:
256,192,159062,1,8,0:0:0:0:
256,192,159144,1,8,0:0:0:0:
256,192,159226,1,0,0:0:0:0:
256,192,159308,1,8,0:0:0:0:
256,192,159390,1,0,0:0:0:0:
256,192,159636,1,0,0:0:0:0:
256,192,159759,1,0,0:0:0:0:
256,192,159882,1,8,0:0:0:0:
256,192,159964,1,0,0:0:0:0:
256,192,160046,1,0,0:0:0:0:
256,192,160128,1,8,0:0:0:0:
256,192,160292,1,0,0:0:0:0:
256,192,160374,1,8,0:0:0:0:
256,192,160456,1,8,0:0:0:0:
256,192,160538,1,8,0:0:0:0:
256,192,160620,1,0,0:0:0:0:
256,192,160784,1,8,0:0:0:0:
256,192,160866,1,0,0:0:0:0:
256,192,160989,1,8,0:0:0:0:
256,192,161111,1,8,0:0:0:0:
256,192,161275,1,0,0:0:0:0:
256,192,161357,1,8,0:0:0:0:
256,192,161603,1,0,0:0:0:0:
256,192,161726,1,0,0:0:0:0:
256,192,161849,1,8,0:0:0:0:
256,192,161931,1,0,0:0:0:0:
256,192,162013,1,0,0:0:0:0:
256,192,162095,1,8,0:0:0:0:
256,192,162259,1,0,0:0:0:0:
256,192,162341,1,8,0:0:0:0:
256,192,162505,1,8,0:0:0:0:
256,192,162587,1,0,0:0:0:0:
256,192,162751,1,0,0:0:0:0:
256,192,162833,1,8,0:0:0:0:
256,192,162915,1,8,0:0:0:0:
256,192,162997,1,8,0:0:0:0:
256,192,163079,1,0,0:0:0:0:
256,192,163243,1,0,0:0:0:0:
256,192,163325,1,8,0:0:0:0:
256,192,163570,1,0,0:0:0:0:
256,192,163734,1,0,0:0:0:0:
256,192,163816,1,8,0:0:0:0:
256,192,163898,1,0,0:0:0:0:
256,192,163980,1,0,0:0:0:0:
256,192,164062,1,8,0:0:0:0:
256,192,164226,1,0,0:0:0:0:
256,192,164308,1,8,0:0:0:0:
256,192,164472,1,8,0:0:0:0:
256,192,164554,1,0,0:0:0:0:
256,192,164718,1,8,0:0:0:0:
256,192,164800,1,0,0:0:0:0:
256,192,164923,1,8,0:0:0:0:
256,192,165045,1,8,0:0:0:0:
256,192,165209,1,0,0:0:0:0:
256,192,165291,1,8,0:0:0:0:
256,192,165456,1,8,0:0:0:0:
256,192,165538,1,0,0:0:0:0:
256,192,165660,1,0,0:0:0:0:
256,192,165783,1,8,0:0:0:0:
256,192,165865,1,0,0:0:0:0:
256,192,165947,1,0,0:0:0:0:
256,192,166029,1,8,0:0:0:0:
256,192,166193,1,0,0:0:0:0:
256,192,166275,1,8,0:0:0:0:
256,192,166357,1,0,0:0:0:0:
256,192,166439,1,0,0:0:0:0:
256,192,166521,1,8,0:0:0:0:
256,192,166767,1,8,0:0:0:0:
256,192,167013,1,8,0:0:0:0:
256,192,167136,1,8,0:0:0:0:
256,192,167259,1,0,0:0:0:0:
256,192,167505,1,4,0:0:0:0:
256,192,167751,1,8,0:0:0:0:
256,192,167915,1,0,0:0:0:0:
256,192,167997,1,8,0:0:0:0:
256,192,168160,1,0,0:0:0:0:
256,192,168407,1,8,0:0:0:0:
256,192,168489,1,0,0:0:0:0:
256,192,168653,1,8,0:0:0:0:
256,192,168735,1,0,0:0:0:0:
256,192,168898,1,8,0:0:0:0:
256,192,168980,1,8,0:0:0:0:
256,192,169144,1,0,0:0:0:0:
256,192,169226,1,8,0:0:0:0:
256,192,169390,1,8,0:0:0:0:
256,192,169472,1,0,0:0:0:0:
256,192,169636,1,8,0:0:0:0:
256,192,169718,1,8,0:0:0:0:
256,192,169800,1,0,0:0:0:0:
256,192,169882,1,0,0:0:0:0:
256,192,169964,1,8,0:0:0:0:
256,192,170128,1,0,0:0:0:0:
256,192,170374,1,8,0:0:0:0:
256,192,170620,1,0,0:0:0:0:
256,192,170702,1,8,0:0:0:0:
256,192,170784,1,0,0:0:0:0:
256,192,170866,1,0,0:0:0:0:
256,192,170948,1,8,0:0:0:0:
256,192,171112,1,8,0:0:0:0:
256,192,171194,1,0,0:0:0:0:
256,192,171439,1,0,0:0:0:0:
256,192,171685,1,8,0:0:0:0:
256,192,171849,1,0,0:0:0:0:
256,192,171931,1,8,0:0:0:0:
256,192,172095,1,0,0:0:0:0:
256,192,172341,1,8,0:0:0:0:
256,192,172423,1,0,0:0:0:0:
256,192,172587,1,8,0:0:0:0:
256,192,172669,1,0,0:0:0:0:
256,192,172833,1,8,0:0:0:0:
256,192,172914,1,8,0:0:0:0:
256,192,173078,1,0,0:0:0:0:
256,192,173160,1,8,0:0:0:0:
256,192,173324,1,8,0:0:0:0:
256,192,173406,1,0,0:0:0:0:
256,192,173488,1,0,0:0:0:0:
256,192,173570,1,0,0:0:0:0:
256,192,173652,1,8,0:0:0:0:
256,192,173734,1,8,0:0:0:0:
256,192,173816,1,8,0:0:0:0:
256,192,173898,1,0,0:0:0:0:
256,192,173980,1,0,0:0:0:0:
256,192,174062,1,0,0:0:0:0:
256,192,174144,1,8,0:0:0:0:
256,192,174226,1,8,0:0:0:0:
256,192,174308,1,8,0:0:0:0:
256,192,174390,1,0,0:0:0:0:
256,192,174472,1,0,0:0:0:0:
256,192,174554,1,0,0:0:0:0:
256,192,174636,1,8,0:0:0:0:
256,192,174718,1,0,0:0:0:0:
256,192,174800,1,8,0:0:0:0:
256,192,174882,1,0,0:0:0:0:
256,192,175046,1,0,0:0:0:0:
256,192,175128,1,8,0:0:0:0:
256,192,175292,1,8,0:0:0:0:
256,192,175374,1,4,0:0:0:0:
256,192,175620,1,8,0:0:0:0:
256,192,175865,1,0,0:0:0:0:
256,192,176111,1,8,0:0:0:0:
256,192,176275,1,0,0:0:0:0:
256,192,176521,1,8,0:0:0:0:
256,192,176603,1,0,0:0:0:0:
256,192,176767,1,0,0:0:0:0:
256,192,176849,1,8,0:0:0:0:
256,192,177013,1,8,0:0:0:0:
256,192,177095,1,0,0:0:0:0:
256,192,177341,1,12,0:0:0:0:
256,192,177587,1,8,0:0:0:0:
256,192,177833,1,0,0:0:0:0:
256,192,178079,1,8,0:0:0:0:
256,192,178242,1,8,0:0:0:0:
256,192,178324,1,0,0:0:0:0:
256,192,178570,1,8,0:0:0:0:
256,192,178734,1,8,0:0:0:0:
256,192,178816,1,0,0:0:0:0:
256,192,178898,1,8,0:0:0:0:
256,192,178980,1,8,0:0:0:0:
256,192,179062,1,0,0:0:0:0:
256,192,179226,1,8,0:0:0:0:
256,192,179308,1,0,0:0:0:0:
256,192,179554,1,8,0:0:0:0:
256,192,179964,1,0,0:0:0:0:
256,192,180046,1,8,0:0:0:0:
256,192,180292,1,0,0:0:0:0:
256,192,180456,1,0,0:0:0:0:
256,192,180538,1,8,0:0:0:0:
256,192,180701,1,0,0:0:0:0:
256,192,180783,1,8,0:0:0:0:
256,192,180947,1,8,0:0:0:0:
256,192,181029,1,0,0:0:0:0:
256,192,181275,1,8,0:0:0:0:
256,192,181357,1,0,0:0:0:0:
256,192,181439,1,0,0:0:0:0:
256,192,181521,1,8,0:0:0:0:
256,192,181685,1,0,0:0:0:0:
256,192,181767,1,8,0:0:0:0:
256,192,181849,1,0,0:0:0:0:
256,192,181931,1,0,0:0:0:0:
256,192,182013,1,8,0:0:0:0:
256,192,182177,1,0,0:0:0:0:
256,192,182259,1,8,0:0:0:0:
256,192,182341,1,0,0:0:0:0:
256,192,182423,1,0,0:0:0:0:
256,192,182505,1,8,0:0:0:0:
256,192,182587,1,0,0:0:0:0:
256,192,182669,1,0,0:0:0:0:
256,192,182751,1,8,0:0:0:0:
256,192,182915,1,8,0:0:0:0:
256,192,182997,1,0,0:0:0:0:
256,192,183242,1,0,0:0:0:0:
256,192,183488,1,8,0:0:0:0:
256,192,183734,1,0,0:0:0:0:
256,192,183857,1,8,0:0:0:0:
256,192,184226,1,0,0:0:0:0:
256,192,184595,1,8,0:0:0:0:
256,192,184718,1,0,0:0:0:0:
256,192,184964,1,8,0:0:0:0:
256,192,185210,1,0,0:0:0:0:
256,192,185456,1,8,0:0:0:0:
256,192,185701,1,0,0:0:0:0:
256,192,185824,1,8,0:0:0:0:
256,192,186193,1,0,0:0:0:0:
256,192,186562,1,8,0:0:0:0:
256,192,186685,1,0,0:0:0:0:
256,192,186931,1,8,0:0:0:0:
256,192,187177,1,0,0:0:0:0:
256,192,187423,1,8,0:0:0:0:
256,192,187669,1,0,0:0:0:0:
256,192,187792,1,8,0:0:0:0:
256,192,188160,1,0,0:0:0:0:
256,192,188529,1,8,0:0:0:0:
256,192,188652,1,0,0:0:0:0:
256,192,188898,1,8,0:0:0:0:
256,192,189144,1,0,0:0:0:0:
256,192,189390,1,8,0:0:0:0:
256,192,189636,1,0,0:0:0:0:
256,192,189759,1,8,0:0:0:0:
256,192,190128,1,0,0:0:0:0:
256,192,190497,1,8,0:0:0:0:
256,192,190620,1,0,0:0:0:0:
256,192,190865,1,8,0:0:0:0:
256,192,191111,1,0,0:0:0:0:
256,192,191357,1,8,0:0:0:0:
256,192,191603,1,0,0:0:0:0:
256,192,191726,1,8,0:0:0:0:
256,192,192095,1,0,0:0:0:0:
256,192,192464,1,8,0:0:0:0:
256,192,192587,1,0,0:0:0:0:
256,192,192833,1,8,0:0:0:0:
256,192,193079,1,0,0:0:0:0:
256,192,193324,1,8,0:0:0:0:
256,192,193570,1,0,0:0:0:0:
256,192,193693,1,8,0:0:0:0:
256,192,194062,1,0,0:0:0:0:
256,192,194431,1,8,0:0:0:0:
256,192,194554,1,0,0:0:0:0:
256,192,194800,1,8,0:0:0:0:
256,192,195292,1,8,0:0:0:0:
256,192,195660,1,8,0:0:0:0:
256,192,196029,1,8,0:0:0:0:
256,192,196398,1,8,0:0:0:0:
256,192,196767,1,0,0:0:0:0:
