osu file format v14

[General]
AudioFilename: audio.mp3
AudioLeadIn: 0
PreviewTime: 55725
Countdown: 0
SampleSet: None
StackLeniency: 0.7
Mode: 3
LetterboxInBreaks: 0
SpecialStyle: 0
WidescreenStoryboard: 0

[Editor]
DistanceSpacing: 0.8
BeatDivisor: 16
GridSize: 8
TimelineZoom: 3

[Metadata]
Title:For a Dead Girl+
TitleUnicode:For a Dead Girl+
Artist:Baker
ArtistUnicode:Baker
Creator:X_Devil
Version:Hard
Source:
Tags:vocaloid
BeatmapID:1573270
BeatmapSetID:746470

[Difficulty]
HPDrainRate:8
CircleSize:4
OverallDifficulty:8
ApproachRate:5
SliderMultiplier:1.4
SliderTickRate:1

[Events]
//Background and Video events
0,0,"maxresdefault.jpg",0,0
//Break Periods
//Storyboard Layer 0 (Background)
//Storyboard Layer 1 (Fail)
//Storyboard Layer 2 (Pass)
//Storyboard Layer 3 (Foreground)
//Storyboard Sound Samples

[TimingPoints]
1725,428.571428571429,4,3,0,20,1,0
56582,-40,4,3,0,20,0,0
56608,-250,4,3,0,20,0,0
56689,-40,4,3,0,20,0,0
56716,-250,4,3,0,20,0,0
56796,-40,4,3,0,20,0,0
56823,-250,4,3,0,20,0,0
56903,-40,4,3,0,20,0,0
56930,-250,4,3,0,20,0,0
57010,-40,4,3,0,20,0,0
57037,-250,4,3,0,20,0,0
57117,-40,4,3,0,20,0,0
57144,-250,4,3,0,20,0,0
57225,-40,4,3,0,20,0,0
57251,-250,4,3,0,20,0,0
57332,-40,4,3,0,20,0,0
57358,-250,4,3,0,20,0,0
57439,-40,4,3,0,20,0,0
57466,-100,4,3,0,20,0,0
58296,-40,4,3,0,20,0,0
58322,-250,4,3,0,20,0,0
58403,-40,4,3,0,20,0,0
58430,-250,4,3,0,20,0,0
58510,-40,4,3,0,20,0,0
58537,-250,4,3,0,20,0,0
58617,-40,4,3,0,20,0,0
58644,-250,4,3,0,20,0,0
58724,-40,4,3,0,20,0,0
58751,-250,4,3,0,20,0,0
58831,-40,4,3,0,20,0,0
58858,-250,4,3,0,20,0,0
58939,-40,4,3,0,20,0,0
58965,-250,4,3,0,20,0,0
59046,-40,4,3,0,20,0,0
59072,-250,4,3,0,20,0,0
59153,-40,4,3,0,20,0,0
59180,-100,4,3,0,20,0,0
60010,-40,4,3,0,20,0,0
60036,-250,4,3,0,20,0,0
60117,-40,4,3,0,20,0,0
60144,-250,4,3,0,20,0,0
60224,-40,4,3,0,20,0,0
60251,-250,4,3,0,20,0,0
60331,-40,4,3,0,20,0,0
60358,-250,4,3,0,20,0,0
60438,-40,4,3,0,20,0,0
60465,-250,4,3,0,20,0,0
60545,-40,4,3,0,20,0,0
60572,-250,4,3,0,20,0,0
60653,-40,4,3,0,20,0,0
60679,-250,4,3,0,20,0,0
60760,-40,4,3,0,20,0,0
60786,-250,4,3,0,20,0,0
60867,-40,4,3,0,20,0,0
60894,-100,4,3,0,20,0,0
61725,-40,4,3,0,20,0,0
61751,-250,4,3,0,20,0,0
61832,-40,4,3,0,20,0,0
61859,-250,4,3,0,20,0,0
61939,-40,4,3,0,20,0,0
61966,-250,4,3,0,20,0,0
62046,-40,4,3,0,20,0,0
62073,-250,4,3,0,20,0,0
62153,-40,4,3,0,20,0,0
62180,-250,4,3,0,20,0,0
62260,-40,4,3,0,20,0,0
62287,-250,4,3,0,20,0,0
62368,-40,4,3,0,20,0,0
62394,-250,4,3,0,20,0,0
62475,-40,4,3,0,20,0,0
62501,-250,4,3,0,20,0,0
62582,-40,4,3,0,20,0,0
62609,-250,4,3,0,20,0,0
62689,-40,4,3,0,20,0,0
62716,-250,4,3,0,20,0,0
62796,-40,4,3,0,20,0,0
62823,-250,4,3,0,20,0,0
62903,-40,4,3,0,20,0,0
62930,-100,4,3,0,20,0,0
63439,-40,4,3,0,20,0,0
63465,-250,4,3,0,20,0,0
63546,-40,4,3,0,20,0,0
63573,-250,4,3,0,20,0,0
63653,-40,4,3,0,20,0,0
63680,-250,4,3,0,20,0,0
63760,-40,4,3,0,20,0,0
63787,-250,4,3,0,20,0,0
63867,-40,4,3,0,20,0,0
63894,-250,4,3,0,20,0,0
63974,-40,4,3,0,20,0,0
64001,-250,4,3,0,20,0,0
64082,-40,4,3,0,20,0,0
64108,-250,4,3,0,20,0,0
64189,-40,4,3,0,20,0,0
64215,-250,4,3,0,20,0,0
64296,-40,4,3,0,20,0,0
64323,-100,4,3,0,20,0,0
65153,-40,4,3,0,20,0,0
65179,-250,4,3,0,20,0,0
65260,-40,4,3,0,20,0,0
65287,-250,4,3,0,20,0,0
65367,-40,4,3,0,20,0,0
65394,-250,4,3,0,20,0,0
65474,-40,4,3,0,20,0,0
65501,-250,4,3,0,20,0,0
65581,-40,4,3,0,20,0,0
65608,-250,4,3,0,20,0,0
65688,-40,4,3,0,20,0,0
65715,-250,4,3,0,20,0,0
65796,-40,4,3,0,20,0,0
65822,-250,4,3,0,20,0,0
65903,-40,4,3,0,20,0,0
65929,-250,4,3,0,20,0,0
66010,-40,4,3,0,20,0,0
66037,-100,4,3,0,20,0,0
66867,-40,4,3,0,20,0,0
66893,-250,4,3,0,20,0,0
66974,-40,4,3,0,20,0,0
67001,-250,4,3,0,20,0,0
67081,-40,4,3,0,20,0,0
67108,-250,4,3,0,20,0,0
67188,-40,4,3,0,20,0,0
67215,-250,4,3,0,20,0,0
67295,-40,4,3,0,20,0,0
67322,-250,4,3,0,20,0,0
67402,-40,4,3,0,20,0,0
67429,-250,4,3,0,20,0,0
67510,-40,4,3,0,20,0,0
67536,-250,4,3,0,20,0,0
67617,-40,4,3,0,20,0,0
67643,-250,4,3,0,20,0,0
67724,-40,4,3,0,20,0,0
67751,-100,4,3,0,20,0,0
68582,-40,4,3,0,20,0,0
68608,-250,4,3,0,20,0,0
68689,-40,4,3,0,20,0,0
68716,-250,4,3,0,20,0,0
68796,-40,4,3,0,20,0,0
68823,-250,4,3,0,20,0,0
68903,-40,4,3,0,20,0,0
68930,-250,4,3,0,20,0,0
69010,-40,4,3,0,20,0,0
69037,-250,4,3,0,20,0,0
69117,-40,4,3,0,20,0,0
69144,-250,4,3,0,20,0,0
69225,-40,4,3,0,20,0,0
69251,-250,4,3,0,20,0,0
69332,-40,4,3,0,20,0,0
69358,-250,4,3,0,20,0,0
69439,-40,4,3,0,20,0,0
69466,-250,4,3,0,20,0,0
69546,-40,4,3,0,20,0,0
69573,-250,4,3,0,20,0,0
69653,-40,4,3,0,20,0,0
69680,-250,4,3,0,20,0,0
69760,-40,4,3,0,20,0,0
69787,-100,4,3,0,20,0,0
70296,-40,4,3,0,20,0,0
70322,-250,4,3,0,20,0,0
70403,-40,4,3,0,20,0,0
70430,-250,4,3,0,20,0,0
70510,-40,4,3,0,20,0,0
70537,-250,4,3,0,20,0,0
70617,-40,4,3,0,20,0,0
70644,-250,4,3,0,20,0,0
70724,-40,4,3,0,20,0,0
70751,-250,4,3,0,20,0,0
70831,-40,4,3,0,20,0,0
70858,-250,4,3,0,20,0,0
70939,-40,4,3,0,20,0,0
70965,-250,4,3,0,20,0,0
71046,-40,4,3,0,20,0,0
71072,-250,4,3,0,20,0,0
71153,-40,4,3,0,20,0,0
71180,-100,4,3,0,20,0,0
71367,-40,4,3,0,20,0,0
71394,-100,4,3,0,20,0,0
72010,-40,4,3,0,20,0,0
72036,-250,4,3,0,20,0,0
72117,-40,4,3,0,20,0,0
72144,-250,4,3,0,20,0,0
72224,-40,4,3,0,20,0,0
72251,-250,4,3,0,20,0,0
72331,-40,4,3,0,20,0,0
72358,-250,4,3,0,20,0,0
72438,-40,4,3,0,20,0,0
72465,-250,4,3,0,20,0,0
72545,-40,4,3,0,20,0,0
72572,-250,4,3,0,20,0,0
72653,-40,4,3,0,20,0,0
72679,-250,4,3,0,20,0,0
72760,-40,4,3,0,20,0,0
72786,-250,4,3,0,20,0,0
72867,-40,4,3,0,20,0,0
72894,-100,4,3,0,20,0,0
73082,-40,4,3,0,20,0,0
73108,-100,4,3,0,20,0,0
73724,-40,4,3,0,20,0,0
73750,-250,4,3,0,20,0,0
73831,-40,4,3,0,20,0,0
73858,-250,4,3,0,20,0,0
73938,-40,4,3,0,20,0,0
73965,-250,4,3,0,20,0,0
74045,-40,4,3,0,20,0,0
74072,-250,4,3,0,20,0,0
74152,-40,4,3,0,20,0,0
74179,-250,4,3,0,20,0,0
74259,-40,4,3,0,20,0,0
74286,-250,4,3,0,20,0,0
74367,-40,4,3,0,20,0,0
74393,-250,4,3,0,20,0,0
74474,-40,4,3,0,20,0,0
74500,-250,4,3,0,20,0,0
74581,-40,4,3,0,20,0,0
74608,-100,4,3,0,20,0,0
74796,-40,4,3,0,20,0,0
74823,-100,4,3,0,20,0,0
75439,-40,4,3,0,20,0,0
75465,-250,4,3,0,20,0,0
75546,-40,4,3,0,20,0,0
75573,-250,4,3,0,20,0,0
75653,-40,4,3,0,20,0,0
75680,-250,4,3,0,20,0,0
75760,-40,4,3,0,20,0,0
75787,-250,4,3,0,20,0,0
75867,-40,4,3,0,20,0,0
75894,-250,4,3,0,20,0,0
75974,-40,4,3,0,20,0,0
76001,-250,4,3,0,20,0,0
76082,-40,4,3,0,20,0,0
76108,-250,4,3,0,20,0,0
76189,-40,4,3,0,20,0,0
76215,-250,4,3,0,20,0,0
76296,-40,4,3,0,20,0,0
76323,-250,4,3,0,20,0,0
76403,-40,4,3,0,20,0,0
76430,-250,4,3,0,20,0,0
76510,-40,4,3,0,20,0,0
76537,-250,4,3,0,20,0,0
76617,-40,4,3,0,20,0,0
76644,-100,4,3,0,20,0,0
77153,-40,4,3,0,20,0,0
77179,-250,4,3,0,20,0,0
77260,-40,4,3,0,20,0,0
77287,-250,4,3,0,20,0,0
77367,-40,4,3,0,20,0,0
77394,-250,4,3,0,20,0,0
77474,-40,4,3,0,20,0,0
77501,-250,4,3,0,20,0,0
77581,-40,4,3,0,20,0,0
77608,-250,4,3,0,20,0,0
77688,-40,4,3,0,20,0,0
77715,-250,4,3,0,20,0,0
77796,-40,4,3,0,20,0,0
77822,-250,4,3,0,20,0,0
77903,-40,4,3,0,20,0,0
77929,-250,4,3,0,20,0,0
78010,-40,4,3,0,20,0,0
78037,-100,4,3,0,20,0,0
78225,-40,4,3,0,20,0,0
78251,-100,4,3,0,20,0,0
78867,-40,4,3,0,20,0,0
78893,-250,4,3,0,20,0,0
78974,-40,4,3,0,20,0,0
79001,-250,4,3,0,20,0,0
79081,-40,4,3,0,20,0,0
79108,-250,4,3,0,20,0,0
79188,-40,4,3,0,20,0,0
79215,-250,4,3,0,20,0,0
79295,-40,4,3,0,20,0,0
79322,-250,4,3,0,20,0,0
79402,-40,4,3,0,20,0,0
79429,-250,4,3,0,20,0,0
79510,-40,4,3,0,20,0,0
79536,-250,4,3,0,20,0,0
79617,-40,4,3,0,20,0,0
79643,-250,4,3,0,20,0,0
79724,-40,4,3,0,20,0,0
79751,-100,4,3,0,20,0,0
79939,-40,4,3,0,20,0,0
79966,-100,4,3,0,20,0,0
80581,-40,4,3,0,20,0,0
80607,-250,4,3,0,20,0,0
80688,-40,4,3,0,20,0,0
80715,-250,4,3,0,20,0,0
80795,-40,4,3,0,20,0,0
80822,-250,4,3,0,20,0,0
80902,-40,4,3,0,20,0,0
80929,-250,4,3,0,20,0,0
81009,-40,4,3,0,20,0,0
81036,-250,4,3,0,20,0,0
81116,-40,4,3,0,20,0,0
81143,-250,4,3,0,20,0,0
81224,-40,4,3,0,20,0,0
81250,-250,4,3,0,20,0,0
81331,-40,4,3,0,20,0,0
81357,-250,4,3,0,20,0,0
81438,-40,4,3,0,20,0,0
81465,-100,4,3,0,20,0,0
81653,-40,4,3,0,20,0,0
81680,-100,4,3,0,20,0,0
82296,-40,4,3,0,20,0,0
82322,-250,4,3,0,20,0,0
82403,-40,4,3,0,20,0,0
82430,-250,4,3,0,20,0,0
82510,-40,4,3,0,20,0,0
82537,-250,4,3,0,20,0,0
82617,-40,4,3,0,20,0,0
82644,-250,4,3,0,20,0,0
82724,-40,4,3,0,20,0,0
82751,-250,4,3,0,20,0,0
82831,-40,4,3,0,20,0,0
82858,-250,4,3,0,20,0,0
82939,-40,4,3,0,20,0,0
82965,-250,4,3,0,20,0,0
83046,-40,4,3,0,20,0,0
83072,-250,4,3,0,20,0,0
83153,-40,4,3,0,20,0,0
83180,-100,4,3,0,20,0,0
152582,410.958904109589,4,3,0,20,1,0
154225,394.736842105263,4,3,0,20,1,0
155803,384.615384615385,4,3,0,20,1,0
157341,372.670807453416,4,3,0,20,1,0
158831,361.44578313253,4,3,0,20,1,0
160276,350.877192982456,4,3,0,20,1,0
161679,342.857142857143,4,3,0,20,1,0

[HitObjects]
192,192,1725,5,0,0:0:0:0:
64,192,1725,1,0,0:0:0:0:
448,192,1939,1,0,0:0:0:0:
320,192,2153,1,0,0:0:0:0:
192,192,2367,1,0,0:0:0:0:
64,192,2582,1,0,0:0:0:0:
448,192,2796,1,0,0:0:0:0:
320,192,3010,1,0,0:0:0:0:
192,192,3225,1,0,0:0:0:0:
448,192,3439,1,0,0:0:0:0:
64,192,3439,1,0,0:0:0:0:
320,192,3653,1,0,0:0:0:0:
192,192,3867,1,0,0:0:0:0:
320,192,4082,1,0,0:0:0:0:
64,192,4082,1,0,0:0:0:0:
192,192,4296,1,0,0:0:0:0:
64,192,4510,1,0,0:0:0:0:
320,192,4725,1,0,0:0:0:0:
64,192,4939,1,0,0:0:0:0:
192,192,5153,1,0,0:0:0:0:
448,192,5153,1,0,0:0:0:0:
320,192,5367,1,0,0:0:0:0:
192,192,5582,1,0,0:0:0:0:
64,192,5796,1,0,0:0:0:0:
192,192,6010,1,0,0:0:0:0:
320,192,6225,1,0,0:0:0:0:
448,192,6439,1,0,0:0:0:0:
192,192,6653,1,0,0:0:0:0:
448,192,6867,1,0,0:0:0:0:
64,192,6867,1,0,0:0:0:0:
320,192,7082,1,0,0:0:0:0:
192,192,7296,1,0,0:0:0:0:
320,192,7510,1,0,0:0:0:0:
64,192,7510,1,0,0:0:0:0:
192,192,7725,1,0,0:0:0:0:
64,192,7939,1,0,0:0:0:0:
320,192,8153,1,0,0:0:0:0:
64,192,8367,1,0,0:0:0:0:
448,192,8582,1,0,0:0:0:0:
192,192,8582,1,0,0:0:0:0:
320,192,8796,1,0,0:0:0:0:
192,192,9010,1,0,0:0:0:0:
64,192,9225,1,0,0:0:0:0:
192,192,9439,1,0,0:0:0:0:
320,192,9653,1,0,0:0:0:0:
448,192,9867,1,0,0:0:0:0:
192,192,10082,1,0,0:0:0:0:
64,192,10296,1,0,0:0:0:0:
448,192,10296,1,0,0:0:0:0:
320,192,10510,1,0,0:0:0:0:
192,192,10725,1,0,0:0:0:0:
64,192,10939,1,0,0:0:0:0:
320,192,10939,1,0,0:0:0:0:
192,192,11153,1,0,0:0:0:0:
64,192,11367,1,0,0:0:0:0:
320,192,11582,1,0,0:0:0:0:
64,192,11796,1,0,0:0:0:0:
192,192,12010,1,0,0:0:0:0:
448,192,12010,1,0,0:0:0:0:
320,192,12225,1,0,0:0:0:0:
192,192,12439,1,0,0:0:0:0:
64,192,12653,1,0,0:0:0:0:
192,192,12867,1,0,0:0:0:0:
320,192,13082,1,0,0:0:0:0:
448,192,13296,1,0,0:0:0:0:
192,192,13510,1,0,0:0:0:0:
448,192,13725,1,0,0:0:0:0:
64,192,13725,1,0,0:0:0:0:
320,192,13939,1,0,0:0:0:0:
192,192,14153,1,0,0:0:0:0:
320,192,14367,1,0,0:0:0:0:
64,192,14367,1,0,0:0:0:0:
192,192,14582,1,0,0:0:0:0:
64,192,14796,1,0,0:0:0:0:
320,192,15010,1,0,0:0:0:0:
64,192,15225,1,0,0:0:0:0:
192,192,15439,1,0,0:0:0:0:
448,192,15439,1,0,0:0:0:0:
320,192,15439,1,0,0:0:0:0:
320,192,15653,1,0,0:0:0:0:
192,192,15867,1,0,0:0:0:0:
64,192,16082,1,0,0:0:0:0:
192,192,16296,1,0,0:0:0:0:
320,192,16510,1,0,0:0:0:0:
448,192,16725,1,0,0:0:0:0:
320,192,16939,1,0,0:0:0:0:
448,192,17153,1,0,0:0:0:0:
64,192,17153,1,0,0:0:0:0:
320,192,17153,1,0,0:0:0:0:
192,192,17367,1,0,0:0:0:0:
64,192,17582,1,0,0:0:0:0:
320,192,17796,1,0,0:0:0:0:
64,192,17796,1,0,0:0:0:0:
448,192,17796,1,0,0:0:0:0:
320,192,18010,1,0,0:0:0:0:
192,192,18225,1,0,0:0:0:0:
320,192,18439,1,0,0:0:0:0:
64,192,18653,1,0,0:0:0:0:
192,192,18867,1,0,0:0:0:0:
448,192,18867,1,0,0:0:0:0:
64,192,18867,1,0,0:0:0:0:
320,192,19082,1,0,0:0:0:0:
192,192,19296,1,0,0:0:0:0:
64,192,19510,1,0,0:0:0:0:
192,192,19725,1,0,0:0:0:0:
320,192,19939,1,0,0:0:0:0:
448,192,20153,1,0,0:0:0:0:
192,192,20367,1,0,0:0:0:0:
448,192,20582,1,0,0:0:0:0:
64,192,20582,1,0,0:0:0:0:
192,192,20582,1,0,0:0:0:0:
448,192,20796,1,0,0:0:0:0:
320,192,21010,1,0,0:0:0:0:
64,192,21225,1,0,0:0:0:0:
448,192,21225,1,0,0:0:0:0:
192,192,21225,1,0,0:0:0:0:
192,192,21439,1,0,0:0:0:0:
64,192,21653,1,0,0:0:0:0:
320,192,21867,1,0,0:0:0:0:
64,192,22082,1,0,0:0:0:0:
192,192,22296,1,0,0:0:0:0:
64,192,22296,1,0,0:0:0:0:
320,192,22296,1,0,0:0:0:0:
320,192,22510,1,0,0:0:0:0:
192,192,22725,1,0,0:0:0:0:
64,192,22939,1,0,0:0:0:0:
192,192,23153,1,0,0:0:0:0:
320,192,23367,1,0,0:0:0:0:
448,192,23582,1,0,0:0:0:0:
192,192,23796,1,0,0:0:0:0:
64,192,24010,1,0,0:0:0:0:
448,192,24010,1,0,0:0:0:0:
192,192,24010,1,0,0:0:0:0:
320,192,24225,1,0,0:0:0:0:
192,192,24439,1,0,0:0:0:0:
64,192,24653,1,0,0:0:0:0:
320,192,24653,1,0,0:0:0:0:
448,192,24653,1,0,0:0:0:0:
448,192,24867,1,0,0:0:0:0:
64,192,25082,1,0,0:0:0:0:
320,192,25296,1,0,0:0:0:0:
448,192,25510,1,0,0:0:0:0:
192,192,25725,1,0,0:0:0:0:
448,192,25725,1,0,0:0:0:0:
64,192,25725,1,0,0:0:0:0:
320,192,25939,1,0,0:0:0:0:
192,192,26153,1,0,0:0:0:0:
64,192,26367,1,0,0:0:0:0:
192,192,26582,1,0,0:0:0:0:
320,192,26796,1,0,0:0:0:0:
448,192,27010,1,0,0:0:0:0:
192,192,27225,1,0,0:0:0:0:
64,192,28939,1,0,0:0:0:0:
448,192,28939,1,0,0:0:0:0:
320,192,29153,128,0,29796:0:0:0:0:
64,192,29796,1,0,0:0:0:0:
448,192,30010,128,0,30653:0:0:0:0:
64,192,30653,1,0,0:0:0:0:
192,192,30653,1,0,0:0:0:0:
320,192,30867,128,0,31510:0:0:0:0:
64,192,31510,1,0,0:0:0:0:
192,192,31725,128,0,32367:0:0:0:0:
320,192,32367,1,0,0:0:0:0:
448,192,32367,1,0,0:0:0:0:
64,192,32582,128,0,33010:0:0:0:0:
320,192,33010,1,0,0:0:0:0:
192,192,33225,128,0,33653:0:0:0:0:
448,192,33653,128,0,34082:0:0:0:0:
64,192,34082,1,0,0:0:0:0:
320,192,34296,128,0,34725:0:0:0:0:
192,192,34725,128,0,35153:0:0:0:0:
64,192,35153,128,0,35796:0:0:0:0:
320,192,35796,1,0,0:0:0:0:
448,192,35796,1,0,0:0:0:0:
192,192,36010,128,0,36653:0:0:0:0:
448,192,36653,1,0,0:0:0:0:
64,192,36867,128,0,37510:0:0:0:0:
320,192,37510,1,0,0:0:0:0:
448,192,37510,1,0,0:0:0:0:
192,192,37725,128,0,38367:0:0:0:0:
448,192,38367,1,0,0:0:0:0:
320,192,38582,128,0,39225:0:0:0:0:
192,192,39225,1,0,0:0:0:0:
64,192,39225,1,0,0:0:0:0:
448,192,39439,128,0,39867:0:0:0:0:
192,192,39867,1,0,0:0:0:0:
320,192,40082,128,0,40510:0:0:0:0:
64,192,40510,128,0,40939:0:0:0:0:
448,192,40939,1,0,0:0:0:0:
192,192,41153,128,0,41582:0:0:0:0:
320,192,41582,128,0,42010:0:0:0:0:
448,192,42010,128,0,42439:0:0:0:0:
64,192,42439,128,0,42867:0:0:0:0:
192,192,42439,128,0,42867:0:0:0:0:
320,192,42867,1,0,0:0:0:0:
448,192,42975,1,0,0:0:0:0:
64,192,43082,1,0,0:0:0:0:
192,192,43189,1,0,0:0:0:0:
320,192,43296,1,0,0:0:0:0:
448,192,43403,1,0,0:0:0:0:
192,192,43510,1,0,0:0:0:0:
64,192,43617,1,0,0:0:0:0:
320,192,43725,1,0,0:0:0:0:
192,192,43725,1,0,0:0:0:0:
448,192,43939,1,0,0:0:0:0:
64,192,43939,1,0,0:0:0:0:
192,192,44153,1,0,0:0:0:0:
320,192,44153,1,0,0:0:0:0:
448,192,44367,1,0,0:0:0:0:
64,192,44367,1,0,0:0:0:0:
320,192,44582,1,0,0:0:0:0:
64,192,44582,1,0,0:0:0:0:
192,192,44689,1,0,0:0:0:0:
64,192,44796,1,0,0:0:0:0:
192,192,44903,1,0,0:0:0:0:
320,192,45010,1,0,0:0:0:0:
64,192,45117,1,0,0:0:0:0:
320,192,45225,1,0,0:0:0:0:
192,192,45332,1,0,0:0:0:0:
320,192,45439,1,0,0:0:0:0:
448,192,45439,1,0,0:0:0:0:
192,192,45653,1,0,0:0:0:0:
64,192,45653,1,0,0:0:0:0:
320,192,45867,1,0,0:0:0:0:
448,192,45867,1,0,0:0:0:0:
64,192,46082,1,0,0:0:0:0:
192,192,46082,1,0,0:0:0:0:
192,192,46296,1,0,0:0:0:0:
448,192,46296,1,0,0:0:0:0:
64,192,46403,1,0,0:0:0:0:
192,192,46510,1,0,0:0:0:0:
320,192,46617,1,0,0:0:0:0:
448,192,46725,1,0,0:0:0:0:
320,192,46832,1,0,0:0:0:0:
192,192,46939,1,0,0:0:0:0:
320,192,47046,1,0,0:0:0:0:
192,192,47153,1,0,0:0:0:0:
448,192,47153,1,0,0:0:0:0:
64,192,47367,1,0,0:0:0:0:
320,192,47367,1,0,0:0:0:0:
192,192,47582,1,0,0:0:0:0:
448,192,47582,1,0,0:0:0:0:
64,192,47796,1,0,0:0:0:0:
320,192,47796,1,0,0:0:0:0:
64,192,48010,1,0,0:0:0:0:
320,192,48010,1,0,0:0:0:0:
192,192,48117,1,0,0:0:0:0:
320,192,48225,1,0,0:0:0:0:
448,192,48332,1,0,0:0:0:0:
320,192,48439,1,0,0:0:0:0:
192,192,48546,1,0,0:0:0:0:
64,192,48653,1,0,0:0:0:0:
192,192,48760,1,0,0:0:0:0:
320,192,48867,1,0,0:0:0:0:
448,192,48867,1,0,0:0:0:0:
192,192,49082,1,0,0:0:0:0:
320,192,49082,1,0,0:0:0:0:
192,192,49296,1,0,0:0:0:0:
64,192,49296,1,0,0:0:0:0:
64,192,49510,1,0,0:0:0:0:
320,192,49510,1,0,0:0:0:0:
448,192,49725,1,0,0:0:0:0:
64,192,49725,1,0,0:0:0:0:
320,192,49832,1,0,0:0:0:0:
192,192,49939,1,0,0:0:0:0:
64,192,50046,1,0,0:0:0:0:
448,192,50153,1,0,0:0:0:0:
320,192,50260,1,0,0:0:0:0:
192,192,50367,1,0,0:0:0:0:
64,192,50475,1,0,0:0:0:0:
320,192,50582,1,0,0:0:0:0:
192,192,50582,1,0,0:0:0:0:
320,192,50796,1,0,0:0:0:0:
448,192,50796,1,0,0:0:0:0:
448,192,51010,1,0,0:0:0:0:
192,192,51010,1,0,0:0:0:0:
320,192,51225,1,0,0:0:0:0:
64,192,51225,1,0,0:0:0:0:
192,192,51439,1,0,0:0:0:0:
448,192,51439,1,0,0:0:0:0:
64,192,51546,1,0,0:0:0:0:
192,192,51653,1,0,0:0:0:0:
320,192,51760,1,0,0:0:0:0:
448,192,51867,1,0,0:0:0:0:
64,192,51975,1,0,0:0:0:0:
192,192,52082,1,0,0:0:0:0:
320,192,52189,1,0,0:0:0:0:
448,192,52296,1,0,0:0:0:0:
192,192,52296,1,0,0:0:0:0:
320,192,52510,1,0,0:0:0:0:
192,192,52510,1,0,0:0:0:0:
192,192,52725,1,0,0:0:0:0:
64,192,52725,1,0,0:0:0:0:
448,192,52939,1,0,0:0:0:0:
192,192,52939,1,0,0:0:0:0:
448,192,53153,128,0,53796:0:0:0:0:
64,192,53153,128,0,53796:0:0:0:0:
448,192,54439,128,0,54653:0:0:0:0:
192,192,54439,128,0,54653:0:0:0:0:
320,192,54653,128,0,55725:0:0:0:0:
64,192,54653,128,0,55725:0:0:0:0:
192,192,55725,1,0,0:0:0:0:
448,192,55725,1,0,0:0:0:0:
64,192,56153,128,0,56582:0:0:0:0:
192,192,56153,128,0,56582:0:0:0:0:
448,192,56582,1,0,0:0:0:0:
320,192,56689,1,0,0:0:0:0:
192,192,56796,1,0,0:0:0:0:
64,192,56903,1,0,0:0:0:0:
448,192,57010,1,0,0:0:0:0:
320,192,57117,1,0,0:0:0:0:
192,192,57225,1,0,0:0:0:0:
64,192,57332,1,0,0:0:0:0:
192,192,57439,1,0,0:0:0:0:
320,192,57867,128,0,58296:0:0:0:0:
448,192,57867,128,0,58296:0:0:0:0:
64,192,58296,1,0,0:0:0:0:
192,192,58403,1,0,0:0:0:0:
320,192,58510,1,0,0:0:0:0:
448,192,58617,1,0,0:0:0:0:
64,192,58725,1,0,0:0:0:0:
192,192,58832,1,0,0:0:0:0:
320,192,58939,1,0,0:0:0:0:
448,192,59046,1,0,0:0:0:0:
320,192,59153,1,0,0:0:0:0:
192,192,59582,128,0,60010:0:0:0:0:
320,192,59582,128,0,60010:0:0:0:0:
64,192,60010,1,0,0:0:0:0:
192,192,60117,1,0,0:0:0:0:
320,192,60225,1,0,0:0:0:0:
192,192,60332,1,0,0:0:0:0:
320,192,60439,1,0,0:0:0:0:
448,192,60546,1,0,0:0:0:0:
320,192,60653,1,0,0:0:0:0:
192,192,60760,1,0,0:0:0:0:
64,192,60867,1,0,0:0:0:0:
448,192,61296,128,0,61725:0:0:0:0:
64,192,61296,128,0,61725:0:0:0:0:
192,192,61725,1,0,0:0:0:0:
320,192,61832,1,0,0:0:0:0:
64,192,61939,1,0,0:0:0:0:
448,192,62046,1,0,0:0:0:0:
192,192,62153,1,0,0:0:0:0:
320,192,62260,1,0,0:0:0:0:
64,192,62367,1,0,0:0:0:0:
448,192,62475,1,0,0:0:0:0:
320,192,62582,1,0,0:0:0:0:
64,192,62689,1,0,0:0:0:0:
192,192,62796,1,0,0:0:0:0:
320,192,62903,1,0,0:0:0:0:
192,192,63010,128,0,63439:0:0:0:0:
64,192,63439,1,0,0:0:0:0:
192,192,63546,1,0,0:0:0:0:
320,192,63653,1,0,0:0:0:0:
448,192,63760,1,0,0:0:0:0:
64,192,63867,1,0,0:0:0:0:
192,192,63975,1,0,0:0:0:0:
320,192,64082,1,0,0:0:0:0:
448,192,64189,1,0,0:0:0:0:
320,192,64296,1,0,0:0:0:0:
192,192,64725,128,0,65153:0:0:0:0:
64,192,64725,128,0,65153:0:0:0:0:
448,192,65153,1,0,0:0:0:0:
320,192,65260,1,0,0:0:0:0:
192,192,65367,1,0,0:0:0:0:
64,192,65475,1,0,0:0:0:0:
448,192,65582,1,0,0:0:0:0:
320,192,65689,1,0,0:0:0:0:
192,192,65796,1,0,0:0:0:0:
64,192,65903,1,0,0:0:0:0:
192,192,66010,1,0,0:0:0:0:
320,192,66439,128,0,66867:0:0:0:0:
192,192,66439,128,0,66867:0:0:0:0:
448,192,66867,1,0,0:0:0:0:
320,192,66975,1,0,0:0:0:0:
192,192,67082,1,0,0:0:0:0:
320,192,67189,1,0,0:0:0:0:
192,192,67296,1,0,0:0:0:0:
64,192,67403,1,0,0:0:0:0:
192,192,67510,1,0,0:0:0:0:
320,192,67617,1,0,0:0:0:0:
448,192,67725,1,0,0:0:0:0:
64,192,68153,128,0,68582:0:0:0:0:
448,192,68153,128,0,68582:0:0:0:0:
320,192,68582,1,0,0:0:0:0:
192,192,68689,1,0,0:0:0:0:
448,192,68796,1,0,0:0:0:0:
64,192,68903,1,0,0:0:0:0:
320,192,69010,1,0,0:0:0:0:
192,192,69117,1,0,0:0:0:0:
448,192,69225,1,0,0:0:0:0:
64,192,69332,1,0,0:0:0:0:
192,192,69439,1,0,0:0:0:0:
320,192,69546,1,0,0:0:0:0:
192,192,69653,1,0,0:0:0:0:
64,192,69760,1,0,0:0:0:0:
192,192,69867,128,0,70296:0:0:0:0:
64,192,70296,1,0,0:0:0:0:
320,192,70403,1,0,0:0:0:0:
192,192,70510,1,0,0:0:0:0:
64,192,70617,1,0,0:0:0:0:
448,192,70725,1,0,0:0:0:0:
320,192,70832,1,0,0:0:0:0:
192,192,70939,1,0,0:0:0:0:
64,192,71046,1,0,0:0:0:0:
192,192,71153,1,0,0:0:0:0:
64,192,71367,1,0,0:0:0:0:
192,192,71367,1,0,0:0:0:0:
448,192,71582,128,0,72010:0:0:0:0:
320,192,71582,128,0,72010:0:0:0:0:
64,192,72010,1,0,0:0:0:0:
192,192,72117,1,0,0:0:0:0:
320,192,72225,1,0,0:0:0:0:
448,192,72332,1,0,0:0:0:0:
192,192,72439,1,0,0:0:0:0:
320,192,72546,1,0,0:0:0:0:
448,192,72653,1,0,0:0:0:0:
320,192,72760,1,0,0:0:0:0:
192,192,72867,1,0,0:0:0:0:
64,192,73082,1,0,0:0:0:0:
448,192,73082,1,0,0:0:0:0:
320,192,73296,128,0,73725:0:0:0:0:
192,192,73296,128,0,73725:0:0:0:0:
64,192,73725,1,0,0:0:0:0:
192,192,73832,1,0,0:0:0:0:
320,192,73939,1,0,0:0:0:0:
192,192,74046,1,0,0:0:0:0:
320,192,74153,1,0,0:0:0:0:
448,192,74260,1,0,0:0:0:0:
320,192,74367,1,0,0:0:0:0:
192,192,74475,1,0,0:0:0:0:
64,192,74582,1,0,0:0:0:0:
192,192,74796,1,0,0:0:0:0:
320,192,74796,1,0,0:0:0:0:
64,192,75010,128,0,75439:0:0:0:0:
448,192,75010,128,0,75439:0:0:0:0:
192,192,75439,1,0,0:0:0:0:
320,192,75546,1,0,0:0:0:0:
64,192,75653,1,0,0:0:0:0:
448,192,75760,1,0,0:0:0:0:
192,192,75867,1,0,0:0:0:0:
320,192,75975,1,0,0:0:0:0:
64,192,76082,1,0,0:0:0:0:
448,192,76189,1,0,0:0:0:0:
320,192,76296,1,0,0:0:0:0:
64,192,76296,1,0,0:0:0:0:
192,192,76403,1,0,0:0:0:0:
320,192,76510,1,0,0:0:0:0:
448,192,76617,1,0,0:0:0:0:
320,192,76725,128,0,77153:0:0:0:0:
64,192,77153,1,0,0:0:0:0:
192,192,77260,1,0,0:0:0:0:
448,192,77367,1,0,0:0:0:0:
320,192,77475,1,0,0:0:0:0:
64,192,77582,1,0,0:0:0:0:
192,192,77689,1,0,0:0:0:0:
448,192,77796,1,0,0:0:0:0:
320,192,77903,1,0,0:0:0:0:
192,192,78010,1,0,0:0:0:0:
320,192,78225,1,0,0:0:0:0:
448,192,78225,1,0,0:0:0:0:
192,192,78439,128,0,78867:0:0:0:0:
64,192,78439,128,0,78867:0:0:0:0:
448,192,78867,1,0,0:0:0:0:
320,192,78975,1,0,0:0:0:0:
64,192,79082,1,0,0:0:0:0:
192,192,79189,1,0,0:0:0:0:
448,192,79296,1,0,0:0:0:0:
320,192,79403,1,0,0:0:0:0:
64,192,79510,1,0,0:0:0:0:
192,192,79617,1,0,0:0:0:0:
320,192,79725,1,0,0:0:0:0:
64,192,79939,1,0,0:0:0:0:
448,192,79939,1,0,0:0:0:0:
320,192,80153,128,0,80582:0:0:0:0:
192,192,80153,128,0,80582:0:0:0:0:
448,192,80582,1,0,0:0:0:0:
320,192,80689,1,0,0:0:0:0:
192,192,80796,1,0,0:0:0:0:
320,192,80903,1,0,0:0:0:0:
192,192,81010,1,0,0:0:0:0:
64,192,81117,1,0,0:0:0:0:
192,192,81225,1,0,0:0:0:0:
320,192,81332,1,0,0:0:0:0:
448,192,81439,1,0,0:0:0:0:
192,192,81653,1,0,0:0:0:0:
320,192,81653,1,0,0:0:0:0:
64,192,81867,128,0,82296:0:0:0:0:
448,192,81867,128,0,82296:0:0:0:0:
320,192,82296,1,0,0:0:0:0:
192,192,82403,1,0,0:0:0:0:
448,192,82510,1,0,0:0:0:0:
64,192,82617,1,0,0:0:0:0:
448,192,83796,1,0,0:0:0:0:
64,192,83796,1,0,0:0:0:0:
192,192,84010,128,0,84653:0:0:0:0:
448,192,84653,1,0,0:0:0:0:
64,192,84867,128,0,85510:0:0:0:0:
320,192,85510,1,0,0:0:0:0:
448,192,85510,1,0,0:0:0:0:
192,192,85725,128,0,86367:0:0:0:0:
448,192,86367,1,0,0:0:0:0:
320,192,86582,128,0,87225:0:0:0:0:
192,192,87225,1,0,0:0:0:0:
64,192,87225,1,0,0:0:0:0:
448,192,87439,128,0,87867:0:0:0:0:
192,192,87867,1,0,0:0:0:0:
320,192,88082,128,0,88510:0:0:0:0:
64,192,88510,128,0,88939:0:0:0:0:
448,192,88939,1,0,0:0:0:0:
192,192,89153,128,0,89582:0:0:0:0:
320,192,89582,128,0,90010:0:0:0:0:
448,192,90010,128,0,90653:0:0:0:0:
192,192,90653,1,0,0:0:0:0:
64,192,90653,1,0,0:0:0:0:
320,192,90867,128,0,91510:0:0:0:0:
64,192,91510,1,0,0:0:0:0:
448,192,91725,128,0,92367:0:0:0:0:
192,192,92367,1,0,0:0:0:0:
64,192,92367,1,0,0:0:0:0:
320,192,92582,128,0,93225:0:0:0:0:
64,192,93225,1,0,0:0:0:0:
192,192,93439,128,0,94082:0:0:0:0:
320,192,94082,1,0,0:0:0:0:
448,192,94082,1,0,0:0:0:0:
64,192,94296,128,0,94725:0:0:0:0:
320,192,94725,1,0,0:0:0:0:
192,192,94939,128,0,95367:0:0:0:0:
448,192,95367,128,0,95796:0:0:0:0:
64,192,95796,1,0,0:0:0:0:
320,192,96010,128,0,96439:0:0:0:0:
192,192,96439,128,0,96867:0:0:0:0:
64,192,96867,128,0,97296:0:0:0:0:
448,192,97296,128,0,97725:0:0:0:0:
320,192,97296,128,0,97725:0:0:0:0:
64,192,97725,1,0,0:0:0:0:
192,192,97939,1,0,0:0:0:0:
320,192,98153,1,0,0:0:0:0:
64,192,98367,1,0,0:0:0:0:
192,192,98582,1,0,0:0:0:0:
320,192,98796,1,0,0:0:0:0:
448,192,99010,1,0,0:0:0:0:
320,192,99225,1,0,0:0:0:0:
192,192,99439,1,0,0:0:0:0:
64,192,99439,1,0,0:0:0:0:
320,192,99653,1,0,0:0:0:0:
448,192,99867,1,0,0:0:0:0:
64,192,100082,1,0,0:0:0:0:
320,192,100082,1,0,0:0:0:0:
192,192,100296,1,0,0:0:0:0:
320,192,100510,1,0,0:0:0:0:
192,192,100725,1,0,0:0:0:0:
64,192,100939,1,0,0:0:0:0:
448,192,101153,1,0,0:0:0:0:
320,192,101367,1,0,0:0:0:0:
192,192,101582,1,0,0:0:0:0:
320,192,101796,1,0,0:0:0:0:
448,192,102010,1,0,0:0:0:0:
64,192,102225,1,0,0:0:0:0:
192,192,102439,1,0,0:0:0:0:
320,192,102653,1,0,0:0:0:0:
64,192,102867,1,0,0:0:0:0:
448,192,102867,1,0,0:0:0:0:
192,192,103082,1,0,0:0:0:0:
320,192,103296,1,0,0:0:0:0:
448,192,103510,1,0,0:0:0:0:
192,192,103510,1,0,0:0:0:0:
320,192,103725,1,0,0:0:0:0:
192,192,103939,1,0,0:0:0:0:
320,192,104153,1,0,0:0:0:0:
448,192,104367,1,0,0:0:0:0:
64,192,104582,1,0,0:0:0:0:
320,192,104796,1,0,0:0:0:0:
192,192,105010,1,0,0:0:0:0:
448,192,105225,1,0,0:0:0:0:
320,192,105439,1,0,0:0:0:0:
192,192,105653,1,0,0:0:0:0:
64,192,105867,1,0,0:0:0:0:
192,192,106082,1,0,0:0:0:0:
320,192,106296,1,0,0:0:0:0:
448,192,106296,1,0,0:0:0:0:
192,192,106510,1,0,0:0:0:0:
64,192,106725,1,0,0:0:0:0:
448,192,106939,1,0,0:0:0:0:
192,192,106939,1,0,0:0:0:0:
320,192,107153,1,0,0:0:0:0:
192,192,107367,1,0,0:0:0:0:
320,192,107582,1,0,0:0:0:0:
448,192,107796,1,0,0:0:0:0:
64,192,108010,128,0,108653:0:0:0:0:
64,192,109296,128,0,109510:0:0:0:0:
448,192,109296,128,0,109510:0:0:0:0:
192,192,109510,128,0,110582:0:0:0:0:
320,192,109510,128,0,110582:0:0:0:0:
64,192,110582,1,0,0:0:0:0:
448,192,110582,1,0,0:0:0:0:
64,192,111010,128,0,111439:0:0:0:0:
192,192,111010,128,0,111439:0:0:0:0:
448,192,111439,1,0,0:0:0:0:
320,192,111510,1,0,0:0:0:0:
192,192,111582,1,0,0:0:0:0:
64,192,111653,1,0,0:0:0:0:
448,192,111725,1,0,0:0:0:0:
320,192,111796,1,0,0:0:0:0:
192,192,111867,1,0,0:0:0:0:
64,192,111939,1,0,0:0:0:0:
320,192,112010,1,0,0:0:0:0:
192,192,112082,1,0,0:0:0:0:
64,192,112153,1,0,0:0:0:0:
192,192,112225,1,0,0:0:0:0:
320,192,112296,1,0,0:0:0:0:
320,192,112725,128,0,113153:0:0:0:0:
448,192,112725,128,0,113153:0:0:0:0:
64,192,113153,1,0,0:0:0:0:
192,192,113225,1,0,0:0:0:0:
320,192,113296,1,0,0:0:0:0:
448,192,113367,1,0,0:0:0:0:
64,192,113439,1,0,0:0:0:0:
192,192,113510,1,0,0:0:0:0:
320,192,113582,1,0,0:0:0:0:
448,192,113653,1,0,0:0:0:0:
320,192,113725,1,0,0:0:0:0:
192,192,113796,1,0,0:0:0:0:
320,192,113867,1,0,0:0:0:0:
448,192,113939,1,0,0:0:0:0:
320,192,114010,1,0,0:0:0:0:
192,192,114439,128,0,114867:0:0:0:0:
320,192,114439,128,0,114867:0:0:0:0:
64,192,114867,1,0,0:0:0:0:
192,192,114939,1,0,0:0:0:0:
320,192,115010,1,0,0:0:0:0:
192,192,115082,1,0,0:0:0:0:
320,192,115153,1,0,0:0:0:0:
448,192,115225,1,0,0:0:0:0:
64,192,115296,1,0,0:0:0:0:
192,192,115367,1,0,0:0:0:0:
320,192,115439,1,0,0:0:0:0:
448,192,115510,1,0,0:0:0:0:
320,192,115582,1,0,0:0:0:0:
192,192,115653,1,0,0:0:0:0:
64,192,115725,1,0,0:0:0:0:
448,192,116153,128,0,116582:0:0:0:0:
64,192,116153,128,0,116582:0:0:0:0:
192,192,116582,1,0,0:0:0:0:
320,192,116653,1,0,0:0:0:0:
64,192,116725,1,0,0:0:0:0:
448,192,116796,1,0,0:0:0:0:
192,192,116867,1,0,0:0:0:0:
320,192,116939,1,0,0:0:0:0:
64,192,117010,1,0,0:0:0:0:
448,192,117082,1,0,0:0:0:0:
192,192,117153,1,0,0:0:0:0:
320,192,117225,1,0,0:0:0:0:
64,192,117296,1,0,0:0:0:0:
448,192,117367,1,0,0:0:0:0:
320,192,117439,1,0,0:0:0:0:
192,192,117510,1,0,0:0:0:0:
64,192,117582,1,0,0:0:0:0:
192,192,117653,1,0,0:0:0:0:
320,192,117725,1,0,0:0:0:0:
448,192,117796,1,0,0:0:0:0:
192,192,117867,128,0,118296:0:0:0:0:
64,192,118296,1,0,0:0:0:0:
192,192,118367,1,0,0:0:0:0:
320,192,118439,1,0,0:0:0:0:
448,192,118510,1,0,0:0:0:0:
64,192,118582,1,0,0:0:0:0:
192,192,118653,1,0,0:0:0:0:
320,192,118725,1,0,0:0:0:0:
448,192,118796,1,0,0:0:0:0:
320,192,118867,1,0,0:0:0:0:
192,192,118939,1,0,0:0:0:0:
64,192,119010,1,0,0:0:0:0:
192,192,119082,1,0,0:0:0:0:
320,192,119153,1,0,0:0:0:0:
192,192,119582,128,0,120010:0:0:0:0:
64,192,119582,128,0,120010:0:0:0:0:
448,192,120010,1,0,0:0:0:0:
320,192,120082,1,0,0:0:0:0:
192,192,120153,1,0,0:0:0:0:
64,192,120225,1,0,0:0:0:0:
448,192,120296,1,0,0:0:0:0:
320,192,120367,1,0,0:0:0:0:
448,192,120439,1,0,0:0:0:0:
64,192,120510,1,0,0:0:0:0:
192,192,120582,1,0,0:0:0:0:
64,192,120653,1,0,0:0:0:0:
448,192,120725,1,0,0:0:0:0:
320,192,120796,1,0,0:0:0:0:
192,192,120867,1,0,0:0:0:0:
320,192,121296,128,0,121725:0:0:0:0:
192,192,121296,128,0,121725:0:0:0:0:
448,192,121725,1,0,0:0:0:0:
320,192,121796,1,0,0:0:0:0:
192,192,121867,1,0,0:0:0:0:
320,192,121939,1,0,0:0:0:0:
192,192,122010,1,0,0:0:0:0:
64,192,122082,1,0,0:0:0:0:
192,192,122153,1,0,0:0:0:0:
320,192,122225,1,0,0:0:0:0:
448,192,122296,1,0,0:0:0:0:
320,192,122367,1,0,0:0:0:0:
192,192,122439,1,0,0:0:0:0:
64,192,122510,1,0,0:0:0:0:
192,192,122582,1,0,0:0:0:0:
64,192,123010,128,0,123439:0:0:0:0:
448,192,123010,128,0,123439:0:0:0:0:
320,192,123439,1,0,0:0:0:0:
192,192,123510,1,0,0:0:0:0:
448,192,123582,1,0,0:0:0:0:
64,192,123653,1,0,0:0:0:0:
320,192,123725,1,0,0:0:0:0:
192,192,123796,1,0,0:0:0:0:
448,192,123867,1,0,0:0:0:0:
64,192,123939,1,0,0:0:0:0:
320,192,124010,1,0,0:0:0:0:
192,192,124082,1,0,0:0:0:0:
448,192,124153,1,0,0:0:0:0:
64,192,124225,1,0,0:0:0:0:
448,192,124296,1,0,0:0:0:0:
320,192,124367,1,0,0:0:0:0:
192,192,124439,1,0,0:0:0:0:
64,192,124510,1,0,0:0:0:0:
448,192,124582,1,0,0:0:0:0:
320,192,124653,1,0,0:0:0:0:
192,192,124725,128,0,125153:0:0:0:0:
64,192,125153,1,0,0:0:0:0:
448,192,125207,1,0,0:0:0:0:
320,192,125260,1,0,0:0:0:0:
192,192,125314,1,0,0:0:0:0:
320,192,125367,1,0,0:0:0:0:
448,192,125421,1,0,0:0:0:0:
64,192,125475,1,0,0:0:0:0:
192,192,125528,1,0,0:0:0:0:
320,192,125582,1,0,0:0:0:0:
448,192,125635,1,0,0:0:0:0:
320,192,125689,1,0,0:0:0:0:
192,192,125742,1,0,0:0:0:0:
64,192,125796,1,0,0:0:0:0:
192,192,125850,1,0,0:0:0:0:
320,192,125903,1,0,0:0:0:0:
448,192,125957,1,0,0:0:0:0:
320,192,126010,1,0,0:0:0:0:
64,192,126225,1,0,0:0:0:0:
192,192,126225,1,0,0:0:0:0:
448,192,126439,128,0,126867:0:0:0:0:
320,192,126439,128,0,126867:0:0:0:0:
64,192,126653,1,0,0:0:0:0:
192,192,126653,1,0,0:0:0:0:
64,192,126867,1,0,0:0:0:0:
192,192,126921,1,0,0:0:0:0:
320,192,126975,1,0,0:0:0:0:
448,192,127028,1,0,0:0:0:0:
64,192,127082,1,0,0:0:0:0:
192,192,127135,1,0,0:0:0:0:
320,192,127189,1,0,0:0:0:0:
448,192,127242,1,0,0:0:0:0:
320,192,127296,1,0,0:0:0:0:
192,192,127350,1,0,0:0:0:0:
64,192,127403,1,0,0:0:0:0:
448,192,127457,1,0,0:0:0:0:
320,192,127510,1,0,0:0:0:0:
192,192,127564,1,0,0:0:0:0:
64,192,127617,1,0,0:0:0:0:
192,192,127671,1,0,0:0:0:0:
320,192,127725,1,0,0:0:0:0:
320,192,127939,1,0,0:0:0:0:
448,192,127939,1,0,0:0:0:0:
64,192,128153,128,0,128582:0:0:0:0:
192,192,128153,128,0,128582:0:0:0:0:
448,192,128367,1,0,0:0:0:0:
320,192,128367,1,0,0:0:0:0:
320,192,128582,1,0,0:0:0:0:
448,192,128635,1,0,0:0:0:0:
320,192,128689,1,0,0:0:0:0:
192,192,128742,1,0,0:0:0:0:
64,192,128796,1,0,0:0:0:0:
320,192,128850,1,0,0:0:0:0:
448,192,128903,1,0,0:0:0:0:
320,192,128957,1,0,0:0:0:0:
192,192,129010,1,0,0:0:0:0:
64,192,129064,1,0,0:0:0:0:
448,192,129117,1,0,0:0:0:0:
320,192,129171,1,0,0:0:0:0:
192,192,129225,1,0,0:0:0:0:
64,192,129278,1,0,0:0:0:0:
448,192,129332,1,0,0:0:0:0:
320,192,129385,1,0,0:0:0:0:
192,192,129439,1,0,0:0:0:0:
192,192,129653,1,0,0:0:0:0:
64,192,129653,1,0,0:0:0:0:
64,192,129867,128,0,130296:0:0:0:0:
192,192,129867,128,0,130296:0:0:0:0:
320,192,130082,1,0,0:0:0:0:
448,192,130082,1,0,0:0:0:0:
448,192,130296,1,0,0:0:0:0:
320,192,130350,1,0,0:0:0:0:
64,192,130403,1,0,0:0:0:0:
448,192,130457,1,0,0:0:0:0:
192,192,130510,1,0,0:0:0:0:
320,192,130564,1,0,0:0:0:0:
64,192,130617,1,0,0:0:0:0:
448,192,130671,1,0,0:0:0:0:
192,192,130725,1,0,0:0:0:0:
320,192,130778,1,0,0:0:0:0:
64,192,130832,1,0,0:0:0:0:
448,192,130885,1,0,0:0:0:0:
192,192,130939,1,0,0:0:0:0:
320,192,130992,1,0,0:0:0:0:
64,192,131046,1,0,0:0:0:0:
448,192,131100,1,0,0:0:0:0:
320,192,131153,1,0,0:0:0:0:
192,192,131207,1,0,0:0:0:0:
64,192,131260,1,0,0:0:0:0:
192,192,131314,1,0,0:0:0:0:
320,192,131367,1,0,0:0:0:0:
448,192,131421,1,0,0:0:0:0:
320,192,131475,1,0,0:0:0:0:
192,192,131528,1,0,0:0:0:0:
320,192,131582,128,0,132010:0:0:0:0:
64,192,132010,1,0,0:0:0:0:
192,192,132064,1,0,0:0:0:0:
448,192,132117,1,0,0:0:0:0:
320,192,132171,1,0,0:0:0:0:
64,192,132225,1,0,0:0:0:0:
192,192,132278,1,0,0:0:0:0:
448,192,132332,1,0,0:0:0:0:
320,192,132385,1,0,0:0:0:0:
64,192,132439,1,0,0:0:0:0:
192,192,132492,1,0,0:0:0:0:
320,192,132546,1,0,0:0:0:0:
448,192,132600,1,0,0:0:0:0:
320,192,132653,1,0,0:0:0:0:
192,192,132707,1,0,0:0:0:0:
448,192,132760,1,0,0:0:0:0:
320,192,132814,1,0,0:0:0:0:
192,192,132867,1,0,0:0:0:0:
320,192,133082,1,0,0:0:0:0:
448,192,133082,1,0,0:0:0:0:
192,192,133296,128,0,133725:0:0:0:0:
64,192,133296,128,0,133725:0:0:0:0:
320,192,133510,1,0,0:0:0:0:
448,192,133510,1,0,0:0:0:0:
448,192,133725,1,0,0:0:0:0:
320,192,133778,1,0,0:0:0:0:
64,192,133832,1,0,0:0:0:0:
192,192,133885,1,0,0:0:0:0:
448,192,133939,1,0,0:0:0:0:
320,192,133992,1,0,0:0:0:0:
64,192,134046,1,0,0:0:0:0:
192,192,134100,1,0,0:0:0:0:
448,192,134153,1,0,0:0:0:0:
320,192,134207,1,0,0:0:0:0:
64,192,134260,1,0,0:0:0:0:
192,192,134314,1,0,0:0:0:0:
448,192,134367,1,0,0:0:0:0:
320,192,134421,1,0,0:0:0:0:
192,192,134475,1,0,0:0:0:0:
64,192,134528,1,0,0:0:0:0:
192,192,134582,1,0,0:0:0:0:
64,192,134796,1,0,0:0:0:0:
192,192,134796,1,0,0:0:0:0:
320,192,135010,128,0,135439:0:0:0:0:
448,192,135010,128,0,135439:0:0:0:0:
64,192,135225,1,0,0:0:0:0:
192,192,135225,1,0,0:0:0:0:
192,192,135439,1,0,0:0:0:0:
64,192,135492,1,0,0:0:0:0:
192,192,135546,1,0,0:0:0:0:
320,192,135600,1,0,0:0:0:0:
448,192,135653,1,0,0:0:0:0:
320,192,135707,1,0,0:0:0:0:
192,192,135760,1,0,0:0:0:0:
64,192,135814,1,0,0:0:0:0:
192,192,135867,1,0,0:0:0:0:
320,192,135921,1,0,0:0:0:0:
448,192,135975,1,0,0:0:0:0:
320,192,136028,1,0,0:0:0:0:
192,192,136082,1,0,0:0:0:0:
64,192,136135,1,0,0:0:0:0:
192,192,136189,1,0,0:0:0:0:
320,192,136242,1,0,0:0:0:0:
448,192,136296,1,0,0:0:0:0:
192,192,136510,1,0,0:0:0:0:
320,192,136510,1,0,0:0:0:0:
64,192,136725,128,0,137153:0:0:0:0:
192,192,136725,128,0,137153:0:0:0:0:
320,192,136939,1,0,0:0:0:0:
448,192,136939,1,0,0:0:0:0:
448,192,137153,1,0,0:0:0:0:
320,192,137207,1,0,0:0:0:0:
192,192,137260,1,0,0:0:0:0:
64,192,137314,1,0,0:0:0:0:
448,192,137367,1,0,0:0:0:0:
320,192,137421,1,0,0:0:0:0:
192,192,137475,1,0,0:0:0:0:
64,192,137528,1,0,0:0:0:0:
192,192,137582,1,0,0:0:0:0:
320,192,137635,1,0,0:0:0:0:
448,192,137689,1,0,0:0:0:0:
64,192,137742,1,0,0:0:0:0:
192,192,137796,1,0,0:0:0:0:
320,192,137850,1,0,0:0:0:0:
448,192,137903,1,0,0:0:0:0:
64,192,137957,1,0,0:0:0:0:
192,192,137957,1,0,0:0:0:0:
320,192,138225,1,0,0:0:0:0:
448,192,138225,1,0,0:0:0:0:
64,192,138332,1,0,0:0:0:0:
192,192,138332,1,0,0:0:0:0:
320,192,138546,1,0,0:0:0:0:
448,192,138546,1,0,0:0:0:0:
192,192,138653,1,0,0:0:0:0:
64,192,138653,1,0,0:0:0:0:
64,192,138867,1,0,0:0:0:0:
448,192,138867,1,0,0:0:0:0:
320,192,138867,1,0,0:0:0:0:
192,192,138867,1,0,0:0:0:0:
