osu file format v14

[General]
AudioFilename: audio.mp3
AudioLeadIn: 0
PreviewTime: 264271
Countdown: 1
SampleSet: Soft
StackLeniency: 0.4
Mode: 0
LetterboxInBreaks: 0
WidescreenStoryboard: 0

[Editor]
Bookmarks: 43154,84131,137764,179718,222575,264340,321144
DistanceSpacing: 1.69
BeatDivisor: 4
GridSize: 4
TimelineZoom: 1.6

[Metadata]
Title:the miracles of love EP
TitleUnicode:the miracles of love EP
Artist:Bakari & Hobbes2
ArtistUnicode:Bakari & Hobbes2
Creator:Hobbes2
Version:Lovethon
Source:
Tags:Dnb Drum and Bass Horrible Flashbacks of the Future Ingenious Contributions capitalism through prism broken human soul a Shadow Beast trance Forest
BeatmapID:1215544
BeatmapSetID:573829

[Difficulty]
HPDrainRate:5
CircleSize:4.5
OverallDifficulty:8
ApproachRate:9
SliderMultiplier:1.7
SliderTickRate:1

[Events]
//Background and Video events
0,0,"Forest Of Love.jpg",0,0
//Break Periods
2,81106,84980
2,177103,179118
2,195454,196260
2,231256,231975
2,244025,244832
2,261078,263740
//Storyboard Layer 0 (Background)
//Storyboard Layer 1 (Fail)
//Storyboard Layer 2 (Pass)
//Storyboard Layer 3 (Foreground)
//Storyboard Sound Samples

[TimingPoints]
8,337.078651685393,4,2,0,40,1,0
26974,-117.647058823529,4,2,0,40,0,0
43154,-100,4,2,0,40,0,0
71468,-117.647058823529,4,2,0,40,0,0
84131,362.391056188733,4,2,0,40,1,0
84131,-200,4,2,0,40,0,0
91288,-200,4,2,0,5,0,0
91378,-200,4,2,0,40,0,0
95727,-133.333333333333,4,2,0,40,0,0
179718,357.142857142857,4,2,0,40,1,0
196860,-83.3333333333333,4,2,0,40,0,0
205789,-133.333333333333,4,2,0,40,0,0
206146,-83.3333333333333,4,2,0,40,0,0
206860,-83.3333333333333,4,2,0,40,0,0
206950,-71.4285714285714,4,2,0,40,0,0
207575,-83.3333333333333,4,2,0,40,0,0
209807,-71.4285714285714,4,2,0,40,0,0
210432,-83.3333333333333,4,2,0,40,0,0
212664,-71.4285714285714,4,2,0,40,0,0
213289,-83.3333333333333,4,2,0,40,0,0
214003,-83.3333333333333,4,2,0,40,0,0
222575,-100,4,2,0,40,0,0
264340,355.029585798817,4,2,0,40,1,0
264340,-125,4,2,0,20,0,0

[Colours]
Combo1 : 10,250,184
Combo2 : 165,122,84
Combo3 : 97,193,0
Combo4 : 255,255,125
Combo5 : 0,138,35

[HitObjects]
198,170,8,6,0,L|208:74,1,85
282,178,345,1,0,0:0:0:0:
233,246,513,1,0,0:0:0:0:
204,253,597,1,0,0:0:0:0:
174,250,681,1,0,0:0:0:0:
148,237,765,1,0,0:0:0:0:
127,216,850,1,0,0:0:0:0:
282,178,1019,1,0,0:0:0:0:
330,245,1187,1,0,0:0:0:0:
198,170,1356,5,0,0:0:0:0:
233,246,1524,1,0,0:0:0:0:
247,102,1693,2,0,P|217:43|194:29,1,85
173,26,1946,1,0,0:0:0:0:
173,26,2030,2,0,L|114:28,2,42.5
198,170,2367,1,0,0:0:0:0:
247,102,2536,1,0,0:0:0:0:
149,238,2704,6,0,L|150:328,1,85
266,219,3041,1,0,0:0:0:0:
247,102,3210,1,0,0:0:0:0:
221,87,3294,1,0,0:0:0:0:
193,77,3378,2,0,P|137:78|119:81,2,42.5
314,37,3715,2,0,L|403:32,1,85
483,126,4052,6,0,L|398:121,1,85
485,26,4390,1,0,0:0:0:0:
483,126,4558,1,0,0:0:0:0:
482,155,4642,1,0,0:0:0:0:
482,185,4726,1,0,0:0:0:0:
482,215,4810,1,0,0:0:0:0:
482,244,4895,1,0,0:0:0:0:
391,333,5064,1,0,0:0:0:0:
391,333,5232,1,0,0:0:0:0:
296,292,5401,6,0,P|234:290|181:296,1,85
54,342,5738,1,0,0:0:0:0:
152,374,5906,1,0,0:0:0:0:
54,240,6075,1,0,0:0:0:0:
54,240,6159,1,0,0:0:0:0:
54,240,6243,1,0,0:0:0:0:
211,291,6412,1,0,0:0:0:0:
54,342,6581,1,0,0:0:0:0:
160,205,6749,6,0,P|174:145|181:105,1,85
86,45,7086,2,0,P|72:105|65:145,1,85
59,156,7339,1,0,0:0:0:0:
59,156,7423,2,0,P|58:206|58:216,2,42.5
178,122,7760,1,0,0:0:0:0:
86,45,7929,1,0,0:0:0:0:
160,205,8097,6,0,P|164:256|148:301,1,85
40,324,8434,1,0,0:0:0:0:
10,230,8603,1,0,0:0:0:0:
6,200,8687,1,0,0:0:0:0:
3,170,8771,1,0,0:0:0:0:
1,141,8855,1,0,0:0:0:0:
0,111,8940,1,0,0:0:0:0:
107,35,9109,2,0,P|164:26|202:27,1,85
241,115,9446,5,0,0:0:0:0:
202,210,9614,1,0,0:0:0:0:
304,195,9783,1,0,0:0:0:0:
236,108,9951,1,0,0:0:0:0:
236,108,10036,1,0,0:0:0:0:
236,108,10120,2,0,P|232:67|232:52,1,42.5
330,94,10288,1,0,0:0:0:0:
202,210,10457,2,0,P|199:278|198:323,1,85
285,348,10794,6,0,L|422:239,1,170
467,152,11300,1,0,0:0:0:0:
467,152,11384,1,0,0:0:0:0:
467,152,11468,2,0,L|468:103,2,42.5
373,110,11805,1,0,0:0:0:0:
346,76,11890,1,0,0:0:0:0:
336,34,11974,1,0,0:0:0:0:
474,67,12142,6,0,P|473:116|466:156,1,85
389,218,12479,2,0,L|360:253,1,42.5
307,352,12648,2,0,L|336:317,1,42.5
393,214,12816,2,0,L|365:246,1,42.5
311,356,12985,1,0,0:0:0:0:
254,228,13154,1,0,0:0:0:0:
254,228,13322,1,0,0:0:0:0:
133,340,13491,6,0,P|129:246|112:166,1,170
47,94,13997,1,0,0:0:0:0:
47,94,14081,1,0,0:0:0:0:
47,94,14165,2,0,L|48:45,2,42.5
140,52,14502,1,0,0:0:0:0:
179,36,14586,1,0,0:0:0:0:
220,29,14670,1,0,0:0:0:0:
288,99,14839,6,0,P|278:165|271:202,1,85
221,249,15176,2,0,L|263:273,1,42.5
200,367,15345,2,0,L|199:318,1,42.5
313,327,15513,2,0,L|271:351,1,42.5
221,249,15682,1,0,0:0:0:0:
109,290,15850,1,0,0:0:0:0:
109,290,16019,1,0,0:0:0:0:
68,178,16187,6,0,L|67:71,2,85
164,107,16693,1,0,0:0:0:0:
164,107,16777,1,0,0:0:0:0:
164,107,16861,1,0,0:0:0:0:
164,107,16946,1,0,0:0:0:0:
164,107,17030,1,0,0:0:0:0:
444,206,17536,6,0,L|445:313,2,85
348,277,18042,1,0,0:0:0:0:
348,277,18126,1,0,0:0:0:0:
348,277,18210,1,0,0:0:0:0:
348,277,18295,1,0,0:0:0:0:
348,277,18379,1,0,0:0:0:0:
284,34,18884,6,0,L|391:33,2,85
355,130,19390,1,0,0:0:0:0:
355,130,19474,1,0,0:0:0:0:
355,130,19558,1,0,0:0:0:0:
355,130,19643,1,0,0:0:0:0:
355,130,19727,1,0,0:0:0:0:
228,350,20232,6,0,L|121:351,2,85
157,254,20738,1,0,0:0:0:0:
157,254,20822,1,0,0:0:0:0:
157,254,20906,1,0,0:0:0:0:
157,254,20991,1,0,0:0:0:0:
157,254,21075,1,0,0:0:0:0:
417,141,21581,6,0,P|419:210|415:237,1,85
316,178,21918,2,0,P|312:135|316:93,1,85
316,93,22255,1,0,0:0:0:0:
416,225,22423,1,0,0:0:0:0:
251,245,22592,2,0,P|173:247|148:239,1,85
99,157,22929,6,0,L|90:60,1,85
198,19,23266,2,0,L|190:103,1,85
190,103,23603,1,0,0:0:0:0:
91,72,23772,1,0,0:0:0:0:
221,202,23940,2,0,P|288:194|325:173,1,85
349,31,24277,6,0,P|322:93|322:135,1,85
433,227,24614,2,0,P|392:172|355:151,1,85
378,163,24951,1,0,0:0:0:0:
221,202,25120,1,0,0:0:0:0:
433,227,25288,2,0,P|424:282|408:313,1,85
299,348,25625,6,0,L|184:342,1,85
128,286,25963,2,0,L|13:292,1,85
43,290,26300,1,0,0:0:0:0:
214,343,26468,1,0,0:0:0:0:
71,179,26637,2,0,P|66:113|73:63,1,85
135,40,26974,6,0,P|196:36|227:43,1,72.2500013780594
279,84,27311,1,0,0:0:0:0:
279,84,27479,1,0,0:0:0:0:
342,143,27648,2,0,B|353:196|353:196|330:358,1,216.750004134178
244,370,28322,6,0,P|183:374|152:367,1,72.2500013780594
100,326,28659,1,0,0:0:0:0:
100,326,28827,1,0,0:0:0:0:
37,267,28996,2,0,B|26:214|26:214|49:52,1,216.750004134178
131,24,29670,6,0,P|185:24|211:29,1,72.2500013780594
227,110,30007,2,0,P|262:114|298:113,1,72.2500013780594
349,41,30345,2,0,P|335:93|468:136,1,216.750004134178
420,37,31019,6,0,P|366:37|340:42,1,72.2500013780594
324,123,31356,2,0,P|288:127|252:126,1,72.2500013780594
195,50,31694,2,0,P|143:36|100:169,1,216.750004134178
141,207,32367,6,0,L|127:262,3,36.1250006890297
204,249,32704,2,0,L|190:304,3,36.1250006890297
267,291,33041,5,0,0:0:0:0:
288,294,33125,1,0,0:0:0:0:
309,298,33209,1,0,0:0:0:0:
331,301,33293,1,0,0:0:0:0:
344,331,33378,5,0,0:0:0:0:
365,328,33462,1,0,0:0:0:0:
386,324,33546,1,0,0:0:0:0:
408,321,33630,1,0,0:0:0:0:
421,292,33715,6,0,L|435:237,3,36.1250006890297
358,250,34052,2,0,L|372:195,3,36.1250006890297
295,208,34390,5,0,0:0:0:0:
273,204,34474,1,0,0:0:0:0:
252,200,34558,1,0,0:0:0:0:
230,197,34642,1,0,0:0:0:0:
228,167,34727,5,0,0:0:0:0:
207,164,34811,1,0,0:0:0:0:
186,160,34895,1,0,0:0:0:0:
164,157,34979,1,0,0:0:0:0:
153,130,35064,5,0,0:0:0:0:
118,139,35148,1,0,0:0:0:0:
90,161,35232,1,0,0:0:0:0:
75,194,35316,1,0,0:0:0:0:
75,230,35401,2,0,L|77:276,3,36.1250006890297
147,285,35738,2,0,L|148:330,3,36.1250006890297
218,339,36075,2,0,L|219:384,3,36.1250006890297
285,313,36412,5,0,0:0:0:0:
319,304,36496,1,0,0:0:0:0:
347,281,36580,1,0,0:0:0:0:
362,248,36664,1,0,0:0:0:0:
362,213,36749,2,0,L|360:167,3,36.1250006890297
291,158,37086,2,0,L|289:112,3,36.1250006890297
220,104,37423,2,0,L|218:58,3,36.1250006890297
142,73,37760,5,0,0:0:0:0:
135,108,37844,1,0,0:0:0:0:
128,143,37928,1,0,0:0:0:0:
121,179,38012,1,0,0:0:0:0:
115,214,38097,2,0,L|108:256,1,36.1250006890297
185,251,38266,2,0,L|176:301,1,36.1250006890297
236,335,38434,5,0,0:0:0:0:
271,328,38518,1,0,0:0:0:0:
307,322,38602,1,0,0:0:0:0:
342,315,38686,1,0,0:0:0:0:
377,308,38772,2,0,L|365:255,1,36.1250006890297
445,272,38940,2,0,L|433:219,1,36.1250006890297
358,199,39109,6,0,L|370:146,1,36.1250006890297
290,163,39277,2,0,L|302:110,1,36.1250006890297
222,127,39446,2,0,L|234:74,1,36.1250006890297
154,91,39614,2,0,L|166:38,1,36.1250006890297
40,100,39783,6,0,L|93:88,1,36.1250006890297
76,168,39951,2,0,L|129:156,1,36.1250006890297
112,236,40120,2,0,L|165:224,1,36.1250006890297
148,304,40288,2,0,L|201:292,1,36.1250006890297
260,344,40457,5,0,0:0:0:0:
282,316,40541,1,0,0:0:0:0:
305,288,40625,1,0,0:0:0:0:
327,259,40709,1,0,0:0:0:0:
396,255,40794,5,0,0:0:0:0:
383,221,40878,1,0,0:0:0:0:
370,187,40962,1,0,0:0:0:0:
356,153,41046,1,0,0:0:0:0:
348,87,41131,5,0,0:0:0:0:
314,100,41215,1,0,0:0:0:0:
280,113,41299,1,0,0:0:0:0:
246,127,41383,1,0,0:0:0:0:
244,54,41468,5,0,0:0:0:0:
278,40,41552,1,0,0:0:0:0:
312,27,41636,1,0,0:0:0:0:
346,17,41720,1,0,0:0:0:0:
411,49,41805,5,0,0:0:0:0:
96,256,43154,6,0,P|136:256|192:272,1,85
320,368,43491,1,0,0:0:0:0:
295,271,43659,1,0,0:0:0:0:
298,255,43743,1,0,0:0:0:0:
301,244,43828,1,0,0:0:0:0:
230,340,43996,1,0,0:0:0:0:
408,302,44165,2,0,P|452:296|496:300,1,85
320,368,44502,5,0,0:0:0:0:
364,244,44670,1,0,0:0:0:0:
205,309,44839,2,0,P|164:320|112:324,1,85
108,320,45092,1,0,0:0:0:0:
96,312,45176,1,0,0:0:0:0:
88,304,45260,1,0,0:0:0:0:
80,292,45345,1,0,0:0:0:0:
168,212,45513,1,0,0:0:0:0:
251,370,45682,1,0,0:0:0:0:
367,271,45850,6,0,P|429:265|490:278,1,85
316,332,46187,1,0,0:0:0:0:
387,193,46356,1,0,0:0:0:0:
385,180,46440,1,0,0:0:0:0:
384,168,46524,1,0,0:0:0:0:
382,155,46609,1,0,0:0:0:0:
380,142,46693,1,0,0:0:0:0:
460,228,46861,1,0,0:0:0:0:
360,288,47030,1,0,0:0:0:0:
190,192,47199,6,0,P|145:207|103:229,1,85
260,236,47536,1,0,0:0:0:0:
228,124,47704,1,0,0:0:0:0:
230,111,47788,1,0,0:0:0:0:
232,98,47873,1,0,0:0:0:0:
236,84,47957,1,0,0:0:0:0:
239,71,48041,1,0,0:0:0:0:
165,187,48210,1,0,0:0:0:0:
316,156,48378,1,0,0:0:0:0:
260,315,48547,6,0,P|314:330|356:328,1,85
234,234,48884,1,0,0:0:0:0:
180,352,49052,1,0,0:0:0:0:
180,352,49137,1,0,0:0:0:0:
180,352,49221,1,0,0:0:0:0:
180,352,49305,1,0,0:0:0:0:
180,352,49390,1,0,0:0:0:0:
112,256,49558,1,0,0:0:0:0:
44,356,49727,1,0,0:0:0:0:
39,167,49895,6,0,P|23:130|17:64,1,85
233,23,50232,2,0,P|220:68|200:104,1,85
184,108,50485,1,0,0:0:0:0:
168,108,50569,1,0,0:0:0:0:
152,104,50654,1,0,0:0:0:0:
140,92,50738,1,0,0:0:0:0:
300,68,50906,1,0,0:0:0:0:
270,196,51075,1,0,0:0:0:0:
425,118,51243,6,0,P|469:108|516:106,1,85
369,196,51581,1,0,0:0:0:0:
376,52,51749,1,0,0:0:0:0:
376,52,51833,1,0,0:0:0:0:
376,52,51918,1,0,0:0:0:0:
376,52,52002,1,0,0:0:0:0:
376,52,52086,1,0,0:0:0:0:
268,128,52255,2,0,L|176:124,1,85
263,239,52592,6,0,P|328:224|432:232,1,170
368,364,53097,1,0,0:0:0:0:
359,347,53182,1,0,0:0:0:0:
351,331,53266,1,0,0:0:0:0:
343,315,53350,1,0,0:0:0:0:
335,299,53434,1,0,0:0:0:0:
439,148,53603,2,0,P|441:179|429:234,1,85
313,104,53940,6,0,P|303:55|302:16,1,85
346,173,54277,1,0,0:0:0:0:
237,148,54446,1,0,0:0:0:0:
220,152,54530,1,0,0:0:0:0:
204,156,54614,1,0,0:0:0:0:
188,160,54699,1,0,0:0:0:0:
172,168,54783,2,0,L|112:160,1,42.5
181,250,54951,2,0,L|132:240,1,42.5
197,334,55120,2,0,L|148:328,1,42.5
275,377,55288,6,0,P|308:356|376:344,1,85
507,361,55625,1,0,0:0:0:0:
471,236,55794,1,0,0:0:0:0:
420,321,55963,1,0,0:0:0:0:
416,312,56047,1,0,0:0:0:0:
413,305,56131,2,0,L|461:309,1,42.5
354,234,56300,2,0,L|400:240,1,42.5
311,158,56468,2,0,L|356:164,1,42.5
238,193,56637,6,0,P|208:240|176:280,1,85
185,111,56974,2,0,P|212:72|240:40,1,85
126,176,57311,2,0,P|112:148|104:128,1,42.5
111,253,57479,2,0,P|93:279|80:296,1,42.5
184,232,57648,2,0,P|215:233|236:236,1,42.5
301,273,57816,2,0,P|328:276|352:280,1,42.5
411,242,57985,5,0,0:0:0:0:
268,349,58154,1,0,0:0:0:0:
322,199,58322,1,0,0:0:0:0:
220,248,58491,1,0,0:0:0:0:
204,244,58575,1,0,0:0:0:0:
188,236,58659,1,0,0:0:0:0:
176,224,58743,1,0,0:0:0:0:
168,208,58828,1,0,0:0:0:0:
192,88,58996,1,0,0:0:0:0:
284,192,59165,1,0,0:0:0:0:
118,301,59333,6,0,P|76:292|20:288,1,85
0,151,59670,2,0,P|42:154|84:150,1,85
96,140,59923,1,0,0:0:0:0:
104,124,60007,1,0,0:0:0:0:
112,108,60092,1,0,0:0:0:0:
112,92,60176,1,0,0:0:0:0:
39,237,60345,2,0,P|52:256|68:288,1,42.5
137,343,60513,2,0,P|156:316|172:300,1,42.5
262,239,60682,6,0,P|284:272|336:312,1,85
317,153,61019,1,0,0:0:0:0:
196,196,61187,1,0,0:0:0:0:
180,192,61272,1,0,0:0:0:0:
164,188,61356,2,0,L|152:144,1,42.5
94,238,61524,2,0,L|95:180,1,42.5
17,278,61693,2,0,L|25:230,1,42.5
71,345,61861,1,0,0:0:0:0:
71,345,61946,1,0,0:0:0:0:
71,345,62030,6,0,P|112:336|164:344,1,85
320,361,62367,2,0,P|272:368|228:360,1,85
232,348,62620,1,0,0:0:0:0:
232,332,62704,1,0,0:0:0:0:
232,316,62788,1,0,0:0:0:0:
236,300,62873,1,0,0:0:0:0:
244,284,62957,1,0,0:0:0:0:
248,268,63041,1,0,0:0:0:0:
248,252,63125,1,0,0:0:0:0:
248,236,63210,1,0,0:0:0:0:
244,220,63294,1,0,0:0:0:0:
240,204,63378,5,0,0:0:0:0:
260,88,63547,1,0,0:0:0:0:
131,186,63715,1,0,0:0:0:0:
317,164,63884,1,0,0:0:0:0:
322,177,63968,1,0,0:0:0:0:
326,189,64052,1,0,0:0:0:0:
330,201,64137,1,0,0:0:0:0:
334,213,64221,1,0,0:0:0:0:
405,110,64390,2,0,P|409:73|409:19,1,85
211,35,64727,5,0,0:0:0:0:
195,42,64811,1,0,0:0:0:0:
182,53,64895,1,0,0:0:0:0:
172,67,64979,1,0,0:0:0:0:
165,82,65064,1,0,0:0:0:0:
161,98,65148,1,0,0:0:0:0:
159,115,65232,1,0,0:0:0:0:
161,132,65316,1,0,0:0:0:0:
166,149,65401,1,0,0:0:0:0:
172,164,65485,1,0,0:0:0:0:
181,179,65569,1,0,0:0:0:0:
193,191,65653,1,0,0:0:0:0:
205,202,65738,1,0,0:0:0:0:
220,211,65822,1,0,0:0:0:0:
235,218,65906,1,0,0:0:0:0:
252,222,65991,1,0,0:0:0:0:
269,222,66075,5,0,0:0:0:0:
286,219,66159,1,0,0:0:0:0:
301,213,66243,1,0,0:0:0:0:
315,203,66328,1,0,0:0:0:0:
327,191,66412,1,0,0:0:0:0:
336,177,66496,1,0,0:0:0:0:
343,161,66580,1,0,0:0:0:0:
346,145,66665,1,0,0:0:0:0:
347,128,66749,1,0,0:0:0:0:
345,111,66833,1,0,0:0:0:0:
339,95,66918,1,0,0:0:0:0:
328,82,67002,1,0,0:0:0:0:
312,76,67086,1,0,0:0:0:0:
296,78,67170,1,0,0:0:0:0:
282,88,67255,1,0,0:0:0:0:
270,101,67339,1,0,0:0:0:0:
268,112,67423,6,0,P|272:140|280:168,3,42.5
296,192,67760,2,0,P|304:208|312:244,3,42.5
296,272,68097,2,0,P|280:288|248:312,3,42.5
223,307,68434,2,0,P|200:304|168:292,3,42.5
142,283,68772,6,0,P|118:270|94:258,1,42.5
55,199,68940,2,0,P|91:188|111:180,1,42.5
149,147,69109,2,0,P|165:133|185:108,1,42.5
204,53,69277,2,0,P|202:28|197:5,1,42.5
267,112,69446,1,0,0:0:0:0:
282,105,69530,1,0,0:0:0:0:
299,101,69614,1,0,0:0:0:0:
316,100,69698,1,0,0:0:0:0:
332,101,69783,1,0,0:0:0:0:
349,105,69867,1,0,0:0:0:0:
364,112,69951,1,0,0:0:0:0:
379,121,70035,1,0,0:0:0:0:
388,132,70120,6,0,P|400:176|400:224,1,85
412,66,70457,1,0,0:0:0:0:
310,191,70625,1,0,0:0:0:0:
296,189,70710,1,0,0:0:0:0:
284,189,70794,1,0,0:0:0:0:
273,187,70878,1,0,0:0:0:0:
263,186,70963,1,0,0:0:0:0:
168,116,71131,1,0,0:0:0:0:
252,320,71468,5,0,0:0:0:0:
192,240,71637,1,0,0:0:0:0:
136,360,71805,2,0,P|103:364|51:360,1,72.2500013780594
52,352,72058,1,0,0:0:0:0:
44,340,72142,1,0,0:0:0:0:
40,328,72227,1,0,0:0:0:0:
36,316,72311,1,0,0:0:0:0:
180,268,72816,6,0,L|171:362,1,72.2500013780594
223,203,73154,1,0,0:0:0:0:
129,202,73322,1,0,0:0:0:0:
129,202,73406,1,0,0:0:0:0:
129,202,73491,1,0,0:0:0:0:
129,202,73575,1,0,0:0:0:0:
129,202,73659,1,0,0:0:0:0:
81,119,73828,1,0,0:0:0:0:
48,325,74165,5,0,0:0:0:0:
20,228,74333,1,0,0:0:0:0:
145,368,74502,2,0,P|192:360|224:360,1,72.2500013780594
232,364,74755,1,0,0:0:0:0:
248,364,74839,1,0,0:0:0:0:
264,368,74923,1,0,0:0:0:0:
280,372,75007,2,0,L|376:372,1,72.2500013780594
444,84,75513,6,0,L|348:88,1,72.2500013780594
280,208,75850,1,0,0:0:0:0:
294,209,75934,1,0,0:0:0:0:
308,210,76018,1,0,0:0:0:0:
323,211,76102,1,0,0:0:0:0:
337,213,76187,1,0,0:0:0:0:
351,214,76271,1,0,0:0:0:0:
366,215,76355,1,0,0:0:0:0:
380,217,76439,1,0,0:0:0:0:
395,218,76524,1,0,0:0:0:0:
409,219,76608,1,0,0:0:0:0:
423,221,76692,1,0,0:0:0:0:
438,222,76776,1,0,0:0:0:0:
452,224,76861,5,0,0:0:0:0:
412,140,77030,1,0,0:0:0:0:
300,280,77199,2,0,P|280:256|264:240,1,36.1250006890297
233,190,77367,2,0,P|213:214|197:230,1,36.1250006890297
142,262,77536,2,0,P|132:232|124:208,1,36.1250006890297
68,179,77704,2,0,P|59:210|47:230,1,36.1250006890297
10,277,77873,1,0,0:0:0:0:
16,292,77957,1,0,0:0:0:0:
24,304,78041,1,0,0:0:0:0:
32,316,78125,1,0,0:0:0:0:
52,336,78210,5,0,0:0:0:0:
76,320,78294,1,0,0:0:0:0:
104,344,78378,1,0,0:0:0:0:
130,369,78463,1,0,0:0:0:0:
172,360,78547,1,0,0:0:0:0:
204,332,78631,1,0,0:0:0:0:
228,296,78715,1,0,0:0:0:0:
248,256,78800,1,0,0:0:0:0:
276,296,78884,1,0,0:0:0:0:
316,328,78968,1,0,0:0:0:0:
360,352,79052,1,0,0:0:0:0:
408,364,79137,1,0,0:0:0:0:
459,362,79221,2,0,P|499:354|523:350,1,36.1250006890297
423,279,79389,2,0,P|396:260|380:248,1,36.1250006890297
493,197,79558,5,0,0:0:0:0:
493,197,79895,1,0,0:0:0:0:
493,197,80232,1,0,0:0:0:0:
493,197,80569,1,0,0:0:0:0:
493,197,80906,5,0,0:0:0:0:
8,100,85580,6,0,B|88:100|88:100|92:96|92:96|96:100|96:100|188:100,1,170
174,100,87030,2,0,B|190:152|190:152|182:276,1,170
182,267,88479,2,0,B|210:283|222:327|222:327|274:291|326:291,1,170
310,291,89929,2,0,B|381:255|393:219|421:127|388:56|292:56|288:128,1,318.75
292,109,91378,6,0,B|248:104|248:104|184:112|184:112|168:92|116:80,1,170
131,84,92828,2,0,P|175:48|291:64,1,170
282,57,94277,2,0,B|264:101|285:135|285:135|276:147|276:147|298:184|275:227,1,170
279,217,95727,6,0,P|225:243|153:252,1,127.500004863739
109,134,96452,2,0,P|163:108|235:99,1,127.500004863739
279,217,97177,2,0,P|225:243|153:252,1,127.500004863739
356,115,97901,5,0,0:0:0:0:
279,217,98083,1,0,0:0:0:0:
229,98,98264,1,0,0:0:0:0:
229,98,98626,6,0,B|195:132|195:132|181:218,1,127.500004863739
295,151,99351,2,0,P|311:79|277:29,1,127.500004863739
182,210,100076,1,0,0:0:0:0:
229,98,100438,1,0,0:0:0:0:
255,306,100800,5,0,0:0:0:0:
61,224,100982,1,0,0:0:0:0:
255,306,101163,1,0,0:0:0:0:
70,103,101525,6,0,B|73:155|53:174|53:174|46:205|67:232,1,127.500004863739
153,313,102250,2,0,P|226:272|298:263,1,127.500004863739
185,152,102975,2,0,P|123:136|69:102,1,127.500004863739
329,103,103700,5,0,0:0:0:0:
268,263,103881,1,0,0:0:0:0:
185,152,104062,1,0,0:0:0:0:
412,214,104424,5,0,0:0:0:0:
185,152,104787,1,0,0:0:0:0:
412,214,105149,1,0,0:0:0:0:
185,276,105512,1,0,0:0:0:0:
360,154,105874,2,0,P|333:220|370:281,1,127.500004863739
185,152,106599,5,0,0:0:0:0:
412,214,106780,1,0,0:0:0:0:
185,276,106961,1,0,0:0:0:0:
40,48,107324,6,0,B|81:33|81:33|181:35,2,127.500004863739
10,172,108411,1,0,0:0:0:0:
122,231,108773,2,0,P|176:237|271:204,1,127.500004863739
337,309,109498,5,0,0:0:0:0:
246,218,109679,1,0,0:0:0:0:
337,128,109860,1,0,0:0:0:0:
155,308,110223,5,0,0:0:0:0:
428,219,110585,1,0,0:0:0:0:
66,35,110947,1,0,0:0:0:0:
155,308,111309,1,0,0:0:0:0:
331,233,111672,2,0,B|350:183|350:183|347:95,1,127.500004863739
243,35,112397,5,0,0:0:0:0:
331,233,112578,1,0,0:0:0:0:
331,233,112759,1,0,0:0:0:0:
231,312,113122,6,0,B|176:294|149:344|96:314,1,127.500004863739
30,216,113847,2,0,P|36:141|57:79,1,127.500004863739
51,91,114571,1,0,0:0:0:0:
305,69,114934,1,0,0:0:0:0:
51,91,115296,5,0,0:0:0:0:
178,80,115477,1,0,0:0:0:0:
305,69,115659,1,0,0:0:0:0:
305,69,116021,6,0,P|305:138|315:201,1,127.500004863739
191,158,116746,2,0,P|191:221|182:284,1,127.500004863739
80,208,117470,1,0,0:0:0:0:
302,108,117833,1,0,0:0:0:0:
402,330,118195,1,0,0:0:0:0:
435,181,118376,1,0,0:0:0:0:
268,256,118558,1,0,0:0:0:0:
0,0,118920,5,0,0:0:0:0:
0,210,119282,1,0,0:0:0:0:
278,101,119645,1,0,0:0:0:0:
68,101,120007,1,0,0:0:0:0:
177,379,120370,1,0,0:0:0:0:
177,169,120732,1,0,0:0:0:0:
366,243,121094,5,0,0:0:0:0:
310,106,121276,1,0,0:0:0:0:
177,169,121457,1,0,0:0:0:0:
366,243,121819,6,0,B|401:200|401:200|471:161,1,127.500004863739
344,331,122544,2,0,B|301:296|301:296|262:226,1,127.500004863739
150,179,123269,2,0,P|145:266|133:314,1,127.500004863739
317,134,123994,5,0,0:0:0:0:
150,179,124175,1,0,0:0:0:0:
317,134,124356,1,0,0:0:0:0:
150,179,124718,6,0,L|140:323,2,127.500004863739
317,134,125805,1,0,0:0:0:0:
355,255,126168,2,0,P|443:209|505:222,1,127.500004863739
314,344,126893,5,0,0:0:0:0:
214,323,127074,1,0,0:0:0:0:
144,248,127255,1,0,0:0:0:0:
314,216,127617,6,0,L|313:362,1,127.500004863739
228,89,128342,2,0,L|227:235,1,127.500004863739
99,321,129067,2,0,P|197:300|264:307,1,127.500004863739
68,90,129792,6,0,P|48:162|48:178,1,63.7500024318696
48,255,130154,1,0,0:0:0:0:
230,163,130517,6,0,B|300:152|300:152|380:164,1,127.500004863739
223,315,131241,2,0,B|176:302|176:302|113:242,1,127.500004863739
356,160,131966,2,0,B|298:214|298:214|251:227,1,127.500004863739
165,80,132691,1,0,0:0:0:0:
118,247,132872,1,0,0:0:0:0:
118,247,133053,1,0,0:0:0:0:
296,178,133416,6,0,P|367:168|440:174,1,127.500004863739
345,357,134140,2,0,P|416:347|489:353,1,127.500004863739
208,253,134865,2,0,L|217:113,1,127.500004863739
367,101,135590,6,0,P|383:39|383:16,2,63.7500024318696
244,193,136315,2,0,P|181:194|114:168,1,127.500004863739
193,307,137040,2,0,P|252:285|316:286,1,127.500004863739
508,368,137764,6,0,P|464:348|404:296,1,127.500004863739
372,92,138489,1,0,0:0:0:0:
372,92,138670,1,0,0:0:0:0:
372,92,138852,1,0,0:0:0:0:
248,180,139214,1,0,0:0:0:0:
252,28,139576,1,0,0:0:0:0:
336,156,139939,2,0,P|328:200|300:240,1,63.7500024318696
256,260,140301,2,0,P|212:252|180:236,1,63.7500024318696
116,193,140664,6,0,L|128:329,1,127.500004863739
48,128,141388,2,0,L|36:228,1,63.7500024318696
28,268,141751,1,0,0:0:0:0:
152,116,142113,2,0,P|136:72|48:24,1,127.500004863739
20,184,142838,1,0,0:0:0:0:
100,332,143200,2,0,P|116:312|132:272,1,63.7500024318696
196,236,143563,6,0,P|228:276|252:360,1,127.500004863739
120,184,144287,2,0,P|156:160|196:148,1,63.7500024318696
248,172,144650,1,0,0:0:0:0:
32,232,145012,2,0,L|48:96,1,127.500004863739
180,32,145737,2,0,L|164:180,1,127.500004863739
260,280,146462,6,0,P|292:256|320:224,1,63.7500024318696
384,240,146824,2,0,P|408:264|424:300,1,63.7500024318696
328,380,147187,1,0,0:0:0:0:
328,380,147368,1,0,0:0:0:0:
328,380,147549,1,0,0:0:0:0:
368,152,147911,6,0,P|408:132|496:136,1,127.500004863739
355,293,148636,2,0,L|347:217,1,63.7500024318696
288,180,148998,2,0,L|272:252,1,63.7500024318696
212,288,149361,6,0,P|168:304|72:292,1,127.500004863739
296,304,150086,2,0,P|308:332|316:376,2,63.7500024318696
352,164,150810,2,0,P|372:208|368:312,1,127.500004863739
252,196,151535,2,0,P|268:164|272:124,1,63.7500024318696
244,64,151898,1,0,0:0:0:0:
148,184,152260,6,0,L|160:264,1,63.7500024318696
172,324,152622,1,0,0:0:0:0:
72,208,152985,1,0,0:0:0:0:
148,184,153166,1,0,0:0:0:0:
220,160,153347,1,0,0:0:0:0:
68,128,153710,5,0,0:0:0:0:
120,272,154072,1,0,0:0:0:0:
220,160,154434,2,0,L|296:168,1,63.7500024318696
332,104,154797,1,0,0:0:0:0:
180,80,155159,6,0,P|132:132|144:204,1,127.500004863739
240,296,155884,2,0,L|324:284,1,63.7500024318696
348,228,156246,1,0,0:0:0:0:
160,344,156609,6,0,L|172:208,1,127.500004863739
48,128,157333,2,0,L|36:276,1,127.500004863739
140,140,158058,6,0,L|132:68,1,63.7500024318696
180,16,158421,1,0,0:0:0:0:
68,120,158783,1,0,0:0:0:0:
140,140,158964,1,0,0:0:0:0:
216,156,159145,2,0,L|228:236,1,63.7500024318696
200,316,159508,6,0,P|260:300|328:324,1,127.500004863739
408,192,160233,2,0,P|360:204|328:208,1,63.7500024318696
280,168,160595,1,0,0:0:0:0:
488,136,160957,6,0,L|472:288,1,127.500004863739
292,360,161682,1,0,0:0:0:0:
276,284,161863,1,0,0:0:0:0:
260,208,162045,1,0,0:0:0:0:
124,276,162407,6,0,P|128:348|208:336,1,127.500004863739
23,225,163132,2,0,P|-1:281|11:373,1,127.500004863739
123,171,163857,6,0,P|92:148|-12:128,1,127.500004863739
216,160,164581,2,0,P|234:135|254:95,1,63.7500024318696
252,28,164944,1,0,0:0:0:0:
135,248,165306,6,0,L|279:232,1,127.500004863739
152,340,166031,2,0,P|120:336|72:308,1,63.7500024318696
48,260,166393,1,0,0:0:0:0:
238,321,166756,6,0,L|380:304,1,127.500004863739
248,208,167480,2,0,P|220:228|176:248,1,63.7500024318696
124,208,167843,1,0,0:0:0:0:
326,152,168205,6,0,L|313:298,1,127.500004863739
456,336,168930,2,0,P|436:304|424:260,1,63.7500024318696
432,204,169292,1,0,0:0:0:0:
292,268,169655,6,0,L|136:252,1,127.500004863739
52,152,170380,2,0,P|40:128|28:76,1,63.7500024318696
68,24,170742,1,0,0:0:0:0:
132,208,171104,5,0,0:0:0:0:
160,178,172554,5,0,0:0:0:0:
259,142,173279,1,0,0:0:0:0:
360,108,174003,1,0,0:0:0:0:
463,78,174728,1,0,0:0:0:0:
256,192,175453,12,0,176903,0:0:0:0:
57,248,179718,5,0,0:0:0:0:
195,97,180075,1,0,0:0:0:0:
346,235,180432,2,0,P|327:279|322:287,1,42.5
254,312,180610,1,0,0:0:0:0:
333,158,180789,2,0,P|387:168|418:205,1,85
453,249,181057,1,0,0:0:0:0:
453,249,181146,5,0,0:0:0:0:
485,47,181503,1,0,0:0:0:0:
283,15,181860,2,0,P|230:32|225:36,1,42.5
197,97,182039,1,0,0:0:0:0:
263,215,182218,2,0,L|362:218,1,85
425,219,182485,1,0,0:0:0:0:
425,219,182575,6,0,B|432:152|432:152|418:40,1,170
217,77,183289,2,0,P|190:136|190:152,1,42.5
229,191,183468,1,0,0:0:0:0:
108,71,183646,2,0,B|100:108|100:108|103:183,1,85
115,230,183914,1,0,0:0:0:0:
115,230,184003,6,0,B|100:285|69:312|69:312|123:297|181:302,1,170
24,134,184718,2,0,P|26:76|27:70,1,42.5
87,35,184896,1,0,0:0:0:0:
141,139,185075,2,0,P|214:135|262:132,1,85
302,131,185343,1,0,0:0:0:0:
302,131,185432,5,0,0:0:0:0:
243,326,185789,1,0,0:0:0:0:
302,131,186146,2,0,P|325:88|338:77,1,42.5
389,42,186325,1,0,0:0:0:0:
457,148,186503,1,0,0:0:0:0:
389,254,186682,1,0,0:0:0:0:
389,254,186771,1,0,0:0:0:0:
389,254,186860,6,0,P|316:266|261:347,2,170
462,297,187664,1,0,0:0:0:0:
462,297,187753,2,0,P|463:228|467:189,1,85
489,104,188110,1,0,0:0:0:0:
490,99,188200,1,0,0:0:0:0:
491,94,188289,6,0,B|429:91|429:91|306:108,1,170
179,251,189003,2,0,P|178:202|178:196,1,42.5
201,126,189182,1,0,0:0:0:0:
269,275,189360,2,0,P|235:326|197:342,1,85
142,363,189628,1,0,0:0:0:0:
142,363,189718,6,0,B|112:322|72:319|72:319|80:273|52:224,2,170
217,375,190521,1,0,0:0:0:0:
217,375,190610,1,0,0:0:0:0:
294,242,190789,1,0,0:0:0:0:
161,165,190968,1,0,0:0:0:0:
161,165,191057,1,0,0:0:0:0:
161,165,191146,6,0,P|164:118|228:3,1,170
348,131,191860,2,0,P|343:186|341:198,1,42.5
294,242,192039,1,0,0:0:0:0:
177,189,192218,6,0,P|172:97|171:66,1,85
124,44,192485,1,0,0:0:0:0:
124,44,192575,6,0,P|79:52|69:58,1,42.5
44,116,192753,1,0,0:0:0:0:
42,128,192842,1,0,0:0:0:0:
40,141,192931,1,0,0:0:0:0:
38,153,193020,1,0,0:0:0:0:
36,166,193110,1,0,0:0:0:0:
34,179,193199,1,0,0:0:0:0:
32,191,193289,6,0,L|79:216,1,42.5
122,266,193468,1,0,0:0:0:0:
124,278,193557,1,0,0:0:0:0:
126,291,193646,1,0,0:0:0:0:
128,303,193735,1,0,0:0:0:0:
130,316,193825,1,0,0:0:0:0:
132,329,193914,1,0,0:0:0:0:
134,342,194003,6,0,L|96:322,1,42.5
41,267,194182,1,0,0:0:0:0:
43,255,194271,1,0,0:0:0:0:
45,242,194360,1,0,0:0:0:0:
47,230,194449,1,0,0:0:0:0:
49,217,194539,1,0,0:0:0:0:
51,204,194628,1,0,0:0:0:0:
53,191,194717,6,0,L|46:134,1,42.5
106,20,194896,1,0,0:0:0:0:
159,191,195075,2,0,L|166:134,1,42.5
106,20,195254,1,0,0:0:0:0:
183,69,196860,5,0,0:0:0:0:
244,105,196950,2,0,P|259:158|237:224,1,101.999996887207
199,254,197218,2,0,B|137:254|137:254|112:270|112:270|48:272,1,152.999995330811
62,180,197575,2,0,L|117:178,1,50.9999984436036
187,345,197753,1,0,0:0:0:0:
250,202,197932,1,0,0:0:0:0:
350,273,198110,1,0,0:0:0:0:
354,277,198200,1,0,0:0:0:0:
358,281,198289,5,0,0:0:0:0:
397,215,198378,2,0,B|405:177|405:177|399:103,1,101.999996887207
333,75,198646,2,0,P|284:98|317:25,1,152.999995330811
197,115,199003,2,0,P|184:84|183:58,1,50.9999984436036
414,65,199182,1,0,0:0:0:0:
295,194,199360,1,0,0:0:0:0:
99,194,199539,1,0,0:0:0:0:
87,203,199628,1,0,0:0:0:0:
75,212,199718,5,0,0:0:0:0:
31,149,199807,2,0,B|28:125|28:125|32:39,1,101.999996887207
98,8,200075,2,0,B|123:9|138:-1|138:-1|110:50|132:132,1,152.999995330811
178,164,200432,2,0,P|231:163|260:158,1,50.9999984436036
310,98,200610,1,0,0:0:0:0:
191,260,200789,1,0,0:0:0:0:
296,319,200968,2,0,P|321:320|347:319,1,50.9999984436036
415,266,201146,5,0,0:0:0:0:
467,217,201235,2,0,P|483:177|471:81,1,101.999996887207
363,79,201503,2,0,B|378:114|378:114|439:80|421:-3,1,152.999995330811
324,161,201860,2,0,P|377:185|391:184,1,50.9999984436036
354,7,202039,1,0,0:0:0:0:
467,217,202218,1,0,0:0:0:0:
245,112,202396,1,0,0:0:0:0:
244,113,202485,1,0,0:0:0:0:
243,114,202575,5,0,0:0:0:0:
192,170,202664,2,0,P|179:218|196:265,1,101.999996887207
262,215,202932,2,0,B|276:242|276:242|263:375,1,152.999995330811
341,359,203289,2,0,L|346:309,1,50.9999984436036
196,265,203468,1,0,0:0:0:0:
406,248,203646,1,0,0:0:0:0:
467,38,203825,1,0,0:0:0:0:
471,32,203914,1,0,0:0:0:0:
475,26,204003,5,0,0:0:0:0:
403,7,204093,2,0,B|352:-2|352:-2|288:7,1,101.999996887207
228,117,204360,2,0,P|286:135|344:54,1,152.999995330811
175,58,204718,1,0,0:0:0:0:
150,101,204807,1,0,0:0:0:0:
156,151,204896,1,0,0:0:0:0:
265,258,205075,1,0,0:0:0:0:
156,361,205253,1,0,0:0:0:0:
156,363,205343,1,0,0:0:0:0:
156,365,205432,5,0,0:0:0:0:
231,378,205521,2,0,P|288:377|355:359,1,101.999996887207
398,344,205789,6,0,P|405:306|394:342,1,95.6250036478044
495,334,206146,6,0,P|489:292|478:264,1,50.9999984436036
359,243,206325,1,0,0:0:0:0:
467,159,206503,1,0,0:0:0:0:
313,122,206682,1,0,0:0:0:0:
309,122,206771,1,0,0:0:0:0:
305,122,206860,5,0,0:0:0:0:
276,56,206950,6,0,B|272:20|236:0|188:60|252:192,2,178.499994552612
279,208,207575,6,0,P|219:220|207:216,1,50.9999984436036
347,63,207753,1,0,0:0:0:0:
377,219,207932,1,0,0:0:0:0:
250,312,208110,1,0,0:0:0:0:
250,312,208200,1,0,0:0:0:0:
250,312,208289,5,0,0:0:0:0:
176,292,208378,2,0,P|118:304|86:354,1,101.999996887207
7,238,208646,2,0,B|23:267|45:267|45:267|73:215|48:161,1,152.999995330811
8,80,209003,2,0,P|5:35|6:25,1,50.9999984436036
134,171,209182,1,0,0:0:0:0:
7,238,209360,1,0,0:0:0:0:
93,102,209539,2,0,P|152:94|166:100,1,50.9999984436036
205,136,209718,5,0,0:0:0:0:
272,98,209807,6,0,B|291:143|291:143|273:176|273:176|310:224|278:274,2,178.499994552612
360,183,210432,6,0,P|366:244|364:256,1,50.9999984436036
208,280,210610,1,0,0:0:0:0:
358,106,210789,1,0,0:0:0:0:
453,240,210968,1,0,0:0:0:0:
453,244,211057,1,0,0:0:0:0:
453,248,211146,5,0,0:0:0:0:
426,319,211235,2,0,P|379:345|320:341,1,101.999996887207
272,295,211503,2,0,B|236:274|236:274|105:305,1,152.999995330811
55,327,211860,2,0,P|54:269|60:253,1,50.9999984436036
149,144,212039,1,0,0:0:0:0:
222,351,212218,1,0,0:0:0:0:
51,174,212396,1,0,0:0:0:0:
49,172,212485,1,0,0:0:0:0:
47,170,212575,5,0,0:0:0:0:
64,94,212664,6,0,B|106:61|110:14|110:14|120:62|170:75,2,178.499994552612,0|0|0,0:3|0:3|0:3,0:3:0:0:
45,167,213289,6,0,P|47:232|48:239,1,59.4999981842042
104,324,213468,1,0,0:0:0:0:
236,244,213646,1,0,0:0:0:0:
293,341,213825,1,0,0:0:0:0:
293,341,213914,1,0,0:0:0:0:
293,341,214003,6,0,B|335:349|335:349|496:305,1,203.999993774414
490,306,214718,2,0,P|495:261|496:237,1,50.9999984436036
467,141,214896,1,0,0:0:0:0:
293,341,215075,2,0,P|235:332|184:297,1,101.999996887207
163,247,215343,1,0,0:0:0:0:
163,247,215432,6,0,B|173:176|173:176|155:121|155:121|165:39,1,203.999993774414
164,47,216146,2,0,P|133:98|124:115,1,50.9999984436036
87,195,216325,1,0,0:0:0:0:
273,91,216503,2,0,B|309:75|309:75|386:75,1,101.999996887207
440,96,216771,1,0,0:0:0:0:
440,96,216860,6,0,B|428:123|424:161|443:180|461:200|461:200|471:269|408:298,1,203.999993774414
434,281,217575,2,0,P|372:267|365:260,1,50.9999984436036
510,137,217753,1,0,0:0:0:0:
327,220,217932,2,0,P|280:243|221:311,1,101.999996887207
193,327,218200,1,0,0:0:0:0:
193,327,218289,6,0,P|118:315|130:182,1,203.999993774414
104,204,219003,2,0,P|104:151|100:140,1,50.9999984436036
32,80,219182,1,0,0:0:0:0:
178,37,219360,2,0,P|209:84|220:159,1,101.999996887207
202,202,219628,1,0,0:0:0:0:
202,202,219718,6,0,B|175:226|184:249|184:249|291:272|310:138,1,203.999993774414
300,182,220432,2,0,P|303:251|300:264,1,50.9999984436036
266,298,220610,1,0,0:0:0:0:
393,147,220789,2,0,P|403:216|402:267,1,101.999996887207
389,324,221057,1,0,0:0:0:0:
389,324,221146,6,0,B|423:341|445:370|445:370|496:306|493:221,1,203.999993774414
492,250,221860,2,0,P|494:202|495:185,1,50.9999984436036
501,122,222039,1,0,0:0:0:0:
369,66,222218,2,0,B|345:58|345:58|228:56,1,101.999996887207
197,49,222485,1,0,0:0:0:0:
197,49,222575,6,0,P|200:92|192:152,1,85
92,284,222932,1,0,0:0:0:0:
92,284,223289,1,0,0:0:0:0:
52,172,223468,1,0,0:0:0:0:
92,284,223646,1,0,0:0:0:0:
200,128,223825,1,0,0:0:0:0:
200,128,223914,1,0,0:0:0:0:
200,128,224003,6,0,P|248:128|336:120,1,127.5
391,164,224360,2,0,P|432:160|496:160,1,85
388,68,224717,1,0,0:0:0:0:
320,204,224896,1,0,0:0:0:0:
174,107,225075,2,0,P|226:107|316:117,1,127.5
369,150,225432,6,0,B|412:140|412:140|452:160|452:160|504:148,1,127.5
466,83,225789,2,0,P|456:56|452:0,1,85
401,232,226146,2,0,P|400:272|380:332,1,85
241,156,226503,2,0,L|389:149,1,127.5
340,236,226860,6,0,L|255:230,1,85
136,296,227217,2,0,P|88:280|40:240,1,85
40,144,227575,1,0,0:0:0:0:
144,200,227753,1,0,0:0:0:0:
248,260,227932,1,0,0:0:0:0:
112,120,228110,1,0,0:0:0:0:
112,120,228200,1,0,0:0:0:0:
112,120,228289,6,0,P|104:68|105:53,1,42.5
178,83,228467,2,0,P|184:60|192:40,1,42.5
262,75,228646,2,0,P|278:62|306:46,1,42.5
341,124,228825,2,0,P|376:128|394:133,1,42.5
335,212,229003,6,0,P|316:208|288:200,1,42.5
367,274,229182,2,0,P|339:279|309:276,1,42.5
421,316,229360,2,0,P|402:332|378:344,1,42.5
490,314,229539,2,0,P|487:339|479:363,1,42.5
406,235,229717,6,0,P|401:202|401:178,1,42.5
325,281,229896,2,0,P|300:244|296:232,1,42.5
216,322,230075,2,0,P|201:345|185:369,1,42.5
114,283,230253,2,0,P|94:290|70:298,1,42.5
101,175,230432,2,0,P|127:180|151:180,1,42.5
102,63,230610,2,0,P|124:82|136:90,1,42.5
249,126,230789,2,0,P|278:130|308:128,1,42.5
396,98,230967,2,0,P|425:81|449:61,1,42.5
275,202,232575,6,0,L|287:312,1,85
359,306,232842,1,0,0:0:0:0:
359,306,232932,2,0,L|347:210,1,85
204,238,233289,2,0,L|217:342,1,85
145,359,233557,1,0,0:0:0:0:
145,359,233646,2,0,L|134:266,1,85
4,132,234003,6,0,L|20:266,1,127.5
84,221,234360,2,0,L|73:133,1,85
152,280,234717,1,0,0:0:0:0:
33,271,234896,1,0,0:0:0:0:
33,271,234985,1,0,0:0:0:0:
33,271,235075,1,0,0:0:0:0:
33,271,235164,1,0,0:0:0:0:
33,271,235253,1,0,0:0:0:0:
128,129,235432,5,0,0:0:0:0:
108,352,235610,1,0,0:0:0:0:
108,352,235700,1,0,0:0:0:0:
108,352,235789,1,0,0:0:0:0:
24,208,235967,1,0,0:0:0:0:
140,236,236146,1,0,0:0:0:0:
252,272,236325,1,0,0:0:0:0:
252,272,236414,1,0,0:0:0:0:
252,272,236503,2,0,P|272:260|300:240,1,42.5
327,195,236682,2,0,P|333:177|338:145,1,42.5
322,87,236860,5,0,0:0:0:0:
355,267,237039,1,0,0:0:0:0:
391,255,237128,1,0,0:0:0:0:
428,244,237217,1,0,0:0:0:0:
464,232,237307,1,0,0:0:0:0:
500,220,237396,1,0,0:0:0:0:
396,160,237575,1,0,0:0:0:0:
364,360,237753,2,0,L|312:352,1,42.5
257,367,237932,2,0,L|211:359,1,42.5
148,373,238110,2,0,L|98:364,1,42.5
39,375,238289,5,0,0:0:0:0:
92,268,238467,1,0,0:0:0:0:
82,232,238557,1,0,0:0:0:0:
72,195,238646,1,0,0:0:0:0:
62,160,238735,1,0,0:0:0:0:
50,124,238825,1,0,0:0:0:0:
0,268,239003,1,0,0:0:0:0:
174,205,239182,1,0,0:0:0:0:
189,240,239271,1,0,0:0:0:0:
196,278,239360,1,0,0:0:0:0:
190,315,239450,1,0,0:0:0:0:
169,345,239539,1,0,0:0:0:0:
84,275,239717,5,0,0:0:0:0:
294,362,239896,1,0,0:0:0:0:
330,352,239985,1,0,0:0:0:0:
365,341,240075,1,0,0:0:0:0:
401,333,240164,1,0,0:0:0:0:
436,324,240253,1,0,0:0:0:0:
274,283,240432,1,0,0:0:0:0:
160,359,240610,2,0,L|208:372,1,42.5
139,274,240789,2,0,L|192:296,1,42.5
111,202,240967,1,0,0:0:0:0:
56,369,241146,5,0,0:0:0:0:
247,317,241325,1,0,0:0:0:0:
274,283,241414,1,0,0:0:0:0:
300,256,241503,1,0,0:0:0:0:
324,224,241592,1,0,0:0:0:0:
352,196,241682,1,0,0:0:0:0:
177,265,241860,1,0,0:0:0:0:
355,326,242039,1,0,0:0:0:0:
388,304,242128,1,0,0:0:0:0:
420,284,242217,1,0,0:0:0:0:
452,264,242307,1,0,0:0:0:0:
484,244,242396,1,0,0:0:0:0:
302,256,242575,5,0,0:0:0:0:
179,142,242753,2,0,L|184:99,1,42.5
283,107,242932,2,0,L|295:51,1,42.5
373,22,243110,1,0,0:0:0:0:
252,185,243289,1,0,0:0:0:0:
140,50,243467,1,0,0:0:0:0:
100,52,243557,1,0,0:0:0:0:
64,68,243646,1,0,0:0:0:0:
40,100,243735,1,0,0:0:0:0:
32,136,243825,1,0,0:0:0:0:
203,278,245432,6,0,P|190:262|154:242,1,42.5
275,289,245610,2,0,P|271:264|263:236,1,42.5
339,317,245789,2,0,P|344:288|344:264,1,42.5
389,366,245967,2,0,P|400:350|408:318,1,42.5
494,301,246146,6,0,P|483:318|476:359,1,42.5
479,229,246324,2,0,P|456:241|433:258,1,42.5
483,159,246503,2,0,P|454:164|431:172,1,42.5
512,95,246681,2,0,P|493:90|460:93,1,42.5
401,19,246860,6,0,P|419:27|461:27,1,42.5
332,43,247038,2,0,P|347:63|367:84,1,42.5
262,48,247217,2,0,P|271:75|282:97,1,42.5
195,28,247395,2,0,P|192:47|200:79,1,42.5
133,135,247574,6,0,P|134:114|120:75,1,42.5
180,191,247752,2,0,P|193:169|206:143,1,42.5
209,255,247931,2,0,P|232:236|248:218,1,42.5
214,325,248109,2,0,P|232:320|260:302,1,42.5
111,340,248289,6,0,P|96:352|72:376,1,42.5
117,265,248467,2,0,P|84:260|48:260,1,42.5
175,208,248646,2,0,P|140:184|120:176,1,42.5
273,193,248825,2,0,P|265:162|254:145,1,42.5
367,239,249003,6,0,P|356:280|356:308,1,42.5
464,205,249182,2,0,P|447:171|425:148,1,42.5
315,113,249360,2,0,P|347:119|379:119,1,42.5
471,22,249539,2,0,P|436:24|408:32,1,42.5
278,3,249717,5,0,0:0:0:0:
248,44,249807,1,0,0:0:0:0:
208,76,249896,1,0,0:0:0:0:
160,88,249985,1,0,0:0:0:0:
116,60,250075,1,0,0:0:0:0:
120,112,250164,1,0,0:0:0:0:
144,156,250253,1,0,0:0:0:0:
184,188,250342,1,0,0:0:0:0:
232,204,250432,5,0,0:0:0:0:
204,256,250521,1,0,0:0:0:0:
156,292,250610,1,0,0:0:0:0:
96,308,250700,1,0,0:0:0:0:
40,296,250789,1,0,0:0:0:0:
70,244,250878,1,0,0:0:0:0:
130,237,250967,1,0,0:0:0:0:
156,292,251057,1,0,0:0:0:0:
172,348,251146,1,0,0:0:0:0:
228,368,251235,1,0,0:0:0:0:
288,368,251325,1,0,0:0:0:0:
340,344,251414,1,0,0:0:0:0:
380,292,251503,5,0,0:0:0:0:
388,224,251592,1,0,0:0:0:0:
384,156,251682,1,0,0:0:0:0:
332,112,251771,1,0,0:0:0:0:
264,104,251860,1,0,0:0:0:0:
204,136,251950,1,0,0:0:0:0:
176,196,252039,1,0,0:0:0:0:
200,260,252128,1,0,0:0:0:0:
248,308,252217,1,0,0:0:0:0:
312,288,252307,1,0,0:0:0:0:
316,220,252396,1,0,0:0:0:0:
264,176,252485,1,0,0:0:0:0:
256,192,255432,12,0,260878,0:0:0:0:
114,47,264340,6,0,P|125:119|148:195,1,136
204,231,264872,1,0,0:0:0:0:
204,231,265050,2,0,P|193:303|170:379,1,136
328,307,265760,6,0,P|309:241|299:174,1,136
422,66,266470,2,0,B|385:50|385:50|347:68|347:68|271:18|268:105|182:37,1,238
199,49,267180,6,0,B|161:85|161:85|125:175,1,136
250,272,267890,2,0,B|288:236|288:236|324:146,1,136
94,320,268600,5,0,0:0:0:0:
94,320,269310,1,0,0:0:0:0:
94,320,270020,6,0,P|52:280|71:181,1,136
113,151,270553,1,0,0:0:0:0:
113,151,270730,2,0,L|270:144,1,136
401,87,271440,6,0,P|392:170|392:245,1,136
261,321,272150,2,0,P|253:190|222:72,1,238
227,86,272860,6,0,P|311:39|346:69,1,136
413,195,273570,2,0,L|379:328,1,136
131,214,274280,5,0,0:0:0:0:
131,214,274990,1,0,0:0:0:0:
131,214,275700,6,0,P|195:220|259:290,1,136
297,330,276233,1,0,0:0:0:0:
297,330,276411,2,0,P|371:320|412:278,1,136
412,106,277121,6,0,P|363:60|297:54,1,136
202,187,277831,2,0,B|164:218|116:193|116:193|129:118|100:35,1,238
104,48,278541,6,0,P|36:68|15:128,1,136
14,260,279251,2,0,P|40:320|104:335,1,136
336,192,279961,5,0,0:0:0:0:
336,192,280671,1,0,0:0:0:0:
336,192,281381,6,0,P|314:129|232:96,1,136
171,122,281913,1,0,0:0:0:0:
111,187,282091,2,0,L|105:257,1,68
84,102,282446,2,0,L|26:61,1,68
171,122,282801,6,0,P|229:154|250:217,2,136
171,122,283866,1,0,0:0:0:0:
171,122,284221,6,0,P|255:82|314:60,1,136
412,198,284931,2,0,P|328:238|269:260,1,136
114,221,285641,5,0,0:0:0:0:
114,221,285996,2,0,L|123:55,1,136
121,85,286706,1,0,0:0:0:0:
297,73,287061,6,0,B|337:93|337:93|369:183,1,136
350,265,287594,1,0,0:0:0:0:
281,320,287771,2,0,L|198:323,1,68
350,265,288126,2,0,L|417:267,1,68
281,320,288482,6,0,L|134:325,1,136
231,170,289192,2,0,L|377:175,1,136
166,101,289902,6,0,P|137:161|156:226,1,136
431,243,290612,2,0,P|459:182|441:118,1,136
231,170,291322,5,0,0:0:0:0:
231,170,291677,2,0,L|377:175,1,136
366,174,292387,1,0,0:0:0:0:
366,174,292742,6,0,P|344:111|262:78,1,136
201,104,293274,1,0,0:0:0:0:
198,192,293452,2,0,L|204:262,1,68
201,104,293807,2,0,L|195:36,1,68
106,44,294162,6,0,P|38:86|33:160,1,136
119,285,294872,2,0,P|187:243|192:169,1,136
329,75,295582,6,0,P|369:159|391:218,1,136
253,316,296292,2,0,P|213:232|191:173,1,136
121,32,297002,5,0,0:0:0:0:
121,32,297357,2,0,L|287:41,1,136
257,39,298067,1,0,0:0:0:0:
257,39,298422,6,0,P|228:116|278:178,1,136
334,188,298955,1,0,0:0:0:0:
265,243,299132,2,0,P|249:292|255:343,1,68
334,188,299487,2,0,P|367:191|399:204,1,68
265,243,299842,6,0,B|247:274|248:309|248:309|222:338|175:327,1,136
166,153,300553,2,0,B|184:122|183:87|183:87|209:58|256:69,1,136
385,171,301263,6,0,P|403:235|374:295,1,136
205,347,301973,2,0,L|65:335,1,136
25,164,302683,5,0,0:0:0:0:
25,164,303038,2,0,P|91:145|171:169,1,136
155,159,303748,1,0,0:0:0:0:
155,159,304103,6,0,P|220:173|285:154,1,136
361,109,304635,1,0,0:0:0:0:
417,177,304813,2,0,L|421:245,1,68
338,276,305168,2,0,L|334:344,1,68
246,358,305523,6,0,L|106:372,2,136
246,358,306588,1,0,0:0:0:0:
246,358,306943,6,0,P|249:291|229:206,1,136
127,83,307653,2,0,P|183:119|267:144,1,136
424,117,308363,5,0,0:0:0:0:
424,117,308718,2,0,P|364:147|300:207,1,136
312,192,309428,1,0,0:0:0:0:
312,192,309783,6,0,B|323:263|323:263|295:327,1,136
222,369,310316,1,0,0:0:0:0:
155,311,310493,2,0,L|170:236,1,68
74,186,310848,2,0,L|87:252,1,68
155,311,311203,6,0,P|194:331|295:292,2,136
74,186,312268,1,0,0:0:0:0:
197,59,312624,6,0,L|355:53,1,136
362,228,313334,2,0,L|226:222,1,136
364,96,314044,5,0,0:0:0:0:
364,96,314399,2,0,B|391:157|336:162|363:232,1,136
361,227,315109,1,0,0:0:0:0:
361,227,315464,6,0,P|363:272|419:228,1,136
413,166,315996,1,0,0:0:0:0:
340,128,316174,2,0,L|267:127,1,68
166,198,316529,2,0,L|233:198,1,68
115,133,316884,6,0,P|129:214|102:288,1,136
234,67,317594,2,0,P|220:148|247:222,1,136
357,304,318304,6,0,B|356:252|356:252|372:162,2,136
357,304,319369,1,0,0:0:0:0:
196,332,319724,5,0,0:0:0:0:
196,332,320079,2,0,B|197:280|197:280|181:190,1,136
182,197,320789,1,0,0:0:0:0:
414,255,321144,6,0,P|414:187|426:107,1,136
512,184,321677,1,0,0:0:0:0:
408,260,321854,2,0,P|360:252|312:252,1,68
263,354,322209,2,0,P|308:352|352:344,1,68
191,252,322564,5,0,0:0:0:0:
72,304,322742,1,0,0:0:0:0:
251,307,322919,1,0,0:0:0:0:
176,152,323097,1,0,0:0:0:0:
68,312,323274,2,0,P|112:344|192:352,1,136
439,180,323984,6,0,B|472:146|488:96|472:56|420:52|396:64|396:64|368:48|332:32|296:52|272:120|340:200,1,408
338,198,325405,6,0,L|328:282,1,68
420,328,325760,1,0,0:0:0:0:
408,184,325937,1,0,0:0:0:0:
262,305,326115,2,0,L|176:292,1,68
122,195,326470,2,0,P|158:190|205:189,1,68
15,278,326825,6,0,P|24:200|16:116,1,136
8,292,327357,2,0,P|28:248|40:216,1,68
196,380,327890,2,0,P|156:376|108:352,1,68
256,296,328245,5,0,0:0:0:0:
344,360,328422,1,0,0:0:0:0:
282,213,328600,1,0,0:0:0:0:
257,374,328777,1,0,0:0:0:0:
155,261,328955,2,0,P|96:240|16:248,1,136
212,330,329665,6,0,P|256:312|296:308,1,68
153,271,330020,2,0,P|120:280|84:280,1,68
218,210,330375,1,0,0:0:0:0:
137,382,330730,1,0,0:0:0:0:
21,152,331085,6,0,P|40:124|72:96,1,68
208,123,331440,1,0,0:0:0:0:
264,216,331618,1,0,0:0:0:0:
307,59,331795,2,0,P|336:56|384:56,1,68
206,129,332150,2,0,P|252:128|292:120,1,68
124,100,332505,6,0,P|106:83|50:59,1,68
140,263,332860,2,0,P|150:233|154:185,1,68
60,355,333215,2,0,P|120:344|192:376,1,136
412,92,333925,6,0,P|352:103|331:99,1,68
222,21,334280,1,0,0:0:0:0:
253,151,334458,1,0,0:0:0:0:
292,307,334635,1,0,0:0:0:0:
222,21,334990,1,0,0:0:0:0:
68,229,335345,6,0,P|120:248|151:249,1,68
242,185,335700,1,0,0:0:0:0:
233,196,336055,2,0,L|240:112,1,68
148,68,336411,2,0,L|140:164,1,68
156,272,336766,5,0,0:0:0:0:
60,204,336943,1,0,0:0:0:0:
144,68,337121,1,0,0:0:0:0:
152,184,337298,1,0,0:0:0:0:
282,129,337476,2,0,P|243:121|198:122,1,68
350,183,337831,2,0,P|390:190|423:191,1,68
277,244,338186,6,0,P|290:283|296:385,1,136
212,286,338718,1,0,0:0:0:0:
319,178,338896,2,0,P|308:144|304:112,1,68
376,28,339251,2,0,P|411:38|452:42,1,68
298,114,339606,6,0,P|246:129|158:121,1,136
244,44,340138,1,0,0:0:0:0:
367,159,340316,2,0,P|408:140|436:120,1,68
296,215,340671,2,0,P|288:244|284:300,1,68
383,231,341026,5,0,0:0:0:0:
207,28,341381,1,0,0:0:0:0:
98,254,341736,2,0,P|128:260|176:264,1,68
252,188,342091,1,0,0:0:0:0:
24,196,342446,6,0,L|36:344,1,136
104,240,342979,1,0,0:0:0:0:
21,113,343156,2,0,P|36:80|60:52,1,68
192,28,343511,2,0,P|177:61|153:89,1,68
193,200,343866,6,0,P|242:204|330:264,1,136
348,356,344399,1,0,0:0:0:0:
404,216,344576,1,0,0:0:0:0:
464,52,344754,1,0,0:0:0:0:
305,108,344931,2,0,P|347:121|379:121,1,68
229,160,345286,6,0,P|190:174|78:160,1,136
359,223,345996,2,0,P|366:248|368:301,1,68
292,376,346351,1,0,0:0:0:0:
437,141,346706,6,0,P|442:88|441:1,1,136
376,238,347416,2,0,P|386:269|389:312,1,68
296,218,347771,1,0,0:0:0:0:
510,158,348126,5,0,0:0:0:0:
52,96,348837,1,0,0:0:0:0:
140,308,349192,1,0,0:0:0:0:
312,156,349547,6,0,P|296:116|264:84,1,68
275,221,349902,1,0,0:0:0:0:
382,160,350079,1,0,0:0:0:0:
367,333,350257,2,0,P|407:341|449:344,1,68
283,321,350612,2,0,P|252:344|224:376,1,68
344,253,350967,5,0,0:0:0:0:
51,340,351322,1,0,0:0:0:0:
276,150,351677,2,0,P|272:176|252:232,1,68
148,111,352032,2,0,P|141:83|137:36,1,68
142,223,352387,6,0,P|74:213|7:236,1,136
243,326,353097,2,0,P|248:288|248:248,1,68
235,90,353452,2,0,P|222:138|222:182,1,68
377,204,353807,6,0,P|416:188|512:184,1,136
296,272,354517,2,0,P|280:236|272:192,1,68
311,63,354872,2,0,P|318:106|314:158,1,68
180,260,355227,6,0,L|192:98,1,136
104,211,355760,1,0,0:0:0:0:
286,257,355937,2,0,P|304:304|304:344,1,68
339,140,356292,2,0,P|374:126|418:118,1,68
233,158,356647,6,0,P|200:124|176:20,1,136
246,276,357357,2,0,P|232:312|208:344,1,68
303,203,357712,2,0,P|344:192|384:188,1,68
181,180,358067,6,0,P|160:132|160:32,1,136
288,240,358777,1,0,0:0:0:0:
76,324,359132,1,0,0:0:0:0:
152,108,359487,6,0,P|156:136|160:192,1,68
80,319,359842,1,0,0:0:0:0:
308,352,360197,2,0,L|464:336,1,136
224,272,360908,6,0,P|224:288|216:352,1,68
320,244,361263,2,0,P|312:208|308:164,1,68
324,35,361618,1,0,0:0:0:0:
360,368,361973,1,0,0:0:0:0:
178,165,362328,6,0,P|224:160|264:168,1,68
348,212,362683,1,0,0:0:0:0:
118,90,363038,1,0,0:0:0:0:
84,316,363393,2,0,P|120:328|164:332,1,68
229,239,363748,6,0,L|84:248,1,136
253,154,364458,1,0,0:0:0:0:
372,352,364813,2,0,P|340:360|292:360,1,68
284,248,365168,6,0,L|424:264,1,136
344,44,365878,2,0,L|196:24,1,136
416,124,366588,6,0,P|444:92|456:56,1,68
377,211,366943,2,0,P|385:244|385:283,1,68
299,167,367298,1,0,0:0:0:0:
464,23,367653,1,0,0:0:0:0:
399,243,368008,6,0,P|416:274|444:309,1,68
317,311,368363,2,0,P|312:344|312:380,1,68
219,248,368718,2,0,P|176:232|60:236,1,136
292,165,369428,6,0,P|280:116|280:80,1,68
355,215,369783,1,0,0:0:0:0:
100,291,370138,1,0,0:0:0:0:
211,23,370493,1,0,0:0:0:0:
250,303,370848,6,0,P|229:277|198:224,1,68
236,136,371203,1,0,0:0:0:0:
331,362,371558,2,0,L|176:344,1,136
185,358,372268,5,0,0:0:0:0:
256,192,373689,5,0,0:0:0:0:
256,192,374754,12,0,376529,0:0:0:0:
