osu file format v14

[General]
AudioFilename: audio.mp3
AudioLeadIn: 0
PreviewTime: 90356
Countdown: 0
SampleSet: None
StackLeniency: 0.7
Mode: 1
LetterboxInBreaks: 0
WidescreenStoryboard: 1

[Editor]
DistanceSpacing: 1
BeatDivisor: 4
GridSize: 4
TimelineZoom: 1

[Metadata]
Title:Pa' Bailar
TitleUnicode:Pa' Bailar
Artist:Bajofondo
ArtistUnicode:Bajofondo
Creator:TBAdriel
Version:TangOni
Source:
Tags:mar dulce electric tango instrumental
BeatmapID:1719080
BeatmapSetID:819987

[Difficulty]
HPDrainRate:6
CircleSize:2
OverallDifficulty:6
ApproachRate:10
SliderMultiplier:1.4
SliderTickRate:1

[Events]
//Background and Video events
0,0,"BG.png",0,0
//Break Periods
//Storyboard Layer 0 (Background)
//Storyboard Layer 1 (Fail)
//Storyboard Layer 2 (Pass)
//Storyboard Layer 3 (Foreground)
//Storyboard Sound Samples

[TimingPoints]
7076,480,4,1,0,100,1,0
137636,-100,4,1,0,100,0,1
152996,-100,4,1,0,100,0,0
191396,-100,4,1,0,100,0,1
191426,-100,4,1,0,100,0,0
206756,-100,4,1,0,100,0,1
221636,-100,4,1,0,100,0,0
222116,-83.3333333333333,4,1,0,100,0,1
236996,-100,4,1,0,100,0,0

[HitObjects]
256,192,7076,5,0,0:0:0:0:
256,192,7556,1,8,0:0:0:0:
256,192,8036,1,0,0:0:0:0:
256,192,8276,1,0,0:0:0:0:
256,192,8516,1,8,0:0:0:0:
256,192,8996,1,0,0:0:0:0:
256,192,9236,1,0,0:0:0:0:
256,192,9476,1,8,0:0:0:0:
256,192,9956,1,0,0:0:0:0:
256,192,10196,1,0,0:0:0:0:
256,192,10436,1,8,0:0:0:0:
256,192,10916,1,0,0:0:0:0:
256,192,11396,1,8,0:0:0:0:
256,192,11876,1,0,0:0:0:0:
256,192,12116,1,0,0:0:0:0:
256,192,12356,1,8,0:0:0:0:
256,192,12836,1,0,0:0:0:0:
256,192,13076,1,0,0:0:0:0:
256,192,13316,1,8,0:0:0:0:
256,192,13796,1,0,0:0:0:0:
256,192,14036,1,0,0:0:0:0:
256,192,14276,1,8,0:0:0:0:
256,192,14516,1,0,0:0:0:0:
256,192,14756,5,0,0:0:0:0:
256,192,15236,1,8,0:0:0:0:
256,192,15716,1,0,0:0:0:0:
256,192,15956,1,0,0:0:0:0:
256,192,16196,1,8,0:0:0:0:
256,192,16436,1,0,0:0:0:0:
256,192,16676,1,0,0:0:0:0:
256,192,17156,1,8,0:0:0:0:
256,192,17636,1,0,0:0:0:0:
256,192,17876,1,0,0:0:0:0:
256,192,18116,1,8,0:0:0:0:
256,192,18356,1,0,0:0:0:0:
256,192,18596,1,0,0:0:0:0:
256,192,19076,1,8,0:0:0:0:
256,192,19556,1,0,0:0:0:0:
256,192,19796,1,8,0:0:0:0:
256,192,20036,1,8,0:0:0:0:
256,192,20276,1,8,0:0:0:0:
256,192,20396,1,8,0:0:0:0:
256,192,20516,1,0,0:0:0:0:
256,192,20996,1,8,0:0:0:0:
256,192,21476,1,0,0:0:0:0:
256,192,21716,1,0,0:0:0:0:
256,192,21956,1,8,0:0:0:0:
256,192,22436,5,0,0:0:0:0:
256,192,22916,1,8,0:0:0:0:
256,192,23156,1,0,0:0:0:0:
256,192,23396,1,0,0:0:0:0:
256,192,23636,1,0,0:0:0:0:
256,192,23876,1,8,0:0:0:0:
256,192,24116,1,0,0:0:0:0:
256,192,24356,1,0,0:0:0:0:
256,192,24596,1,0,0:0:0:0:
256,192,24836,1,8,0:0:0:0:
256,192,25076,1,0,0:0:0:0:
256,192,25316,1,0,0:0:0:0:
256,192,25556,1,0,0:0:0:0:
256,192,25796,1,8,0:0:0:0:
256,192,26036,1,0,0:0:0:0:
256,192,26276,1,0,0:0:0:0:
256,192,26756,1,8,0:0:0:0:
256,192,26996,1,0,0:0:0:0:
256,192,27236,1,0,0:0:0:0:
256,192,27476,1,0,0:0:0:0:
256,192,27716,1,8,0:0:0:0:
256,192,27956,1,0,0:0:0:0:
256,192,28196,1,0,0:0:0:0:
256,192,28676,1,8,0:0:0:0:
256,192,28916,1,0,0:0:0:0:
256,192,29156,1,0,0:0:0:0:
256,192,29396,1,0,0:0:0:0:
256,192,29636,1,8,0:0:0:0:
256,192,29876,1,0,0:0:0:0:
256,192,30116,1,0,0:0:0:0:
256,192,30596,1,8,0:0:0:0:
256,192,30836,1,0,0:0:0:0:
256,192,31076,1,0,0:0:0:0:
256,192,31316,1,0,0:0:0:0:
256,192,31556,1,8,0:0:0:0:
256,192,31796,1,0,0:0:0:0:
256,192,32036,1,0,0:0:0:0:
256,192,32516,1,8,0:0:0:0:
256,192,32756,1,0,0:0:0:0:
256,192,32996,1,0,0:0:0:0:
256,192,33236,1,0,0:0:0:0:
256,192,33476,1,8,0:0:0:0:
256,192,33716,1,0,0:0:0:0:
256,192,33956,1,0,0:0:0:0:
256,192,34436,1,8,0:0:0:0:
256,192,34676,1,0,0:0:0:0:
256,192,34916,1,0,0:0:0:0:
256,192,35156,1,8,0:0:0:0:
256,192,35396,1,8,0:0:0:0:
256,192,35636,1,8,0:0:0:0:
256,192,35756,1,8,0:0:0:0:
256,192,35876,1,0,0:0:0:0:
256,192,36356,1,8,0:0:0:0:
256,192,36596,1,0,0:0:0:0:
256,192,36836,1,0,0:0:0:0:
256,192,37076,1,0,0:0:0:0:
256,192,37316,1,8,0:0:0:0:
256,192,37556,1,0,0:0:0:0:
256,192,37796,5,0,0:0:0:0:
256,192,38276,1,8,0:0:0:0:
256,192,38516,1,0,0:0:0:0:
256,192,38756,1,0,0:0:0:0:
256,192,38996,1,0,0:0:0:0:
256,192,39236,1,8,0:0:0:0:
256,192,39476,1,0,0:0:0:0:
256,192,39716,1,0,0:0:0:0:
256,192,39956,1,0,0:0:0:0:
256,192,40196,1,8,0:0:0:0:
256,192,40436,1,0,0:0:0:0:
256,192,40676,1,0,0:0:0:0:
256,192,40916,1,0,0:0:0:0:
256,192,41156,1,8,0:0:0:0:
256,192,41396,1,0,0:0:0:0:
256,192,41636,1,0,0:0:0:0:
256,192,42116,1,8,0:0:0:0:
256,192,42356,1,0,0:0:0:0:
256,192,42596,1,0,0:0:0:0:
256,192,42836,1,0,0:0:0:0:
256,192,43076,1,8,0:0:0:0:
256,192,43316,1,0,0:0:0:0:
256,192,43556,1,0,0:0:0:0:
256,192,44036,1,8,0:0:0:0:
256,192,44276,1,0,0:0:0:0:
256,192,44396,1,0,0:0:0:0:
256,192,44516,1,8,0:0:0:0:
256,192,44756,1,0,0:0:0:0:
256,192,44996,1,8,0:0:0:0:
256,192,45236,1,0,0:0:0:0:
256,192,45476,5,4,0:0:0:0:
256,192,45956,1,8,0:0:0:0:
256,192,46196,1,0,0:0:0:0:
256,192,46436,1,0,0:0:0:0:
256,192,46676,1,0,0:0:0:0:
256,192,46916,1,8,0:0:0:0:
256,192,47156,1,0,0:0:0:0:
256,192,47396,1,8,0:0:0:0:
256,192,47876,1,8,0:0:0:0:
256,192,48116,1,0,0:0:0:0:
256,192,48356,1,8,0:0:0:0:
256,192,48596,1,0,0:0:0:0:
256,192,48836,1,0,0:0:0:0:
256,192,49076,1,8,0:0:0:0:
256,192,49316,1,4,0:0:0:0:
256,192,49556,1,8,0:0:0:0:
256,192,49676,1,0,0:0:0:0:
256,192,49796,1,8,0:0:0:0:
256,192,50036,1,8,0:0:0:0:
256,192,50156,1,0,0:0:0:0:
256,192,50276,1,0,0:0:0:0:
256,192,50516,1,0,0:0:0:0:
256,192,50636,1,8,0:0:0:0:
256,192,50756,1,8,0:0:0:0:
256,192,50996,1,8,0:0:0:0:
256,192,51236,5,0,0:0:0:0:
256,192,51716,1,8,0:0:0:0:
256,192,51956,1,0,0:0:0:0:
256,192,52076,1,0,0:0:0:0:
256,192,52196,1,8,0:0:0:0:
256,192,52436,1,0,0:0:0:0:
256,192,52676,1,8,0:0:0:0:
256,192,52916,1,0,0:0:0:0:
256,192,53156,1,4,0:0:0:0:
256,192,53636,1,8,0:0:0:0:
256,192,53876,1,0,0:0:0:0:
256,192,54116,1,8,0:0:0:0:
256,192,54356,1,0,0:0:0:0:
256,192,54596,1,8,0:0:0:0:
256,192,54836,1,0,0:0:0:0:
256,192,55076,1,0,0:0:0:0:
256,192,55556,1,8,0:0:0:0:
256,192,55796,1,0,0:0:0:0:
256,192,56036,1,8,0:0:0:0:
256,192,56276,1,0,0:0:0:0:
256,192,56516,1,8,0:0:0:0:
256,192,56756,1,8,0:0:0:0:
256,192,56996,1,4,0:0:0:0:
256,192,57236,1,8,0:0:0:0:
256,192,57356,1,0,0:0:0:0:
256,192,57476,1,8,0:0:0:0:
256,192,57716,1,8,0:0:0:0:
256,192,57836,1,0,0:0:0:0:
256,192,57956,1,0,0:0:0:0:
256,192,58196,1,0,0:0:0:0:
256,192,58316,1,8,0:0:0:0:
256,192,58436,1,8,0:0:0:0:
256,192,58676,1,8,0:0:0:0:
256,192,58796,1,8,0:0:0:0:
256,192,58916,1,8,0:0:0:0:
256,192,59396,1,8,0:0:0:0:
256,192,59876,1,0,0:0:0:0:
256,192,60116,1,0,0:0:0:0:
256,192,60356,1,8,0:0:0:0:
256,192,60836,5,4,0:0:0:0:
256,192,61316,1,8,0:0:0:0:
256,192,61556,1,8,0:0:0:0:
256,192,61796,1,0,0:0:0:0:
256,192,62036,1,0,0:0:0:0:
256,192,62276,1,8,0:0:0:0:
256,192,62516,1,0,0:0:0:0:
256,192,62636,1,0,0:0:0:0:
256,192,62756,1,0,0:0:0:0:
256,192,62996,1,0,0:0:0:0:
256,192,63236,1,8,0:0:0:0:
256,192,63716,1,0,0:0:0:0:
256,192,63956,1,8,0:0:0:0:
256,192,64196,1,8,0:0:0:0:
256,192,64436,1,8,0:0:0:0:
256,192,64676,1,0,0:0:0:0:
256,192,65156,1,8,0:0:0:0:
256,192,65396,1,8,0:0:0:0:
256,192,65636,1,0,0:0:0:0:
256,192,65876,1,8,0:0:0:0:
256,192,66116,1,8,0:0:0:0:
256,192,66356,1,0,0:0:0:0:
256,192,66596,1,0,0:0:0:0:
256,192,67076,1,8,0:0:0:0:
256,192,67556,1,0,0:0:0:0:
256,192,67796,1,0,0:0:0:0:
256,192,68036,1,8,0:0:0:0:
256,192,68516,1,0,0:0:0:0:
256,192,68996,1,8,0:0:0:0:
256,192,69236,1,8,0:0:0:0:
256,192,69476,1,0,0:0:0:0:
256,192,69716,1,0,0:0:0:0:
256,192,69956,1,8,0:0:0:0:
256,192,70196,1,8,0:0:0:0:
256,192,70316,1,8,0:0:0:0:
256,192,70436,1,0,0:0:0:0:
256,192,70676,1,0,0:0:0:0:
256,192,70916,1,8,0:0:0:0:
256,192,71396,1,0,0:0:0:0:
256,192,71636,1,8,0:0:0:0:
256,192,71876,1,8,0:0:0:0:
256,192,72116,1,8,0:0:0:0:
256,192,72356,1,0,0:0:0:0:
256,192,72836,1,8,0:0:0:0:
256,192,73076,1,8,0:0:0:0:
256,192,73316,1,0,0:0:0:0:
256,192,73556,1,8,0:0:0:0:
256,192,73796,1,8,0:0:0:0:
256,192,74036,1,0,0:0:0:0:
256,192,74276,1,0,0:0:0:0:
256,192,74756,1,8,0:0:0:0:
256,192,75236,1,0,0:0:0:0:
256,192,75476,1,0,0:0:0:0:
256,192,75716,1,8,0:0:0:0:
256,192,75956,1,0,0:0:0:0:
256,192,76196,5,0,0:0:0:0:
256,192,76676,1,8,0:0:0:0:
256,192,77156,1,0,0:0:0:0:
256,192,77396,1,0,0:0:0:0:
256,192,77636,1,8,0:0:0:0:
256,192,77876,1,8,0:0:0:0:
256,192,77996,1,8,0:0:0:0:
256,192,78116,1,0,0:0:0:0:
256,192,78596,1,8,0:0:0:0:
256,192,79076,1,0,0:0:0:0:
256,192,79556,1,8,0:0:0:0:
256,192,80036,1,0,0:0:0:0:
256,192,80516,1,8,0:0:0:0:
256,192,80756,1,0,0:0:0:0:
256,192,80996,1,0,0:0:0:0:
256,192,81236,1,8,0:0:0:0:
256,192,81716,1,8,0:0:0:0:
256,192,81836,1,8,0:0:0:0:
256,192,81956,1,0,0:0:0:0:
256,192,82436,1,8,0:0:0:0:
256,192,82916,1,0,0:0:0:0:
256,192,83156,1,0,0:0:0:0:
256,192,83396,1,8,0:0:0:0:
256,192,83876,1,0,0:0:0:0:
256,192,84356,1,8,0:0:0:0:
256,192,84836,1,0,0:0:0:0:
256,192,85076,1,0,0:0:0:0:
256,192,85316,1,8,0:0:0:0:
256,192,85556,1,8,0:0:0:0:
256,192,85676,1,0,0:0:0:0:
256,192,85796,1,0,0:0:0:0:
256,192,86036,1,0,0:0:0:0:
256,192,86276,1,8,0:0:0:0:
256,192,86756,1,0,0:0:0:0:
256,192,86996,1,0,0:0:0:0:
256,192,87236,1,8,0:0:0:0:
256,192,87716,1,0,0:0:0:0:
256,192,88196,1,8,0:0:0:0:
256,192,88676,1,0,0:0:0:0:
256,192,89156,1,8,0:0:0:0:
256,192,89396,1,8,0:0:0:0:
256,192,89636,1,0,0:0:0:0:
256,192,90116,1,8,0:0:0:0:
256,192,90356,1,0,0:0:0:0:
256,192,90476,1,0,0:0:0:0:
256,192,90596,1,8,0:0:0:0:
256,192,90836,1,0,0:0:0:0:
256,192,91076,1,8,0:0:0:0:
256,192,91316,1,0,0:0:0:0:
256,192,91556,5,12,0:0:0:0:
256,192,92036,1,8,0:0:0:0:
256,192,92276,1,0,0:0:0:0:
256,192,92516,1,0,0:0:0:0:
256,192,92756,1,0,0:0:0:0:
256,192,92996,1,8,0:0:0:0:
256,192,93236,1,0,0:0:0:0:
256,192,93476,1,0,0:0:0:0:
256,192,93716,1,0,0:0:0:0:
256,192,93956,1,8,0:0:0:0:
256,192,94196,1,0,0:0:0:0:
256,192,94436,1,0,0:0:0:0:
256,192,94676,1,0,0:0:0:0:
256,192,94916,1,8,0:0:0:0:
256,192,95156,1,0,0:0:0:0:
256,192,95396,1,4,0:0:0:0:
256,192,95636,1,8,0:0:0:0:
256,192,95756,1,0,0:0:0:0:
256,192,95876,1,8,0:0:0:0:
256,192,96116,1,8,0:0:0:0:
256,192,96236,1,0,0:0:0:0:
256,192,96356,1,0,0:0:0:0:
256,192,96596,1,0,0:0:0:0:
256,192,96716,1,8,0:0:0:0:
256,192,96836,1,8,0:0:0:0:
256,192,97076,1,8,0:0:0:0:
256,192,97316,1,8,0:0:0:0:
256,192,97796,1,8,0:0:0:0:
256,192,98036,1,0,0:0:0:0:
256,192,98156,1,0,0:0:0:0:
256,192,98276,1,8,0:0:0:0:
256,192,98516,1,0,0:0:0:0:
256,192,98756,1,8,0:0:0:0:
256,192,98996,1,0,0:0:0:0:
256,192,99236,5,4,0:0:0:0:
256,192,99716,1,8,0:0:0:0:
256,192,99956,1,0,0:0:0:0:
256,192,100196,1,8,0:0:0:0:
256,192,100436,1,0,0:0:0:0:
256,192,100676,1,8,0:0:0:0:
256,192,100916,1,0,0:0:0:0:
256,192,101156,1,0,0:0:0:0:
256,192,101396,1,0,0:0:0:0:
256,192,101636,1,8,0:0:0:0:
256,192,101876,1,0,0:0:0:0:
256,192,102116,1,8,0:0:0:0:
256,192,102356,1,0,0:0:0:0:
256,192,102596,1,8,0:0:0:0:
256,192,102836,1,0,0:0:0:0:
256,192,103076,1,4,0:0:0:0:
256,192,103316,1,8,0:0:0:0:
256,192,103436,1,0,0:0:0:0:
256,192,103556,1,8,0:0:0:0:
256,192,103796,1,8,0:0:0:0:
256,192,103916,1,0,0:0:0:0:
256,192,104036,1,0,0:0:0:0:
256,192,104276,1,0,0:0:0:0:
256,192,104396,1,8,0:0:0:0:
256,192,104516,1,8,0:0:0:0:
256,192,104756,1,0,0:0:0:0:
256,192,104996,1,8,0:0:0:0:
256,192,105476,1,8,0:0:0:0:
256,192,105956,1,0,0:0:0:0:
256,192,106196,1,8,0:0:0:0:
256,192,106436,1,8,0:0:0:0:
256,192,106556,1,0,0:0:0:0:
256,192,106676,1,0,0:0:0:0:
256,192,106916,5,4,0:0:0:0:
256,192,107876,1,0,0:0:0:0:
256,192,108836,1,0,0:0:0:0:
256,192,109796,1,0,0:0:0:0:
256,192,110756,1,0,0:0:0:0:
256,192,111716,1,0,0:0:0:0:
256,192,112676,1,0,0:0:0:0:
256,192,113636,1,0,0:0:0:0:
256,192,114596,1,0,0:0:0:0:
256,192,115556,1,0,0:0:0:0:
256,192,116516,1,0,0:0:0:0:
256,192,117476,1,0,0:0:0:0:
256,192,118436,1,0,0:0:0:0:
256,192,119396,1,0,0:0:0:0:
256,192,120356,1,0,0:0:0:0:
256,192,120836,1,0,0:0:0:0:
256,192,121076,1,0,0:0:0:0:
256,192,121196,1,0,0:0:0:0:
256,192,121316,1,8,0:0:0:0:
256,192,121556,1,0,0:0:0:0:
256,192,121796,1,8,0:0:0:0:
256,192,122036,1,0,0:0:0:0:
256,192,122276,5,12,0:0:0:0:
256,192,122756,1,8,0:0:0:0:
256,192,122996,1,8,0:0:0:0:
256,192,123236,1,0,0:0:0:0:
256,192,123476,1,0,0:0:0:0:
256,192,123716,1,8,0:0:0:0:
256,192,123956,1,0,0:0:0:0:
256,192,124196,1,0,0:0:0:0:
256,192,124676,1,8,0:0:0:0:
256,192,125156,1,0,0:0:0:0:
256,192,125396,1,0,0:0:0:0:
256,192,125636,1,8,0:0:0:0:
256,192,125876,1,0,0:0:0:0:
256,192,126116,1,4,0:0:0:0:
256,192,126356,1,8,0:0:0:0:
256,192,126476,1,0,0:0:0:0:
256,192,126596,1,8,0:0:0:0:
256,192,126836,1,8,0:0:0:0:
256,192,126956,1,0,0:0:0:0:
256,192,127076,1,0,0:0:0:0:
256,192,127316,1,0,0:0:0:0:
256,192,127436,1,8,0:0:0:0:
256,192,127556,1,8,0:0:0:0:
256,192,127796,1,8,0:0:0:0:
256,192,128036,1,8,0:0:0:0:
256,192,128516,1,8,0:0:0:0:
256,192,128756,1,0,0:0:0:0:
256,192,128876,1,0,0:0:0:0:
256,192,128996,1,8,0:0:0:0:
256,192,129236,1,0,0:0:0:0:
256,192,129476,1,8,0:0:0:0:
256,192,129716,1,0,0:0:0:0:
256,192,129956,1,4,0:0:0:0:
256,192,130436,1,8,0:0:0:0:
256,192,130676,1,0,0:0:0:0:
256,192,130916,1,0,0:0:0:0:
256,192,131156,1,0,0:0:0:0:
256,192,131396,1,8,0:0:0:0:
256,192,131636,1,0,0:0:0:0:
256,192,131876,1,0,0:0:0:0:
256,192,132356,1,8,0:0:0:0:
256,192,132596,1,8,0:0:0:0:
256,192,132836,1,0,0:0:0:0:
256,192,133076,1,0,0:0:0:0:
256,192,133316,1,8,0:0:0:0:
256,192,133556,1,0,0:0:0:0:
256,192,133796,1,4,0:0:0:0:
256,192,134036,1,8,0:0:0:0:
256,192,134156,1,0,0:0:0:0:
256,192,134276,1,8,0:0:0:0:
256,192,134516,1,8,0:0:0:0:
256,192,134636,1,0,0:0:0:0:
256,192,134756,1,0,0:0:0:0:
256,192,134996,1,0,0:0:0:0:
256,192,135116,1,8,0:0:0:0:
256,192,135236,1,8,0:0:0:0:
256,192,135716,1,0,0:0:0:0:
256,192,136196,1,8,0:0:0:0:
256,192,136436,1,0,0:0:0:0:
256,192,136556,1,0,0:0:0:0:
256,192,136676,1,8,0:0:0:0:
256,192,136916,1,0,0:0:0:0:
256,192,137036,1,0,0:0:0:0:
256,192,137156,1,8,0:0:0:0:
256,192,137396,1,0,0:0:0:0:
256,192,137636,5,12,0:0:0:0:
256,192,138116,1,8,0:0:0:0:
256,192,138356,1,0,0:0:0:0:
256,192,138596,1,0,0:0:0:0:
256,192,138836,1,0,0:0:0:0:
256,192,139076,1,8,0:0:0:0:
256,192,139316,1,0,0:0:0:0:
256,192,139556,1,8,0:0:0:0:
256,192,140036,1,8,0:0:0:0:
256,192,140276,1,8,0:0:0:0:
256,192,140516,1,0,0:0:0:0:
256,192,140756,1,0,0:0:0:0:
256,192,140996,1,8,0:0:0:0:
256,192,141236,1,0,0:0:0:0:
256,192,141476,1,8,0:0:0:0:
256,192,141956,1,8,0:0:0:0:
256,192,142196,1,0,0:0:0:0:
256,192,142436,1,0,0:0:0:0:
256,192,142916,1,8,0:0:0:0:
256,192,143396,1,12,0:0:0:0:
256,192,143876,1,8,0:0:0:0:
256,192,144116,1,0,0:0:0:0:
256,192,144236,1,0,0:0:0:0:
256,192,144356,1,8,0:0:0:0:
256,192,144596,1,0,0:0:0:0:
256,192,144836,1,8,0:0:0:0:
256,192,145076,1,0,0:0:0:0:
256,192,145316,1,8,0:0:0:0:
256,192,145556,1,8,0:0:0:0:
256,192,145796,1,0,0:0:0:0:
256,192,146036,1,0,0:0:0:0:
256,192,146276,1,0,0:0:0:0:
256,192,146516,1,0,0:0:0:0:
256,192,146756,1,8,0:0:0:0:
256,192,146996,1,8,0:0:0:0:
256,192,147236,1,8,0:0:0:0:
256,192,147476,1,8,0:0:0:0:
256,192,147716,1,8,0:0:0:0:
256,192,147956,1,0,0:0:0:0:
256,192,148196,1,0,0:0:0:0:
256,192,148436,1,0,0:0:0:0:
256,192,148676,1,8,0:0:0:0:
256,192,149156,1,4,0:0:0:0:
256,192,149396,1,8,0:0:0:0:
256,192,149516,1,0,0:0:0:0:
256,192,149636,1,8,0:0:0:0:
256,192,149876,1,8,0:0:0:0:
256,192,149996,1,0,0:0:0:0:
256,192,150116,1,0,0:0:0:0:
256,192,150356,1,0,0:0:0:0:
256,192,150476,1,8,0:0:0:0:
256,192,150596,1,8,0:0:0:0:
256,192,150836,1,0,0:0:0:0:
256,192,151076,1,8,0:0:0:0:
256,192,151556,1,0,0:0:0:0:
256,192,152036,1,8,0:0:0:0:
256,192,152276,1,0,0:0:0:0:
256,192,152516,1,8,0:0:0:0:
256,192,152996,5,0,0:0:0:0:
256,192,153156,1,8,0:0:0:0:
256,192,153236,1,8,0:0:0:0:
256,192,153356,1,8,0:0:0:0:
256,192,153476,1,8,0:0:0:0:
256,192,154916,1,0,0:0:0:0:
256,192,156836,1,0,0:0:0:0:
256,192,156996,1,8,0:0:0:0:
256,192,157076,1,8,0:0:0:0:
256,192,157196,1,8,0:0:0:0:
256,192,157316,1,8,0:0:0:0:
256,192,158756,1,0,0:0:0:0:
256,192,158916,1,8,0:0:0:0:
256,192,158996,1,8,0:0:0:0:
256,192,159116,1,8,0:0:0:0:
256,192,159236,1,8,0:0:0:0:
256,192,159716,1,0,0:0:0:0:
256,192,159956,1,0,0:0:0:0:
256,192,160076,1,8,0:0:0:0:
256,192,160196,1,8,0:0:0:0:
256,192,160436,1,0,0:0:0:0:
256,192,160676,1,4,0:0:0:0:
256,192,161156,1,12,0:0:0:0:
256,192,162596,1,0,0:0:0:0:
256,192,163556,1,0,0:0:0:0:
256,192,163796,1,0,0:0:0:0:
256,192,164036,1,8,0:0:0:0:
256,192,164276,1,0,0:0:0:0:
256,192,164516,1,4,0:0:0:0:
256,192,164996,1,12,0:0:0:0:
256,192,166436,1,0,0:0:0:0:
256,192,168356,1,4,0:0:0:0:
256,192,168836,1,12,0:0:0:0:
256,192,169316,1,8,0:0:0:0:
256,192,169476,1,8,0:0:0:0:
256,192,169556,1,8,0:0:0:0:
256,192,169676,1,8,0:0:0:0:
256,192,169796,1,8,0:0:0:0:
256,192,170276,1,0,0:0:0:0:
256,192,171236,1,0,0:0:0:0:
256,192,171476,1,0,0:0:0:0:
256,192,171716,1,8,0:0:0:0:
256,192,172196,1,4,0:0:0:0:
256,192,172676,1,12,0:0:0:0:
256,192,173156,1,0,0:0:0:0:
256,192,173396,1,8,0:0:0:0:
256,192,173516,1,8,0:0:0:0:
256,192,173636,1,8,0:0:0:0:
256,192,173876,1,0,0:0:0:0:
256,192,173996,1,0,0:0:0:0:
256,192,174116,1,0,0:0:0:0:
256,192,174356,1,8,0:0:0:0:
256,192,174476,1,0,0:0:0:0:
256,192,174596,1,8,0:0:0:0:
256,192,175076,1,0,0:0:0:0:
256,192,175316,1,0,0:0:0:0:
256,192,175436,1,0,0:0:0:0:
256,192,175556,1,8,0:0:0:0:
256,192,176036,5,4,0:0:0:0:
256,192,176516,1,12,0:0:0:0:
256,192,177236,1,0,0:0:0:0:
256,192,177476,1,8,0:0:0:0:
256,192,177716,1,8,0:0:0:0:
256,192,177956,1,0,0:0:0:0:
256,192,179876,1,0,0:0:0:0:
256,192,180356,1,8,0:0:0:0:
256,192,180836,1,0,0:0:0:0:
256,192,181076,1,8,0:0:0:0:
256,192,181556,1,8,0:0:0:0:
256,192,181676,1,8,0:0:0:0:
256,192,181796,1,0,0:0:0:0:
256,192,182276,1,8,0:0:0:0:
256,192,182756,1,0,0:0:0:0:
256,192,182996,1,0,0:0:0:0:
256,192,183236,1,8,0:0:0:0:
256,192,183716,1,0,0:0:0:0:
256,192,184196,1,8,0:0:0:0:
256,192,184916,1,0,0:0:0:0:
256,192,185156,1,8,0:0:0:0:
256,192,185396,1,8,0:0:0:0:
256,192,185636,1,0,0:0:0:0:
256,192,185876,1,0,0:0:0:0:
256,192,186116,1,0,0:0:0:0:
256,192,186356,1,8,0:0:0:0:
256,192,186596,1,8,0:0:0:0:
256,192,186836,1,8,0:0:0:0:
256,192,187556,1,0,0:0:0:0:
256,192,188036,1,8,0:0:0:0:
256,192,188516,1,0,0:0:0:0:
256,192,188756,1,0,0:0:0:0:
256,192,188996,1,8,0:0:0:0:
256,192,189236,1,8,0:0:0:0:
256,192,189476,1,0,0:0:0:0:
256,192,189956,1,8,0:0:0:0:
256,192,190196,1,0,0:0:0:0:
256,192,190316,1,0,0:0:0:0:
256,192,190436,1,8,0:0:0:0:
256,192,190556,1,8,0:0:0:0:
256,192,190676,1,8,0:0:0:0:
256,192,190916,1,8,0:0:0:0:
256,192,191156,1,0,0:0:0:0:
256,192,191396,5,12,0:0:0:0:
256,192,191876,1,8,0:0:0:0:
256,192,192116,1,8,0:0:0:0:
256,192,192356,1,0,0:0:0:0:
256,192,192596,1,0,0:0:0:0:
256,192,192836,1,8,0:0:0:0:
256,192,193076,1,0,0:0:0:0:
256,192,193316,1,0,0:0:0:0:
256,192,193796,1,8,0:0:0:0:
256,192,194036,1,8,0:0:0:0:
256,192,194276,1,0,0:0:0:0:
256,192,194516,1,0,0:0:0:0:
256,192,194756,1,8,0:0:0:0:
256,192,194996,1,0,0:0:0:0:
256,192,195236,1,0,0:0:0:0:
256,192,195716,1,8,0:0:0:0:
256,192,195956,1,0,0:0:0:0:
256,192,196196,1,0,0:0:0:0:
256,192,196676,1,8,0:0:0:0:
256,192,196916,1,0,0:0:0:0:
256,192,197156,1,12,0:0:0:0:
256,192,197636,1,8,0:0:0:0:
256,192,197876,1,0,0:0:0:0:
256,192,197996,1,0,0:0:0:0:
256,192,198116,1,8,0:0:0:0:
256,192,198356,1,0,0:0:0:0:
256,192,198596,1,8,0:0:0:0:
256,192,198836,1,0,0:0:0:0:
256,192,199076,1,4,0:0:0:0:
256,192,199556,1,8,0:0:0:0:
256,192,199796,1,0,0:0:0:0:
256,192,200036,1,0,0:0:0:0:
256,192,200276,1,0,0:0:0:0:
256,192,200516,1,8,0:0:0:0:
256,192,200756,1,0,0:0:0:0:
256,192,200996,1,0,0:0:0:0:
256,192,201236,1,8,0:0:0:0:
256,192,201476,1,8,0:0:0:0:
256,192,201956,1,0,0:0:0:0:
256,192,202196,1,0,0:0:0:0:
256,192,202436,1,8,0:0:0:0:
256,192,202676,1,8,0:0:0:0:
256,192,202916,1,4,0:0:0:0:
256,192,203156,1,8,0:0:0:0:
256,192,203276,1,0,0:0:0:0:
256,192,203396,1,8,0:0:0:0:
256,192,203636,1,8,0:0:0:0:
256,192,203756,1,0,0:0:0:0:
256,192,203876,1,0,0:0:0:0:
256,192,204116,1,0,0:0:0:0:
256,192,204236,1,8,0:0:0:0:
256,192,204356,1,8,0:0:0:0:
256,192,204596,1,0,0:0:0:0:
256,192,204836,1,12,0:0:0:0:
256,192,205316,1,8,0:0:0:0:
256,192,205556,1,0,0:0:0:0:
256,192,205676,1,0,0:0:0:0:
256,192,205796,1,8,0:0:0:0:
256,192,206036,1,0,0:0:0:0:
256,192,206276,1,8,0:0:0:0:
256,192,206516,1,0,0:0:0:0:
256,192,206756,5,12,0:0:0:0:
256,192,207236,1,8,0:0:0:0:
256,192,207476,1,8,0:0:0:0:
256,192,207716,1,0,0:0:0:0:
256,192,207956,1,0,0:0:0:0:
256,192,208196,1,8,0:0:0:0:
256,192,208436,1,0,0:0:0:0:
256,192,208676,1,8,0:0:0:0:
256,192,209156,1,8,0:0:0:0:
256,192,209636,1,0,0:0:0:0:
256,192,209876,1,0,0:0:0:0:
256,192,210116,1,8,0:0:0:0:
256,192,210356,1,8,0:0:0:0:
256,192,210596,1,8,0:0:0:0:
256,192,211076,1,8,0:0:0:0:
256,192,211316,1,8,0:0:0:0:
256,192,211556,1,0,0:0:0:0:
256,192,211796,1,0,0:0:0:0:
256,192,211916,1,0,0:0:0:0:
256,192,212036,1,8,0:0:0:0:
256,192,212516,1,12,0:0:0:0:
256,192,212996,1,8,0:0:0:0:
256,192,213236,1,0,0:0:0:0:
256,192,213356,1,0,0:0:0:0:
256,192,213476,1,8,0:0:0:0:
256,192,213716,1,0,0:0:0:0:
256,192,213956,1,8,0:0:0:0:
256,192,214196,1,0,0:0:0:0:
256,192,214436,1,4,0:0:0:0:
256,192,214916,1,8,0:0:0:0:
256,192,215156,1,8,0:0:0:0:
256,192,215396,1,0,0:0:0:0:
256,192,215636,1,0,0:0:0:0:
256,192,215876,1,8,0:0:0:0:
256,192,216116,1,8,0:0:0:0:
256,192,216356,1,8,0:0:0:0:
256,192,216596,1,8,0:0:0:0:
256,192,216836,1,0,0:0:0:0:
256,192,217076,1,0,0:0:0:0:
256,192,217316,1,0,0:0:0:0:
256,192,217556,1,0,0:0:0:0:
256,192,217796,1,8,0:0:0:0:
256,192,218276,1,0,0:0:0:0:
256,192,218396,1,0,0:0:0:0:
256,192,218516,1,8,0:0:0:0:
256,192,218636,1,8,0:0:0:0:
256,192,218756,1,0,0:0:0:0:
256,192,218996,1,8,0:0:0:0:
256,192,219116,1,8,0:0:0:0:
256,192,219236,1,0,0:0:0:0:
256,192,219476,1,0,0:0:0:0:
256,192,219596,1,8,0:0:0:0:
256,192,219716,1,8,0:0:0:0:
256,192,219956,1,0,0:0:0:0:
256,192,220196,1,8,0:0:0:0:
256,192,220676,1,8,0:0:0:0:
256,192,220916,1,0,0:0:0:0:
256,192,221036,1,0,0:0:0:0:
256,192,221156,1,8,0:0:0:0:
256,192,221396,1,0,0:0:0:0:
256,192,221636,1,12,0:0:0:0:
256,192,221876,1,12,0:0:0:0:
256,192,222116,5,0,0:0:0:0:
256,192,222236,1,0,0:0:0:0:
256,192,222356,1,8,0:0:0:0:
256,192,222476,1,0,0:0:0:0:
256,192,222596,1,8,0:0:0:0:
256,192,222836,1,0,0:0:0:0:
256,192,222956,1,8,0:0:0:0:
256,192,223076,1,0,0:0:0:0:
256,192,223316,1,8,0:0:0:0:
256,192,223436,1,0,0:0:0:0:
256,192,223556,1,8,0:0:0:0:
256,192,223796,1,0,0:0:0:0:
256,192,224036,1,0,0:0:0:0:
256,192,224156,1,0,0:0:0:0:
256,192,224276,1,8,0:0:0:0:
256,192,224396,1,0,0:0:0:0:
256,192,224516,1,8,0:0:0:0:
256,192,224756,1,0,0:0:0:0:
256,192,224876,1,8,0:0:0:0:
256,192,224996,1,0,0:0:0:0:
256,192,225236,1,8,0:0:0:0:
256,192,225476,1,8,0:0:0:0:
256,192,225636,1,8,0:0:0:0:
256,192,225796,1,0,0:0:0:0:
256,192,225956,5,0,0:0:0:0:
256,192,226076,1,0,0:0:0:0:
256,192,226196,1,8,0:0:0:0:
256,192,226436,1,8,0:0:0:0:
256,192,226596,1,8,0:0:0:0:
256,192,226756,1,0,0:0:0:0:
256,192,226916,1,0,0:0:0:0:
256,192,227036,1,0,0:0:0:0:
256,192,227156,1,8,0:0:0:0:
256,192,227396,1,8,0:0:0:0:
256,192,227556,1,8,0:0:0:0:
256,192,227716,1,0,0:0:0:0:
256,192,227876,1,0,0:0:0:0:
256,192,227996,1,0,0:0:0:0:
256,192,228116,1,8,0:0:0:0:
256,192,228356,1,8,0:0:0:0:
256,192,228476,1,8,0:0:0:0:
256,192,228596,1,0,0:0:0:0:
256,192,228716,1,8,0:0:0:0:
256,192,228836,1,0,0:0:0:0:
256,192,229076,1,8,0:0:0:0:
256,192,229316,1,8,0:0:0:0:
256,192,229436,1,8,0:0:0:0:
256,192,229556,1,0,0:0:0:0:
256,192,229796,5,0,0:0:0:0:
256,192,229916,1,0,0:0:0:0:
256,192,230036,1,8,0:0:0:0:
256,192,230156,1,0,0:0:0:0:
256,192,230276,1,8,0:0:0:0:
256,192,230516,1,0,0:0:0:0:
256,192,230636,1,8,0:0:0:0:
256,192,230756,1,0,0:0:0:0:
256,192,230996,1,8,0:0:0:0:
256,192,231116,1,0,0:0:0:0:
256,192,231236,1,8,0:0:0:0:
256,192,231476,1,0,0:0:0:0:
256,192,231716,1,0,0:0:0:0:
256,192,231876,1,0,0:0:0:0:
256,192,232036,1,8,0:0:0:0:
256,192,232196,1,8,0:0:0:0:
256,192,232356,1,8,0:0:0:0:
256,192,232516,1,0,0:0:0:0:
256,192,232676,1,0,0:0:0:0:
256,192,232836,1,0,0:0:0:0:
256,192,232996,1,8,0:0:0:0:
256,192,233156,1,8,0:0:0:0:
256,192,233396,1,0,0:0:0:0:
256,192,233636,5,0,0:0:0:0:
256,192,233756,1,0,0:0:0:0:
256,192,233876,1,8,0:0:0:0:
256,192,233996,1,0,0:0:0:0:
256,192,234116,1,8,0:0:0:0:
256,192,234356,1,0,0:0:0:0:
256,192,234596,1,0,0:0:0:0:
256,192,234756,1,0,0:0:0:0:
256,192,234916,1,8,0:0:0:0:
256,192,235076,1,8,0:0:0:0:
256,192,235556,1,12,0:0:0:0:
256,192,236036,1,4,0:0:0:0:
256,192,236516,1,12,0:0:0:0:
