osu file format v14

[General]
AudioFilename: audio.mp3
AudioLeadIn: 0
PreviewTime: 63650
Countdown: 0
SampleSet: Normal
StackLeniency: 0.7
Mode: 1
LetterboxInBreaks: 0
WidescreenStoryboard: 0

[Editor]
DistanceSpacing: 0.9
BeatDivisor: 8
GridSize: 4
TimelineZoom: 1.8

[Metadata]
Title:Grand Guignol
TitleUnicode:Grand Guignol
Artist:Bajofondo
ArtistUnicode:Bajofondo
Creator:Midnaait
Version:Puppeteer
Source:
Tags:Tango Club Mar Dulce Fusion 2007 Argentina Uruguay
BeatmapID:1850913
BeatmapSetID:885583

[Difficulty]
HPDrainRate:5.5
CircleSize:3
OverallDifficulty:6.2
ApproachRate:8
SliderMultiplier:1.4
SliderTickRate:1

[Events]
//Background and Video events
0,0,"bgg.jpg",0,112
//Break Periods
//Storyboard Layer 0 (Background)
//Storyboard Layer 1 (Fail)
//Storyboard Layer 2 (Pass)
//Storyboard Layer 3 (Foreground)
//Storyboard Sound Samples

[TimingPoints]
350,480,4,1,0,15,1,0
2150,-100,4,1,0,45,0,0
2270,480,4,1,0,45,1,0
9830,-100,4,1,0,90,0,0
10190,-100,4,1,0,70,0,0
17510,-100,4,1,0,80,0,0
63710,-100,4,1,0,90,0,1
79070,-100,4,1,0,80,0,0
109790,-100,4,1,0,90,0,1
125150,-100,4,1,0,90,0,0
125270,-100,4,1,0,15,0,0
132230,-100,4,1,0,60,0,0
132710,-100,4,1,0,90,0,0
133070,-100,4,1,0,70,0,0
140450,-100,4,1,0,80,0,0
171350,-100,4,1,0,65,0,0
186290,-100,4,1,0,90,0,0
186590,-100,4,1,0,90,0,1
232670,-100,4,1,0,80,0,0
275090,-100,4,1,0,50,0,0
282530,-100,4,1,0,70,0,0
286370,-100,4,1,0,80,0,0
290390,-100,4,1,0,20,0,0

[HitObjects]
256,192,350,8,0,2030,0:0:0:0:
127,109,2270,5,0,0:0:0:0:
127,109,2390,1,8,0:0:0:0:
127,109,2630,1,0,0:0:0:0:
127,109,2990,1,0,0:0:0:0:
127,109,3230,1,0,0:0:0:0:
127,109,3350,1,0,0:0:0:0:
127,109,3590,1,0,0:0:0:0:
127,109,3950,1,8,0:0:0:0:
127,109,4190,1,0,0:0:0:0:
127,109,4310,1,8,0:0:0:0:
127,109,4550,1,0,0:0:0:0:
127,109,4910,1,0,0:0:0:0:
127,109,5150,1,8,0:0:0:0:
127,109,5270,1,0,0:0:0:0:
127,109,5510,1,0,0:0:0:0:
127,109,5870,1,8,0:0:0:0:
130,100,6110,1,0,0:0:0:0:
130,100,6230,1,8,0:0:0:0:
130,100,6470,1,8,0:0:0:0:
130,100,6590,1,0,0:0:0:0:
130,100,6830,1,8,0:0:0:0:
130,100,7070,1,0,0:0:0:0:
130,100,7190,1,0,0:0:0:0:
130,100,7430,1,0,0:0:0:0:
130,100,7790,1,0,0:0:0:0:
130,100,8030,1,0,0:0:0:0:
130,100,8150,1,8,0:0:0:0:
130,100,8390,1,8,0:0:0:0:
130,100,8510,1,0,0:0:0:0:
130,100,8750,1,8,0:0:0:0:
130,100,8990,1,0,0:0:0:0:
130,100,9110,1,0,0:0:0:0:
130,100,9350,1,0,0:0:0:0:
117,92,9470,1,8,0:0:0:0:
118,92,9590,1,8,0:0:0:0:
130,100,9710,1,0,0:0:0:0:
130,100,9950,1,4,0:0:0:0:
130,100,10310,1,0,0:0:0:0:
130,100,10430,1,8,0:0:0:0:
130,100,10670,1,0,0:0:0:0:
130,100,10910,1,0,0:0:0:0:
119,93,11030,1,0,0:0:0:0:
130,100,11270,1,0,0:0:0:0:
130,100,11390,1,8,0:0:0:0:
130,100,11630,1,0,0:0:0:0:
130,100,11870,1,0,0:0:0:0:
112,94,11990,1,0,0:0:0:0:
130,100,12230,1,0,0:0:0:0:
130,100,12350,1,8,0:0:0:0:
130,100,12590,1,0,0:0:0:0:
130,100,12830,1,12,0:0:0:0:
130,100,13190,1,12,0:0:0:0:
130,100,13550,1,12,0:0:0:0:
130,100,13790,1,4,0:0:0:0:
130,100,14150,1,0,0:0:0:0:
130,100,14270,1,8,0:0:0:0:
130,100,14510,1,0,0:0:0:0:
130,100,14750,1,0,0:0:0:0:
130,100,14870,1,0,0:0:0:0:
130,100,15110,1,0,0:0:0:0:
130,100,15230,1,8,0:0:0:0:
130,100,15470,1,0,0:0:0:0:
124,97,15590,1,0,0:0:0:0:
130,100,15710,1,8,0:0:0:0:
130,100,15830,1,0,0:0:0:0:
130,100,16070,1,0,0:0:0:0:
130,100,16190,1,8,0:0:0:0:
130,100,16430,1,0,0:0:0:0:
130,100,16670,1,8,0:0:0:0:
130,100,16790,1,8,0:0:0:0:
130,100,17030,1,0,0:0:0:0:
130,100,17150,1,8,0:0:0:0:
130,100,17390,1,0,0:0:0:0:
130,100,17630,1,4,0:0:0:0:
130,100,17870,1,8,0:0:0:0:
130,100,18110,1,8,0:0:0:0:
130,100,18230,1,8,0:0:0:0:
130,100,18350,1,0,0:0:0:0:
130,100,18590,1,0,0:0:0:0:
130,100,18710,1,0,0:0:0:0:
130,100,18950,1,0,0:0:0:0:
130,100,19070,1,8,0:0:0:0:
130,100,19310,1,8,0:0:0:0:
130,100,19550,1,0,0:0:0:0:
130,100,19910,1,0,0:0:0:0:
130,100,20030,1,8,0:0:0:0:
130,100,20270,1,0,0:0:0:0:
130,100,20510,1,12,0:0:0:0:
130,100,20870,1,12,0:0:0:0:
130,100,21230,1,12,0:0:0:0:
130,100,21470,1,4,0:0:0:0:
130,100,21710,1,8,0:0:0:0:
134,103,21950,1,8,0:0:0:0:
134,103,22070,1,8,0:0:0:0:
134,103,22190,1,0,0:0:0:0:
134,103,22430,1,0,0:0:0:0:
134,103,22550,1,0,0:0:0:0:
134,103,22790,1,0,0:0:0:0:
134,104,22910,1,8,0:0:0:0:
134,103,23150,1,0,0:0:0:0:
134,103,23390,1,8,0:0:0:0:
134,103,23750,1,0,0:0:0:0:
134,104,23870,1,8,0:0:0:0:
134,103,24110,1,0,0:0:0:0:
134,103,24350,1,8,0:0:0:0:
134,103,24710,1,0,0:0:0:0:
134,104,24830,1,8,0:0:0:0:
134,103,25070,1,8,0:0:0:0:
152,98,25150,1,8,0:0:0:0:
151,98,25230,1,8,0:0:0:0:
134,103,25310,1,0,0:0:0:0:
121,93,25550,1,8,0:0:0:0:
121,92,25790,1,8,0:0:0:0:
121,92,25910,1,8,0:0:0:0:
122,93,26150,1,8,0:0:0:0:
122,93,26270,1,8,0:0:0:0:
121,93,26510,1,0,0:0:0:0:
121,92,26750,1,8,0:0:0:0:
122,93,26990,1,0,0:0:0:0:
122,93,27110,1,8,0:0:0:0:
122,93,27230,1,0,0:0:0:0:
121,92,27590,1,0,0:0:0:0:
121,92,27710,1,8,0:0:0:0:
122,93,27950,1,0,0:0:0:0:
122,93,28190,1,12,0:0:0:0:
121,92,28550,1,12,0:0:0:0:
122,93,28910,1,12,0:0:0:0:
121,85,29150,1,4,0:0:0:0:
121,92,29510,1,0,0:0:0:0:
121,92,29630,1,8,0:0:0:0:
118,88,29870,1,0,0:0:0:0:
121,85,29990,1,0,0:0:0:0:
121,85,30110,1,8,0:0:0:0:
120,84,30230,1,8,0:0:0:0:
122,93,30350,1,0,0:0:0:0:
120,84,30430,1,0,0:0:0:0:
124,83,30510,1,0,0:0:0:0:
120,84,30590,1,8,0:0:0:0:
120,84,30710,1,0,0:0:0:0:
118,88,30830,1,8,0:0:0:0:
121,85,30950,1,8,0:0:0:0:
121,85,31070,1,8,0:0:0:0:
124,80,31310,1,0,0:0:0:0:
124,80,31390,1,0,0:0:0:0:
113,83,31470,1,8,0:0:0:0:
124,80,31550,1,8,0:0:0:0:
123,80,31790,1,0,0:0:0:0:
121,85,32030,1,8,0:0:0:0:
124,80,32150,1,0,0:0:0:0:
124,80,32390,1,0,0:0:0:0:
124,80,32510,1,8,0:0:0:0:
123,80,32630,1,8,0:0:0:0:
123,80,32750,1,0,0:0:0:0:
121,85,32990,1,4,0:0:0:0:
103,93,33230,1,8,0:0:0:0:
130,100,33350,1,0,0:0:0:0:
130,100,33470,1,8,0:0:0:0:
130,100,33710,1,0,0:0:0:0:
130,100,33950,1,8,0:0:0:0:
119,93,34070,1,8,0:0:0:0:
130,100,34310,1,0,0:0:0:0:
130,100,34430,1,8,0:0:0:0:
127,81,34550,1,8,0:0:0:0:
130,100,34670,1,0,0:0:0:0:
130,100,34910,1,8,0:0:0:0:
112,94,35030,1,0,0:0:0:0:
130,100,35270,1,0,0:0:0:0:
130,100,35390,1,8,0:0:0:0:
130,100,35630,1,0,0:0:0:0:
130,100,35870,1,8,0:0:0:0:
127,91,36110,1,0,0:0:0:0:
130,100,36230,1,8,0:0:0:0:
127,91,36350,1,0,0:0:0:0:
130,100,36590,1,8,0:0:0:0:
130,100,36830,1,4,0:0:0:0:
128,78,37070,1,8,0:0:0:0:
130,100,37190,1,0,0:0:0:0:
130,100,37310,1,8,0:0:0:0:
130,100,37550,1,0,0:0:0:0:
130,100,37790,1,0,0:0:0:0:
130,100,37910,1,0,0:0:0:0:
130,100,38150,1,0,0:0:0:0:
130,100,38270,1,8,0:0:0:0:
130,100,38510,1,0,0:0:0:0:
124,97,38630,1,0,0:0:0:0:
130,100,38750,1,8,0:0:0:0:
130,100,38870,1,0,0:0:0:0:
130,100,39110,1,0,0:0:0:0:
130,100,39230,1,8,0:0:0:0:
130,100,39470,1,0,0:0:0:0:
130,100,39710,1,8,0:0:0:0:
130,100,39830,1,0,0:0:0:0:
130,100,40070,1,0,0:0:0:0:
130,100,40190,1,8,0:0:0:0:
127,70,40310,1,8,0:0:0:0:
130,100,40430,1,0,0:0:0:0:
130,100,40670,1,4,0:0:0:0:
130,100,40910,1,8,0:0:0:0:
130,100,41030,1,0,0:0:0:0:
130,100,41150,1,8,0:0:0:0:
154,93,41270,1,8,0:0:0:0:
130,100,41510,1,8,0:0:0:0:
130,100,41630,1,0,0:0:0:0:
130,100,41870,1,0,0:0:0:0:
130,100,42110,1,8,0:0:0:0:
130,100,42350,1,8,0:0:0:0:
130,100,42470,1,8,0:0:0:0:
130,100,42590,1,0,0:0:0:0:
130,100,42950,1,0,0:0:0:0:
130,100,43070,1,8,0:0:0:0:
109,98,43190,1,8,0:0:0:0:
135,106,43310,1,0,0:0:0:0:
109,98,43430,1,0,0:0:0:0:
130,100,43550,1,8,0:0:0:0:
125,92,43790,1,0,0:0:0:0:
130,100,43910,1,8,0:0:0:0:
128,90,44030,1,0,0:0:0:0:
128,90,44150,1,0,0:0:0:0:
130,100,44270,1,8,0:0:0:0:
130,100,44510,1,4,0:0:0:0:
121,92,44870,1,0,0:0:0:0:
121,92,44990,1,8,0:0:0:0:
118,88,45230,1,0,0:0:0:0:
121,85,45350,1,0,0:0:0:0:
121,85,45470,1,8,0:0:0:0:
120,84,45590,1,0,0:0:0:0:
120,84,45830,1,0,0:0:0:0:
120,84,45950,1,8,0:0:0:0:
120,84,46070,1,8,0:0:0:0:
121,85,46310,1,0,0:0:0:0:
121,85,46430,1,8,0:0:0:0:
124,80,46670,1,0,0:0:0:0:
124,80,46750,1,8,0:0:0:0:
113,83,46830,1,8,0:0:0:0:
124,80,46910,1,8,0:0:0:0:
123,80,47150,1,0,0:0:0:0:
121,85,47390,1,8,0:0:0:0:
124,80,47510,1,8,0:0:0:0:
124,80,47750,1,0,0:0:0:0:
124,80,47870,1,8,0:0:0:0:
123,80,47990,1,8,0:0:0:0:
123,80,48110,1,0,0:0:0:0:
121,85,48350,1,4,0:0:0:0:
140,88,48590,1,8,0:0:0:0:
140,88,48710,1,0,0:0:0:0:
140,88,48830,1,8,0:0:0:0:
141,90,49070,1,8,0:0:0:0:
141,90,49310,1,0,0:0:0:0:
140,88,49550,1,0,0:0:0:0:
140,88,49670,1,0,0:0:0:0:
140,88,49790,1,8,0:0:0:0:
141,90,50030,1,8,0:0:0:0:
141,90,50150,1,8,0:0:0:0:
141,90,50270,1,0,0:0:0:0:
136,91,50630,1,0,0:0:0:0:
136,91,50750,1,8,0:0:0:0:
136,91,50990,1,0,0:0:0:0:
136,91,51230,1,8,0:0:0:0:
136,91,51350,1,0,0:0:0:0:
136,91,51590,1,0,0:0:0:0:
136,91,51710,1,8,0:0:0:0:
136,91,51950,1,0,0:0:0:0:
136,91,52070,1,8,0:0:0:0:
136,91,52190,1,0,0:0:0:0:
136,91,52430,1,8,0:0:0:0:
136,91,52550,1,0,0:0:0:0:
136,91,52670,1,8,0:0:0:0:
136,91,52910,1,0,0:0:0:0:
136,91,53150,1,8,0:0:0:0:
136,91,53270,1,8,0:0:0:0:
136,91,53510,1,0,0:0:0:0:
136,91,53630,1,8,0:0:0:0:
136,91,53870,1,0,0:0:0:0:
136,91,53990,1,8,0:0:0:0:
136,91,54110,1,0,0:0:0:0:
136,91,54470,1,0,0:0:0:0:
136,91,54590,1,8,0:0:0:0:
136,91,54830,1,0,0:0:0:0:
136,91,55070,1,8,0:0:0:0:
136,91,55190,1,0,0:0:0:0:
136,91,55430,1,0,0:0:0:0:
143,91,55550,1,8,0:0:0:0:
143,91,55670,1,8,0:0:0:0:
143,91,55790,1,0,0:0:0:0:
143,91,56030,1,0,0:0:0:0:
143,91,56270,1,8,0:0:0:0:
142,105,56390,1,0,0:0:0:0:
143,91,56510,1,8,0:0:0:0:
143,91,56750,1,8,0:0:0:0:
143,91,56990,1,0,0:0:0:0:
143,91,57230,1,0,0:0:0:0:
143,91,57350,1,8,0:0:0:0:
143,91,57470,1,8,0:0:0:0:
143,91,57710,1,8,0:0:0:0:
143,91,57830,1,0,0:0:0:0:
143,91,57950,1,0,0:0:0:0:
143,91,58310,1,0,0:0:0:0:
143,91,58430,1,8,0:0:0:0:
143,91,58670,1,0,0:0:0:0:
143,91,58910,1,8,0:0:0:0:
143,91,59030,1,0,0:0:0:0:
143,91,59270,1,0,0:0:0:0:
143,91,59390,1,8,0:0:0:0:
143,91,59510,1,8,0:0:0:0:
143,91,59630,1,0,0:0:0:0:
131,92,59870,1,0,0:0:0:0:
142,114,60110,1,0,0:0:0:0:
128,110,60230,1,0,0:0:0:0:
142,114,60350,1,8,0:0:0:0:
142,114,60590,1,0,0:0:0:0:
142,114,60710,1,0,0:0:0:0:
142,113,60830,1,8,0:0:0:0:
142,114,60950,1,8,0:0:0:0:
142,114,61070,1,0,0:0:0:0:
142,114,61190,1,8,0:0:0:0:
142,114,61310,1,8,0:0:0:0:
142,114,61550,1,0,0:0:0:0:
142,114,61630,1,0,0:0:0:0:
139,117,61710,1,0,0:0:0:0:
142,113,61790,1,8,0:0:0:0:
154,119,61910,1,0,0:0:0:0:
137,112,62030,1,8,0:0:0:0:
134,133,62150,1,8,0:0:0:0:
142,114,62270,1,8,0:0:0:0:
142,114,62510,1,8,0:0:0:0:
142,113,62750,1,0,0:0:0:0:
142,114,63110,1,0,0:0:0:0:
142,114,63230,1,8,0:0:0:0:
136,112,63470,1,8,0:0:0:0:
136,112,63710,1,4,0:0:0:0:
142,114,64070,1,0,0:0:0:0:
142,114,64190,1,8,0:0:0:0:
142,112,64430,1,0,0:0:0:0:
145,107,64670,1,12,0:0:0:0:
142,114,65030,1,8,0:0:0:0:
142,114,65150,1,0,0:0:0:0:
142,112,65390,1,8,0:0:0:0:
143,114,65510,1,8,0:0:0:0:
145,107,65630,1,4,0:0:0:0:
142,114,65990,1,0,0:0:0:0:
142,114,66110,1,8,0:0:0:0:
142,112,66350,1,0,0:0:0:0:
143,114,66470,1,0,0:0:0:0:
145,107,66590,1,12,0:0:0:0:
142,114,66830,1,8,0:0:0:0:
142,114,66950,1,0,0:0:0:0:
142,114,67070,1,0,0:0:0:0:
142,112,67190,1,8,0:0:0:0:
142,112,67310,1,0,0:0:0:0:
145,107,67550,1,4,0:0:0:0:
142,114,67910,1,0,0:0:0:0:
142,114,68030,1,8,0:0:0:0:
142,112,68270,1,0,0:0:0:0:
145,107,68510,1,12,0:0:0:0:
142,114,68870,1,8,0:0:0:0:
142,114,68990,1,0,0:0:0:0:
142,112,69230,1,8,0:0:0:0:
142,113,69350,1,8,0:0:0:0:
145,107,69470,1,4,0:0:0:0:
142,114,69830,1,0,0:0:0:0:
142,114,69950,1,8,0:0:0:0:
146,112,70070,1,8,0:0:0:0:
142,112,70190,1,0,0:0:0:0:
145,107,70430,1,12,0:0:0:0:
146,112,70790,1,0,0:0:0:0:
145,107,70910,1,12,0:0:0:0:
146,112,71150,1,0,0:0:0:0:
145,107,71390,1,4,0:0:0:0:
140,121,71750,1,0,0:0:0:0:
140,121,71870,1,8,0:0:0:0:
140,121,72110,1,0,0:0:0:0:
145,107,72350,1,12,0:0:0:0:
140,121,72710,1,8,0:0:0:0:
140,121,72830,1,0,0:0:0:0:
140,121,73070,1,8,0:0:0:0:
140,121,73190,1,8,0:0:0:0:
145,107,73310,1,4,0:0:0:0:
140,121,73670,1,0,0:0:0:0:
140,121,73790,1,8,0:0:0:0:
140,121,74030,1,0,0:0:0:0:
140,127,74150,1,0,0:0:0:0:
145,107,74270,1,12,0:0:0:0:
140,121,74510,1,0,0:0:0:0:
140,121,74630,1,8,0:0:0:0:
140,121,74750,1,8,0:0:0:0:
140,121,74990,1,8,0:0:0:0:
147,112,75110,1,8,0:0:0:0:
145,107,75230,1,4,0:0:0:0:
140,121,75590,1,0,0:0:0:0:
140,121,75710,1,8,0:0:0:0:
140,121,75950,1,0,0:0:0:0:
145,107,76190,1,12,0:0:0:0:
140,121,76550,1,8,0:0:0:0:
140,121,76670,1,0,0:0:0:0:
140,121,76910,1,8,0:0:0:0:
140,121,77030,1,8,0:0:0:0:
145,107,77150,1,4,0:0:0:0:
140,121,77510,1,8,0:0:0:0:
145,107,77630,1,4,0:0:0:0:
140,121,77870,1,0,0:0:0:0:
140,126,77990,1,0,0:0:0:0:
145,107,78110,1,12,0:0:0:0:
140,121,78470,1,0,0:0:0:0:
145,107,78590,1,12,0:0:0:0:
140,121,78830,1,8,0:0:0:0:
140,126,78950,1,8,0:0:0:0:
137,103,79070,1,4,0:0:0:0:
145,118,79310,1,0,0:0:0:0:
134,119,79390,1,0,0:0:0:0:
138,113,79470,1,0,0:0:0:0:
145,118,79550,1,8,0:0:0:0:
145,119,79790,1,0,0:0:0:0:
141,121,80030,1,0,0:0:0:0:
131,122,80150,1,8,0:0:0:0:
145,118,80270,1,0,0:0:0:0:
145,118,80510,1,8,0:0:0:0:
145,119,80750,1,8,0:0:0:0:
141,121,80990,1,0,0:0:0:0:
145,118,81230,1,0,0:0:0:0:
132,122,81350,1,0,0:0:0:0:
145,118,81470,1,8,0:0:0:0:
145,119,81710,1,0,0:0:0:0:
141,121,81950,1,8,0:0:0:0:
141,121,82070,1,0,0:0:0:0:
145,118,82190,1,8,0:0:0:0:
145,118,82430,1,8,0:0:0:0:
145,119,82670,1,8,0:0:0:0:
132,122,82790,1,8,0:0:0:0:
141,121,82910,1,0,0:0:0:0:
145,118,83150,1,0,0:0:0:0:
145,118,83230,1,0,0:0:0:0:
159,130,83310,1,8,0:0:0:0:
145,118,83390,1,8,0:0:0:0:
145,119,83630,1,0,0:0:0:0:
141,121,83870,1,8,0:0:0:0:
159,134,83990,1,8,0:0:0:0:
145,118,84110,1,0,0:0:0:0:
145,118,84350,1,8,0:0:0:0:
145,119,84590,1,8,0:0:0:0:
87,63,84830,1,0,0:0:0:0:
87,63,85070,1,0,0:0:0:0:
87,63,85310,1,8,0:0:0:0:
87,63,85430,1,0,0:0:0:0:
87,63,85550,1,8,0:0:0:0:
68,60,85670,1,8,0:0:0:0:
156,111,85790,1,0,0:0:0:0:
156,111,85870,1,0,0:0:0:0:
156,111,85950,1,0,0:0:0:0:
156,111,86030,1,0,0:0:0:0:
132,113,86110,1,0,0:0:0:0:
135,112,86190,1,0,0:0:0:0:
134,112,86270,1,8,0:0:0:0:
156,111,86510,1,0,0:0:0:0:
156,111,86630,1,8,0:0:0:0:
156,111,86750,1,0,0:0:0:0:
145,118,86990,1,0,0:0:0:0:
134,119,87070,1,0,0:0:0:0:
138,113,87150,1,0,0:0:0:0:
145,118,87230,1,8,0:0:0:0:
145,119,87470,1,0,0:0:0:0:
141,121,87710,1,0,0:0:0:0:
131,122,87830,1,8,0:0:0:0:
145,118,87950,1,0,0:0:0:0:
145,118,88190,1,8,0:0:0:0:
145,119,88430,1,8,0:0:0:0:
141,121,88670,1,0,0:0:0:0:
145,118,88910,1,0,0:0:0:0:
132,122,89030,1,0,0:0:0:0:
145,118,89150,1,8,0:0:0:0:
145,119,89390,1,0,0:0:0:0:
141,121,89630,1,8,0:0:0:0:
141,121,89750,1,0,0:0:0:0:
145,118,89870,1,8,0:0:0:0:
145,118,90110,1,8,0:0:0:0:
145,119,90350,1,8,0:0:0:0:
132,122,90470,1,8,0:0:0:0:
141,121,90590,1,0,0:0:0:0:
145,118,90830,1,0,0:0:0:0:
145,118,90910,1,0,0:0:0:0:
159,130,90990,1,8,0:0:0:0:
145,118,91070,1,8,0:0:0:0:
145,119,91310,1,0,0:0:0:0:
141,121,91550,1,8,0:0:0:0:
159,134,91670,1,8,0:0:0:0:
145,118,91790,1,0,0:0:0:0:
145,118,92030,1,8,0:0:0:0:
145,119,92270,1,8,0:0:0:0:
87,63,92510,1,0,0:0:0:0:
87,63,92750,1,0,0:0:0:0:
87,63,92990,1,8,0:0:0:0:
87,63,93110,1,0,0:0:0:0:
87,63,93230,1,8,0:0:0:0:
68,60,93350,1,8,0:0:0:0:
156,111,93470,1,0,0:0:0:0:
156,111,93550,1,0,0:0:0:0:
156,111,93630,1,0,0:0:0:0:
156,111,93710,1,0,0:0:0:0:
132,113,93790,1,0,0:0:0:0:
135,112,93870,1,0,0:0:0:0:
134,112,93950,1,8,0:0:0:0:
156,111,94190,1,0,0:0:0:0:
156,111,94310,1,8,0:0:0:0:
121,85,94430,1,4,0:0:0:0:
140,88,94670,1,8,0:0:0:0:
140,88,94790,1,0,0:0:0:0:
140,88,94910,1,8,0:0:0:0:
141,90,95150,1,8,0:0:0:0:
141,90,95390,1,0,0:0:0:0:
140,88,95630,1,0,0:0:0:0:
140,88,95750,1,0,0:0:0:0:
140,88,95870,1,8,0:0:0:0:
141,90,96110,1,8,0:0:0:0:
141,90,96230,1,8,0:0:0:0:
141,90,96350,1,0,0:0:0:0:
136,91,96710,1,0,0:0:0:0:
136,91,96830,1,8,0:0:0:0:
152,89,96950,1,0,0:0:0:0:
136,91,97070,1,0,0:0:0:0:
136,91,97310,1,8,0:0:0:0:
136,91,97430,1,0,0:0:0:0:
136,91,97670,1,0,0:0:0:0:
136,91,97790,1,8,0:0:0:0:
136,91,98030,1,0,0:0:0:0:
136,91,98150,1,8,0:0:0:0:
136,91,98270,1,0,0:0:0:0:
136,91,98510,1,8,0:0:0:0:
136,91,98630,1,0,0:0:0:0:
136,91,98750,1,8,0:0:0:0:
116,86,98870,1,8,0:0:0:0:
136,91,98990,1,0,0:0:0:0:
136,91,99230,1,8,0:0:0:0:
136,91,99350,1,8,0:0:0:0:
136,91,99590,1,0,0:0:0:0:
136,91,99710,1,8,0:0:0:0:
136,91,99950,1,0,0:0:0:0:
136,91,100070,1,8,0:0:0:0:
136,91,100190,1,0,0:0:0:0:
140,101,100430,1,0,0:0:0:0:
136,91,100550,1,8,0:0:0:0:
136,91,100670,1,8,0:0:0:0:
136,91,100790,1,8,0:0:0:0:
136,91,100910,1,0,0:0:0:0:
136,91,101150,1,8,0:0:0:0:
136,91,101270,1,0,0:0:0:0:
136,91,101510,1,0,0:0:0:0:
143,91,101630,1,8,0:0:0:0:
143,91,101750,1,8,0:0:0:0:
143,91,101870,1,0,0:0:0:0:
140,93,101990,1,8,0:0:0:0:
143,91,102110,1,0,0:0:0:0:
143,91,102350,1,8,0:0:0:0:
142,105,102470,1,0,0:0:0:0:
143,91,102590,1,8,0:0:0:0:
143,91,102830,1,8,0:0:0:0:
143,91,103070,1,0,0:0:0:0:
143,91,103310,1,0,0:0:0:0:
143,91,103430,1,8,0:0:0:0:
143,91,103550,1,8,0:0:0:0:
143,91,103790,1,8,0:0:0:0:
143,91,103910,1,0,0:0:0:0:
143,91,104030,1,0,0:0:0:0:
143,91,104390,1,0,0:0:0:0:
143,91,104510,1,8,0:0:0:0:
143,91,104750,1,0,0:0:0:0:
143,91,104990,1,8,0:0:0:0:
143,91,105110,1,0,0:0:0:0:
143,91,105350,1,0,0:0:0:0:
143,91,105470,1,8,0:0:0:0:
143,91,105590,1,8,0:0:0:0:
143,91,105710,1,0,0:0:0:0:
131,92,105950,1,0,0:0:0:0:
128,110,106310,1,0,0:0:0:0:
142,114,106430,1,8,0:0:0:0:
142,114,106670,1,0,0:0:0:0:
142,114,106790,1,0,0:0:0:0:
142,113,106910,1,8,0:0:0:0:
142,114,107030,1,0,0:0:0:0:
142,114,107270,1,0,0:0:0:0:
142,114,107390,1,8,0:0:0:0:
142,114,107470,1,8,0:0:0:0:
142,114,107550,1,8,0:0:0:0:
142,114,107630,1,0,0:0:0:0:
139,117,107750,1,0,0:0:0:0:
142,113,107870,1,8,0:0:0:0:
154,119,107990,1,8,0:0:0:0:
134,133,108230,1,0,0:0:0:0:
142,114,108350,1,8,0:0:0:0:
93,114,108430,1,8,0:0:0:0:
134,117,108510,1,0,0:0:0:0:
142,114,108590,1,8,0:0:0:0:
142,113,108830,1,0,0:0:0:0:
142,114,109190,1,0,0:0:0:0:
142,114,109310,1,8,0:0:0:0:
136,112,109550,1,8,0:0:0:0:
135,132,109670,1,8,0:0:0:0:
136,112,109790,1,4,0:0:0:0:
142,114,110150,1,0,0:0:0:0:
142,114,110270,1,8,0:0:0:0:
142,112,110510,1,0,0:0:0:0:
145,107,110750,1,12,0:0:0:0:
142,114,111110,1,8,0:0:0:0:
142,114,111230,1,0,0:0:0:0:
142,112,111470,1,8,0:0:0:0:
143,114,111590,1,8,0:0:0:0:
145,107,111710,1,4,0:0:0:0:
142,114,112070,1,0,0:0:0:0:
142,114,112190,1,8,0:0:0:0:
142,112,112430,1,0,0:0:0:0:
143,114,112550,1,0,0:0:0:0:
145,107,112670,1,12,0:0:0:0:
142,114,112910,1,8,0:0:0:0:
142,114,113030,1,0,0:0:0:0:
142,114,113150,1,0,0:0:0:0:
142,112,113270,1,8,0:0:0:0:
142,112,113390,1,0,0:0:0:0:
145,107,113630,1,4,0:0:0:0:
142,114,113990,1,0,0:0:0:0:
142,114,114110,1,8,0:0:0:0:
142,112,114350,1,0,0:0:0:0:
145,107,114590,1,12,0:0:0:0:
142,114,114950,1,8,0:0:0:0:
142,114,115070,1,0,0:0:0:0:
142,112,115310,1,8,0:0:0:0:
142,113,115430,1,8,0:0:0:0:
145,107,115550,1,4,0:0:0:0:
142,114,115910,1,0,0:0:0:0:
142,114,116030,1,8,0:0:0:0:
146,112,116150,1,8,0:0:0:0:
142,112,116270,1,0,0:0:0:0:
145,107,116510,1,12,0:0:0:0:
146,112,116870,1,0,0:0:0:0:
145,107,116990,1,12,0:0:0:0:
146,112,117230,1,0,0:0:0:0:
145,107,117470,1,4,0:0:0:0:
140,121,117830,1,0,0:0:0:0:
140,121,117950,1,8,0:0:0:0:
140,121,118190,1,0,0:0:0:0:
145,107,118430,1,12,0:0:0:0:
140,121,118790,1,8,0:0:0:0:
140,121,118910,1,0,0:0:0:0:
140,121,119150,1,8,0:0:0:0:
140,121,119270,1,8,0:0:0:0:
145,107,119390,1,4,0:0:0:0:
140,121,119750,1,0,0:0:0:0:
140,121,119870,1,8,0:0:0:0:
140,121,120110,1,0,0:0:0:0:
140,127,120230,1,0,0:0:0:0:
145,107,120350,1,12,0:0:0:0:
140,121,120590,1,0,0:0:0:0:
140,121,120710,1,8,0:0:0:0:
140,121,120830,1,8,0:0:0:0:
140,121,121070,1,8,0:0:0:0:
147,112,121190,1,8,0:0:0:0:
145,107,121310,1,4,0:0:0:0:
140,121,121670,1,0,0:0:0:0:
140,121,121790,1,8,0:0:0:0:
140,121,122030,1,0,0:0:0:0:
145,107,122270,1,12,0:0:0:0:
140,121,122630,1,8,0:0:0:0:
140,121,122750,1,0,0:0:0:0:
140,121,122990,1,8,0:0:0:0:
140,121,123110,1,8,0:0:0:0:
145,107,123230,1,4,0:0:0:0:
140,121,123590,1,8,0:0:0:0:
145,107,123710,1,4,0:0:0:0:
140,121,123950,1,0,0:0:0:0:
140,126,124070,1,0,0:0:0:0:
145,107,124190,1,12,0:0:0:0:
130,115,124430,1,0,0:0:0:0:
140,121,124550,1,0,0:0:0:0:
145,107,124670,1,8,0:0:0:0:
132,116,124790,1,0,0:0:0:0:
140,121,124910,1,8,0:0:0:0:
140,126,125030,1,8,0:0:0:0:
137,103,125150,1,4,0:0:0:0:
256,192,125390,8,0,132110,0:0:0:0:
145,125,132350,5,8,0:0:0:0:
145,125,132590,1,0,0:0:0:0:
145,125,132830,1,4,0:0:0:0:
133,131,133190,1,0,0:0:0:0:
133,131,133310,1,8,0:0:0:0:
133,131,133550,1,0,0:0:0:0:
133,131,133790,1,0,0:0:0:0:
133,131,133910,1,0,0:0:0:0:
133,131,134150,1,0,0:0:0:0:
133,131,134270,1,8,0:0:0:0:
133,131,134510,1,0,0:0:0:0:
133,131,134750,1,8,0:0:0:0:
133,131,134870,1,8,0:0:0:0:
133,131,135110,1,0,0:0:0:0:
133,131,135230,1,8,0:0:0:0:
133,131,135470,1,0,0:0:0:0:
133,131,135710,1,12,0:0:0:0:
133,131,136070,1,12,0:0:0:0:
133,131,136430,1,12,0:0:0:0:
133,131,136670,1,4,0:0:0:0:
133,131,137030,1,0,0:0:0:0:
133,131,137150,1,8,0:0:0:0:
133,131,137390,1,0,0:0:0:0:
133,131,137630,1,0,0:0:0:0:
133,131,137750,1,0,0:0:0:0:
133,131,137990,1,0,0:0:0:0:
133,131,138110,1,8,0:0:0:0:
133,131,138350,1,0,0:0:0:0:
133,131,138590,1,8,0:0:0:0:
133,131,138710,1,0,0:0:0:0:
133,131,138950,1,0,0:0:0:0:
133,131,139070,1,8,0:0:0:0:
133,131,139310,1,0,0:0:0:0:
133,131,139430,1,0,0:0:0:0:
133,131,139550,1,8,0:0:0:0:
133,131,139670,1,0,0:0:0:0:
133,131,139910,1,0,0:0:0:0:
133,131,140030,1,8,0:0:0:0:
133,122,140270,1,0,0:0:0:0:
90,136,140390,1,0,0:0:0:0:
90,136,140510,1,12,0:0:0:0:
120,133,140870,1,0,0:0:0:0:
120,133,140990,1,8,0:0:0:0:
119,133,141230,1,0,0:0:0:0:
119,133,141470,1,0,0:0:0:0:
120,133,141590,1,0,0:0:0:0:
120,133,141830,1,0,0:0:0:0:
120,133,141950,1,8,0:0:0:0:
119,133,142070,1,8,0:0:0:0:
119,133,142190,1,0,0:0:0:0:
119,133,142430,1,8,0:0:0:0:
120,133,142550,1,8,0:0:0:0:
120,133,142790,1,0,0:0:0:0:
120,133,142910,1,8,0:0:0:0:
119,133,143150,1,0,0:0:0:0:
119,133,143390,1,8,0:0:0:0:
112,134,143510,1,0,0:0:0:0:
113,134,143630,1,0,0:0:0:0:
112,134,143750,1,8,0:0:0:0:
112,134,143870,1,0,0:0:0:0:
106,135,144110,1,8,0:0:0:0:
90,136,144230,1,0,0:0:0:0:
90,136,144350,1,12,0:0:0:0:
109,140,144710,1,0,0:0:0:0:
109,140,144830,1,8,0:0:0:0:
109,140,145070,1,0,0:0:0:0:
108,140,145190,1,0,0:0:0:0:
108,140,145310,1,8,0:0:0:0:
109,140,145430,1,0,0:0:0:0:
109,140,145670,1,0,0:0:0:0:
109,140,145790,1,8,0:0:0:0:
24,132,146030,1,8,0:0:0:0:
32,132,146150,1,8,0:0:0:0:
34,130,146270,1,0,0:0:0:0:
37,127,146510,1,8,0:0:0:0:
109,140,146750,1,0,0:0:0:0:
37,127,146990,1,0,0:0:0:0:
37,126,147110,1,8,0:0:0:0:
34,130,147230,1,8,0:0:0:0:
37,127,147470,1,8,0:0:0:0:
37,127,147710,1,0,0:0:0:0:
37,127,147950,1,0,0:0:0:0:
90,136,148070,1,0,0:0:0:0:
90,136,148190,1,12,0:0:0:0:
128,138,148550,1,0,0:0:0:0:
128,138,148670,1,8,0:0:0:0:
128,138,148910,1,0,0:0:0:0:
128,138,149150,1,0,0:0:0:0:
128,138,149270,1,0,0:0:0:0:
128,138,149510,1,0,0:0:0:0:
128,138,149630,1,8,0:0:0:0:
128,138,149750,1,8,0:0:0:0:
128,138,149870,1,0,0:0:0:0:
128,138,150110,1,8,0:0:0:0:
128,138,150230,1,8,0:0:0:0:
128,138,150470,1,0,0:0:0:0:
128,138,150590,1,8,0:0:0:0:
128,138,150830,1,0,0:0:0:0:
128,138,151070,1,12,0:0:0:0:
128,138,151430,1,12,0:0:0:0:
128,138,151790,1,12,0:0:0:0:
128,138,152030,1,4,0:0:0:0:
138,131,152390,1,0,0:0:0:0:
138,131,152510,1,8,0:0:0:0:
122,129,152750,1,0,0:0:0:0:
122,129,152870,1,8,0:0:0:0:
122,129,152990,1,0,0:0:0:0:
122,129,153310,1,8,0:0:0:0:
137,121,153470,1,0,0:0:0:0:
110,135,153630,1,8,0:0:0:0:
139,140,153790,1,8,0:0:0:0:
110,135,153950,1,0,0:0:0:0:
141,140,154070,1,0,0:0:0:0:
143,120,154190,1,8,0:0:0:0:
143,120,154430,1,8,0:0:0:0:
143,120,154670,1,0,0:0:0:0:
139,121,154910,1,0,0:0:0:0:
143,120,155030,1,0,0:0:0:0:
143,120,155150,1,8,0:0:0:0:
163,109,155270,1,8,0:0:0:0:
143,120,155390,1,0,0:0:0:0:
143,120,155510,1,0,0:0:0:0:
143,120,155630,1,8,0:0:0:0:
90,136,155870,1,4,0:0:0:0:
103,138,156350,1,12,0:0:0:0:
132,128,156830,1,0,0:0:0:0:
132,128,156950,1,0,0:0:0:0:
132,128,157190,1,0,0:0:0:0:
132,128,157310,1,8,0:0:0:0:
132,128,157550,1,0,0:0:0:0:
103,138,157790,1,4,0:0:0:0:
132,128,158150,1,0,0:0:0:0:
132,128,158270,1,8,0:0:0:0:
125,125,158510,1,0,0:0:0:0:
125,125,158750,1,8,0:0:0:0:
124,126,158870,1,0,0:0:0:0:
124,126,159110,1,0,0:0:0:0:
124,126,159230,1,8,0:0:0:0:
125,125,159350,1,8,0:0:0:0:
125,125,159470,1,0,0:0:0:0:
79,150,159710,1,4,0:0:0:0:
79,150,160190,1,12,0:0:0:0:
124,126,160670,1,8,0:0:0:0:
124,126,160790,1,0,0:0:0:0:
124,126,161030,1,0,0:0:0:0:
124,126,161150,1,8,0:0:0:0:
124,126,161390,1,0,0:0:0:0:
79,150,161630,1,4,0:0:0:0:
117,126,161990,1,0,0:0:0:0:
117,126,162110,1,8,0:0:0:0:
117,126,162350,1,0,0:0:0:0:
117,126,162590,1,8,0:0:0:0:
127,138,162710,1,8,0:0:0:0:
117,126,162950,1,0,0:0:0:0:
109,138,163070,1,8,0:0:0:0:
117,126,163190,1,8,0:0:0:0:
117,126,163310,1,0,0:0:0:0:
79,150,163550,1,4,0:0:0:0:
79,150,164030,1,12,0:0:0:0:
79,150,164510,1,4,0:0:0:0:
94,139,164870,1,0,0:0:0:0:
94,139,164990,1,8,0:0:0:0:
95,140,165230,1,0,0:0:0:0:
79,150,165470,1,4,0:0:0:0:
79,150,165950,1,12,0:0:0:0:
79,150,166430,1,4,0:0:0:0:
95,140,166790,1,0,0:0:0:0:
95,143,166910,1,8,0:0:0:0:
95,143,167030,1,8,0:0:0:0:
95,143,167150,1,0,0:0:0:0:
79,150,167390,1,4,0:0:0:0:
79,150,167870,1,12,0:0:0:0:
104,144,168110,1,0,0:0:0:0:
79,150,168350,1,4,0:0:0:0:
79,150,168830,1,12,0:0:0:0:
104,144,169070,1,0,0:0:0:0:
79,150,169310,1,12,0:0:0:0:
76,159,169670,1,0,0:0:0:0:
79,150,169790,1,12,0:0:0:0:
88,141,170030,1,0,0:0:0:0:
70,159,170150,1,0,0:0:0:0:
79,150,170270,1,12,0:0:0:0:
89,142,170630,1,0,0:0:0:0:
79,150,170750,1,12,0:0:0:0:
89,142,170990,1,8,0:0:0:0:
89,142,171110,1,8,0:0:0:0:
79,150,171230,1,4,0:0:0:0:
76,144,171590,1,0,0:0:0:0:
99,167,171950,1,0,0:0:0:0:
76,144,172190,1,8,0:0:0:0:
76,144,172550,1,8,0:0:0:0:
76,144,172910,1,8,0:0:0:0:
76,144,173030,1,8,0:0:0:0:
76,144,173150,1,0,0:0:0:0:
76,144,173510,1,0,0:0:0:0:
83,154,173870,1,0,0:0:0:0:
76,144,174110,1,8,0:0:0:0:
76,144,174350,1,8,0:0:0:0:
76,144,174470,1,0,0:0:0:0:
76,144,174710,1,8,0:0:0:0:
76,144,174950,1,8,0:0:0:0:
76,144,175070,1,0,0:0:0:0:
76,144,175430,1,0,0:0:0:0:
76,144,175790,1,0,0:0:0:0:
70,127,176030,1,8,0:0:0:0:
76,144,176150,1,0,0:0:0:0:
76,144,176390,1,8,0:0:0:0:
76,144,176750,1,8,0:0:0:0:
66,144,176870,1,8,0:0:0:0:
76,144,176990,1,0,0:0:0:0:
66,143,177350,1,8,0:0:0:0:
66,144,177470,1,0,0:0:0:0:
89,143,177710,1,0,0:0:0:0:
66,143,177950,1,8,0:0:0:0:
95,160,178310,1,0,0:0:0:0:
66,144,178430,1,8,0:0:0:0:
66,143,178910,1,0,0:0:0:0:
76,144,179270,1,0,0:0:0:0:
99,167,179630,1,0,0:0:0:0:
76,144,179870,1,8,0:0:0:0:
76,144,180230,1,8,0:0:0:0:
76,144,180590,1,8,0:0:0:0:
76,144,180710,1,8,0:0:0:0:
76,144,180830,1,0,0:0:0:0:
76,144,181190,1,0,0:0:0:0:
83,154,181550,1,0,0:0:0:0:
76,144,181790,1,8,0:0:0:0:
76,144,182030,1,0,0:0:0:0:
76,144,182150,1,8,0:0:0:0:
76,144,182270,1,8,0:0:0:0:
97,165,182510,1,8,0:0:0:0:
88,147,182630,1,8,0:0:0:0:
76,144,182750,1,0,0:0:0:0:
76,144,183110,1,0,0:0:0:0:
76,144,183470,1,0,0:0:0:0:
70,127,183710,1,8,0:0:0:0:
76,144,183830,1,0,0:0:0:0:
76,144,184070,1,8,0:0:0:0:
76,144,184430,1,8,0:0:0:0:
66,144,184550,1,8,0:0:0:0:
76,144,184670,1,0,0:0:0:0:
66,143,185030,1,8,0:0:0:0:
66,144,185150,1,0,0:0:0:0:
89,143,185390,1,0,0:0:0:0:
106,147,185510,1,0,0:0:0:0:
66,143,185630,1,8,0:0:0:0:
95,160,185990,1,0,0:0:0:0:
66,144,186110,1,8,0:0:0:0:
120,139,186350,1,8,0:0:0:0:
120,139,186470,1,8,0:0:0:0:
120,139,186590,1,4,0:0:0:0:
110,148,186830,1,0,0:0:0:0:
108,149,187070,1,8,0:0:0:0:
108,149,187310,1,0,0:0:0:0:
108,149,187430,1,8,0:0:0:0:
104,148,187550,1,8,0:0:0:0:
110,148,187790,1,0,0:0:0:0:
108,149,187870,1,8,0:0:0:0:
98,135,187950,1,8,0:0:0:0:
108,149,188030,1,0,0:0:0:0:
108,149,188270,1,8,0:0:0:0:
108,149,188390,1,0,0:0:0:0:
108,149,188510,1,8,0:0:0:0:
110,148,188750,1,0,0:0:0:0:
101,144,188870,1,0,0:0:0:0:
108,149,188990,1,8,0:0:0:0:
108,149,189230,1,8,0:0:0:0:
108,149,189350,1,0,0:0:0:0:
108,149,189470,1,8,0:0:0:0:
110,148,189710,1,0,0:0:0:0:
108,149,189950,1,8,0:0:0:0:
108,149,190070,1,8,0:0:0:0:
108,149,190310,1,8,0:0:0:0:
108,149,190430,1,0,0:0:0:0:
110,148,190670,1,0,0:0:0:0:
108,149,190910,1,8,0:0:0:0:
108,149,191150,1,0,0:0:0:0:
108,149,191270,1,8,0:0:0:0:
104,148,191390,1,8,0:0:0:0:
110,148,191630,1,0,0:0:0:0:
108,149,191710,1,8,0:0:0:0:
98,135,191790,1,8,0:0:0:0:
108,149,191870,1,0,0:0:0:0:
108,149,192110,1,8,0:0:0:0:
108,149,192230,1,0,0:0:0:0:
108,149,192350,1,8,0:0:0:0:
110,148,192590,1,0,0:0:0:0:
108,149,192830,1,0,0:0:0:0:
108,149,193070,1,8,0:0:0:0:
108,149,193190,1,0,0:0:0:0:
108,149,193310,1,8,0:0:0:0:
110,148,193670,1,0,0:0:0:0:
108,149,193790,1,8,0:0:0:0:
108,149,193910,1,8,0:0:0:0:
108,149,194150,1,8,0:0:0:0:
108,149,194270,1,0,0:0:0:0:
110,148,194510,1,0,0:0:0:0:
108,149,194750,1,8,0:0:0:0:
108,149,194990,1,0,0:0:0:0:
108,149,195110,1,8,0:0:0:0:
104,148,195230,1,8,0:0:0:0:
110,148,195470,1,0,0:0:0:0:
108,149,195550,1,8,0:0:0:0:
98,135,195630,1,8,0:0:0:0:
108,149,195710,1,0,0:0:0:0:
108,149,195950,1,8,0:0:0:0:
108,149,196070,1,0,0:0:0:0:
108,149,196190,1,8,0:0:0:0:
91,144,196430,1,0,0:0:0:0:
107,137,196550,1,0,0:0:0:0:
108,149,196670,1,0,0:0:0:0:
108,149,196910,1,8,0:0:0:0:
108,149,197030,1,0,0:0:0:0:
108,149,197150,1,8,0:0:0:0:
110,148,197390,1,0,0:0:0:0:
108,149,197630,1,8,0:0:0:0:
108,149,197750,1,8,0:0:0:0:
108,149,197990,1,8,0:0:0:0:
108,149,198110,1,0,0:0:0:0:
110,148,198350,1,0,0:0:0:0:
108,149,198590,1,8,0:0:0:0:
108,149,198830,1,0,0:0:0:0:
108,149,198950,1,8,0:0:0:0:
104,148,199070,1,8,0:0:0:0:
110,148,199310,1,0,0:0:0:0:
108,149,199390,1,8,0:0:0:0:
98,135,199470,1,8,0:0:0:0:
108,149,199550,1,0,0:0:0:0:
108,149,199790,1,8,0:0:0:0:
108,149,199910,1,0,0:0:0:0:
108,149,200030,1,8,0:0:0:0:
110,148,200270,1,0,0:0:0:0:
95,133,200390,1,8,0:0:0:0:
108,149,200510,1,0,0:0:0:0:
108,149,200750,1,8,0:0:0:0:
108,149,200870,1,0,0:0:0:0:
108,149,200990,1,8,0:0:0:0:
110,148,201350,1,0,0:0:0:0:
108,149,201470,1,8,0:0:0:0:
108,149,201710,1,8,0:0:0:0:
108,149,201830,1,0,0:0:0:0:
108,149,201950,1,8,0:0:0:0:
200,247,202070,1,0,0:0:0:0:
200,247,202190,1,0,0:0:0:0:
200,247,202310,1,0,0:0:0:0:
200,247,202430,1,8,0:0:0:0:
200,247,202550,1,8,0:0:0:0:
200,247,202670,1,0,0:0:0:0:
200,247,202790,1,0,0:0:0:0:
200,247,202910,1,8,0:0:0:0:
200,247,203030,1,0,0:0:0:0:
200,247,203150,1,0,0:0:0:0:
200,247,203270,1,0,0:0:0:0:
200,247,203390,1,8,0:0:0:0:
200,247,203510,1,0,0:0:0:0:
200,247,203630,1,8,0:0:0:0:
200,247,203750,1,8,0:0:0:0:
200,247,203870,1,0,0:0:0:0:
200,247,203990,1,8,0:0:0:0:
200,247,204110,1,8,0:0:0:0:
200,247,204230,1,8,0:0:0:0:
200,247,204350,1,0,0:0:0:0:
200,247,204470,1,8,0:0:0:0:
200,247,204590,1,0,0:0:0:0:
200,247,204710,1,0,0:0:0:0:
200,247,204830,1,8,0:0:0:0:
200,247,204950,1,0,0:0:0:0:
200,247,205070,1,0,0:0:0:0:
200,247,205190,1,8,0:0:0:0:
200,247,205310,1,8,0:0:0:0:
200,247,205430,1,0,0:0:0:0:
200,247,205550,1,8,0:0:0:0:
200,247,205670,1,8,0:0:0:0:
200,247,205790,1,0,0:0:0:0:
200,247,205910,1,0,0:0:0:0:
200,247,206030,1,8,0:0:0:0:
200,247,206150,1,0,0:0:0:0:
200,247,206270,1,8,0:0:0:0:
200,247,206390,1,8,0:0:0:0:
200,247,206510,1,0,0:0:0:0:
200,247,206630,1,0,0:0:0:0:
200,247,206750,1,8,0:0:0:0:
200,247,206870,1,0,0:0:0:0:
200,247,206990,1,8,0:0:0:0:
200,247,207110,1,8,0:0:0:0:
200,247,207230,1,0,0:0:0:0:
200,247,207350,1,0,0:0:0:0:
200,247,207470,1,8,0:0:0:0:
200,247,207590,1,8,0:0:0:0:
200,247,207710,1,0,0:0:0:0:
200,247,207830,1,0,0:0:0:0:
200,247,207950,1,8,0:0:0:0:
200,247,208070,1,0,0:0:0:0:
200,247,208190,1,0,0:0:0:0:
200,247,208310,1,8,0:0:0:0:
200,247,208430,1,0,0:0:0:0:
200,247,208550,1,0,0:0:0:0:
200,247,208670,1,8,0:0:0:0:
200,247,208790,1,8,0:0:0:0:
200,247,208910,1,0,0:0:0:0:
200,247,209030,1,8,0:0:0:0:
200,247,209150,1,0,0:0:0:0:
200,247,209270,1,0,0:0:0:0:
200,247,209390,1,8,0:0:0:0:
200,247,209510,1,8,0:0:0:0:
200,247,209630,1,0,0:0:0:0:
166,196,209990,1,8,0:0:0:0:
166,196,210110,1,0,0:0:0:0:
166,196,210350,1,0,0:0:0:0:
166,196,210470,1,0,0:0:0:0:
166,196,210590,1,8,0:0:0:0:
166,196,210710,1,8,0:0:0:0:
166,196,210950,1,0,0:0:0:0:
166,196,211070,1,8,0:0:0:0:
166,196,211310,1,8,0:0:0:0:
185,195,211430,1,8,0:0:0:0:
166,196,211550,1,0,0:0:0:0:
166,196,211790,1,8,0:0:0:0:
166,196,212030,1,8,0:0:0:0:
166,196,212150,1,8,0:0:0:0:
166,196,212270,1,0,0:0:0:0:
166,196,212390,1,0,0:0:0:0:
166,196,212510,1,8,0:0:0:0:
166,196,212750,1,0,0:0:0:0:
166,196,212830,1,8,0:0:0:0:
166,196,212910,1,8,0:0:0:0:
166,196,212990,1,0,0:0:0:0:
166,196,213230,1,8,0:0:0:0:
166,196,213350,1,0,0:0:0:0:
166,196,213470,1,8,0:0:0:0:
177,192,213710,1,0,0:0:0:0:
171,191,213950,1,8,0:0:0:0:
175,188,214190,1,0,0:0:0:0:
175,184,214310,1,8,0:0:0:0:
177,188,214430,1,8,0:0:0:0:
175,184,214790,1,0,0:0:0:0:
177,188,214910,1,8,0:0:0:0:
175,188,215150,1,8,0:0:0:0:
175,184,215270,1,8,0:0:0:0:
177,188,215390,1,0,0:0:0:0:
183,189,215630,1,8,0:0:0:0:
183,189,215870,1,8,0:0:0:0:
183,188,215990,1,8,0:0:0:0:
208,180,216110,1,0,0:0:0:0:
197,185,216230,1,0,0:0:0:0:
182,184,216350,1,8,0:0:0:0:
183,189,216470,1,8,0:0:0:0:
154,173,216590,1,0,0:0:0:0:
183,189,216670,1,8,0:0:0:0:
181,177,216750,1,8,0:0:0:0:
183,189,216830,1,0,0:0:0:0:
183,188,216950,1,8,0:0:0:0:
182,184,217070,1,0,0:0:0:0:
182,184,217190,1,0,0:0:0:0:
182,184,217310,1,12,0:0:0:0:
183,189,217550,1,0,0:0:0:0:
183,189,217670,1,8,0:0:0:0:
185,190,217790,1,0,0:0:0:0:
183,190,218030,1,0,0:0:0:0:
182,184,218270,1,8,0:0:0:0:
173,190,218630,1,0,0:0:0:0:
173,190,218750,1,8,0:0:0:0:
173,190,218990,1,8,0:0:0:0:
173,190,219110,1,8,0:0:0:0:
173,190,219230,1,0,0:0:0:0:
173,190,219470,1,8,0:0:0:0:
164,186,219710,1,8,0:0:0:0:
165,189,219830,1,0,0:0:0:0:
173,190,219950,1,0,0:0:0:0:
173,190,220070,1,8,0:0:0:0:
173,190,220190,1,0,0:0:0:0:
202,182,220430,1,0,0:0:0:0:
201,179,220510,1,8,0:0:0:0:
201,179,220590,1,8,0:0:0:0:
201,179,220670,1,0,0:0:0:0:
206,174,220910,1,8,0:0:0:0:
206,174,221030,1,0,0:0:0:0:
206,174,221150,1,8,0:0:0:0:
206,174,221390,1,0,0:0:0:0:
204,174,221630,1,8,0:0:0:0:
206,174,221870,1,0,0:0:0:0:
206,174,221990,1,8,0:0:0:0:
206,174,222110,1,8,0:0:0:0:
204,174,222470,1,0,0:0:0:0:
204,174,222590,1,8,0:0:0:0:
206,174,222830,1,8,0:0:0:0:
206,174,222950,1,8,0:0:0:0:
206,174,223070,1,0,0:0:0:0:
204,174,223310,1,8,0:0:0:0:
204,174,223550,1,0,0:0:0:0:
206,174,223670,1,8,0:0:0:0:
224,188,223790,1,0,0:0:0:0:
206,174,223910,1,0,0:0:0:0:
206,174,224030,1,8,0:0:0:0:
204,174,224270,1,0,0:0:0:0:
204,174,224350,1,8,0:0:0:0:
233,165,224430,1,8,0:0:0:0:
204,174,224510,1,0,0:0:0:0:
240,182,224750,1,8,0:0:0:0:
237,183,224870,1,0,0:0:0:0:
237,184,224990,1,8,0:0:0:0:
237,184,225230,1,0,0:0:0:0:
236,184,225470,1,8,0:0:0:0:
240,182,225710,1,0,0:0:0:0:
237,183,225830,1,8,0:0:0:0:
237,184,225950,1,8,0:0:0:0:
236,184,226310,1,0,0:0:0:0:
236,184,226430,1,8,0:0:0:0:
240,182,226670,1,8,0:0:0:0:
237,183,226790,1,8,0:0:0:0:
237,184,226910,1,0,0:0:0:0:
247,186,227150,1,8,0:0:0:0:
246,186,227390,1,8,0:0:0:0:
232,186,227510,1,0,0:0:0:0:
231,186,227750,1,0,0:0:0:0:
246,186,227870,1,8,0:0:0:0:
247,186,228110,1,0,0:0:0:0:
246,186,228190,1,8,0:0:0:0:
190,176,228270,1,8,0:0:0:0:
246,186,228350,1,0,0:0:0:0:
232,186,228590,1,8,0:0:0:0:
231,186,228710,1,0,0:0:0:0:
231,186,228830,1,8,0:0:0:0:
231,186,229070,1,0,0:0:0:0:
231,186,229190,1,0,0:0:0:0:
231,186,229310,1,8,0:0:0:0:
221,183,229430,1,0,0:0:0:0:
232,186,229670,1,0,0:0:0:0:
231,186,229790,1,8,0:0:0:0:
250,190,230030,1,0,0:0:0:0:
231,186,230150,1,0,0:0:0:0:
231,186,230270,1,8,0:0:0:0:
232,186,230510,1,0,0:0:0:0:
205,209,230750,1,8,0:0:0:0:
205,209,230990,1,8,0:0:0:0:
205,209,231230,1,8,0:0:0:0:
205,209,231470,1,8,0:0:0:0:
209,202,231590,1,8,0:0:0:0:
205,209,231710,1,8,0:0:0:0:
209,202,231950,1,0,0:0:0:0:
209,201,232070,1,0,0:0:0:0:
205,201,232190,1,8,0:0:0:0:
205,201,232430,1,0,0:0:0:0:
209,202,232670,1,4,0:0:0:0:
219,193,233030,1,0,0:0:0:0:
219,193,233150,1,8,0:0:0:0:
218,192,233270,1,0,0:0:0:0:
218,192,233390,1,0,0:0:0:0:
218,192,233630,1,8,0:0:0:0:
218,192,233750,1,0,0:0:0:0:
219,193,233990,1,0,0:0:0:0:
219,193,234110,1,8,0:0:0:0:
221,217,234230,1,8,0:0:0:0:
218,192,234350,1,0,0:0:0:0:
218,192,234470,1,8,0:0:0:0:
218,192,234590,1,0,0:0:0:0:
221,204,234950,1,8,0:0:0:0:
221,204,235070,1,0,0:0:0:0:
222,204,235190,1,8,0:0:0:0:
222,204,235310,1,0,0:0:0:0:
222,204,235550,1,8,0:0:0:0:
221,204,235670,1,8,0:0:0:0:
221,204,235910,1,0,0:0:0:0:
221,204,236030,1,8,0:0:0:0:
222,204,236150,1,8,0:0:0:0:
222,204,236270,1,0,0:0:0:0:
222,204,236390,1,0,0:0:0:0:
222,204,236510,1,8,0:0:0:0:
221,204,236870,1,0,0:0:0:0:
249,214,236990,1,8,0:0:0:0:
234,201,237110,1,8,0:0:0:0:
249,214,237230,1,0,0:0:0:0:
235,197,237470,1,8,0:0:0:0:
235,197,237590,1,8,0:0:0:0:
233,197,237710,1,0,0:0:0:0:
233,197,237950,1,8,0:0:0:0:
233,197,238070,1,8,0:0:0:0:
233,198,238190,1,0,0:0:0:0:
235,197,238310,1,8,0:0:0:0:
235,197,238430,1,0,0:0:0:0:
235,197,238550,1,8,0:0:0:0:
233,197,238790,1,8,0:0:0:0:
233,197,238910,1,0,0:0:0:0:
233,198,239150,1,8,0:0:0:0:
235,197,239390,1,0,0:0:0:0:
235,197,239510,1,8,0:0:0:0:
233,197,239750,1,0,0:0:0:0:
233,197,239870,1,8,0:0:0:0:
233,198,239990,1,8,0:0:0:0:
233,198,240110,1,0,0:0:0:0:
235,197,240350,1,4,0:0:0:0:
239,198,240590,1,0,0:0:0:0:
239,198,240830,1,8,0:0:0:0:
233,198,240950,1,8,0:0:0:0:
233,198,241070,1,0,0:0:0:0:
235,197,241310,1,8,0:0:0:0:
235,197,241430,1,8,0:0:0:0:
239,198,241670,1,0,0:0:0:0:
239,198,241790,1,8,0:0:0:0:
233,198,241910,1,8,0:0:0:0:
233,198,242030,1,0,0:0:0:0:
235,197,242150,1,8,0:0:0:0:
235,197,242270,1,0,0:0:0:0:
235,197,242510,1,8,0:0:0:0:
239,198,242750,1,0,0:0:0:0:
233,198,242870,1,8,0:0:0:0:
233,198,242990,1,0,0:0:0:0:
235,197,243230,1,8,0:0:0:0:
235,197,243470,1,0,0:0:0:0:
239,198,243590,1,8,0:0:0:0:
239,198,243710,1,0,0:0:0:0:
233,198,243830,1,8,0:0:0:0:
235,197,244070,1,8,0:0:0:0:
235,197,244190,1,0,0:0:0:0:
242,169,244550,1,0,0:0:0:0:
240,175,244670,1,8,0:0:0:0:
239,191,244790,1,8,0:0:0:0:
233,186,244910,1,0,0:0:0:0:
239,191,245150,1,8,0:0:0:0:
239,191,245270,1,8,0:0:0:0:
239,191,245510,1,0,0:0:0:0:
239,191,245630,1,8,0:0:0:0:
239,191,245750,1,8,0:0:0:0:
239,191,245870,1,0,0:0:0:0:
239,191,245990,1,0,0:0:0:0:
239,191,246110,1,8,0:0:0:0:
239,191,246350,1,8,0:0:0:0:
239,191,246590,1,0,0:0:0:0:
239,191,246710,1,8,0:0:0:0:
239,191,246830,1,8,0:0:0:0:
245,194,247070,1,0,0:0:0:0:
244,194,247190,1,8,0:0:0:0:
245,194,247430,1,8,0:0:0:0:
245,194,247550,1,0,0:0:0:0:
245,194,247790,1,8,0:0:0:0:
245,194,247910,1,8,0:0:0:0:
245,194,248030,1,0,0:0:0:0:
245,194,248270,1,8,0:0:0:0:
245,194,248510,1,8,0:0:0:0:
245,194,248750,1,0,0:0:0:0:
245,194,248990,1,8,0:0:0:0:
245,194,249350,1,8,0:0:0:0:
252,183,249410,1,8,0:0:0:0:
245,194,249470,1,0,0:0:0:0:
245,194,249710,1,8,0:0:0:0:
245,194,249950,1,0,0:0:0:0:
245,194,250310,1,0,0:0:0:0:
245,194,250430,1,8,0:0:0:0:
245,194,250550,1,8,0:0:0:0:
245,194,250670,1,0,0:0:0:0:
245,194,250910,1,8,0:0:0:0:
245,194,251030,1,8,0:0:0:0:
245,194,251270,1,0,0:0:0:0:
245,194,251390,1,8,0:0:0:0:
245,194,251510,1,8,0:0:0:0:
245,194,251630,1,0,0:0:0:0:
245,194,251750,1,8,0:0:0:0:
245,194,251870,1,0,0:0:0:0:
247,227,252110,1,8,0:0:0:0:
247,202,252230,1,0,0:0:0:0:
250,225,252350,1,8,0:0:0:0:
238,200,252590,1,8,0:0:0:0:
239,200,252830,1,0,0:0:0:0:
239,200,253190,1,8,0:0:0:0:
138,184,253250,1,8,0:0:0:0:
239,200,253310,1,0,0:0:0:0:
238,200,253550,1,8,0:0:0:0:
238,200,253670,1,8,0:0:0:0:
239,200,253790,1,0,0:0:0:0:
239,200,254150,1,0,0:0:0:0:
239,200,254270,1,8,0:0:0:0:
238,200,254510,1,8,0:0:0:0:
238,200,254630,1,0,0:0:0:0:
239,200,254750,1,8,0:0:0:0:
239,200,254870,1,0,0:0:0:0:
239,200,255110,1,0,0:0:0:0:
239,200,255230,1,8,0:0:0:0:
238,200,255350,1,8,0:0:0:0:
238,200,255470,1,0,0:0:0:0:
238,200,255590,1,8,0:0:0:0:
239,200,255710,1,0,0:0:0:0:
239,200,255950,1,8,0:0:0:0:
239,200,256190,1,8,0:0:0:0:
238,200,256430,1,0,0:0:0:0:
239,200,256670,1,8,0:0:0:0:
239,200,257030,1,8,0:0:0:0:
208,172,257090,1,8,0:0:0:0:
239,200,257150,1,0,0:0:0:0:
238,200,257390,1,8,0:0:0:0:
239,200,257630,1,0,0:0:0:0:
239,200,257990,1,0,0:0:0:0:
239,200,258110,1,8,0:0:0:0:
238,200,258350,1,0,0:0:0:0:
238,200,258470,1,0,0:0:0:0:
239,200,258590,1,8,0:0:0:0:
239,200,258710,1,0,0:0:0:0:
239,200,258950,1,0,0:0:0:0:
239,200,259070,1,8,0:0:0:0:
238,200,259190,1,8,0:0:0:0:
238,200,259310,1,0,0:0:0:0:
239,200,259430,1,8,0:0:0:0:
239,200,259550,1,0,0:0:0:0:
239,200,259790,1,8,0:0:0:0:
239,200,260030,1,0,0:0:0:0:
238,200,260150,1,8,0:0:0:0:
239,200,260270,1,0,0:0:0:0:
239,200,260390,1,0,0:0:0:0:
239,200,260510,1,8,0:0:0:0:
239,200,260750,1,0,0:0:0:0:
239,200,260870,1,8,0:0:0:0:
239,200,260990,1,8,0:0:0:0:
239,200,261230,1,0,0:0:0:0:
239,200,261310,1,0,0:0:0:0:
227,194,261390,1,0,0:0:0:0:
239,200,261470,1,8,0:0:0:0:
239,200,261590,1,8,0:0:0:0:
239,200,261710,1,0,0:0:0:0:
239,200,261830,1,8,0:0:0:0:
239,200,261950,1,8,0:0:0:0:
239,200,262190,1,8,0:0:0:0:
239,200,262310,1,0,0:0:0:0:
239,200,262430,1,8,0:0:0:0:
232,186,262550,1,8,0:0:0:0:
222,188,262790,1,0,0:0:0:0:
239,200,262910,1,8,0:0:0:0:
239,200,263030,1,8,0:0:0:0:
239,200,263150,1,0,0:0:0:0:
239,200,263270,1,8,0:0:0:0:
121,85,263390,1,4,0:0:0:0:
140,88,263630,1,8,0:0:0:0:
140,88,263750,1,0,0:0:0:0:
140,88,263870,1,8,0:0:0:0:
141,90,264110,1,8,0:0:0:0:
141,90,264350,1,0,0:0:0:0:
140,88,264590,1,0,0:0:0:0:
140,88,264710,1,0,0:0:0:0:
140,88,264830,1,8,0:0:0:0:
141,90,265070,1,8,0:0:0:0:
141,90,265190,1,8,0:0:0:0:
141,90,265310,1,0,0:0:0:0:
136,91,265670,1,0,0:0:0:0:
136,91,265790,1,8,0:0:0:0:
136,91,266030,1,0,0:0:0:0:
136,91,266270,1,8,0:0:0:0:
136,91,266390,1,0,0:0:0:0:
136,91,266630,1,0,0:0:0:0:
136,91,266750,1,8,0:0:0:0:
136,91,266990,1,0,0:0:0:0:
136,91,267110,1,8,0:0:0:0:
136,91,267230,1,0,0:0:0:0:
136,91,267470,1,8,0:0:0:0:
136,91,267590,1,0,0:0:0:0:
136,91,267710,1,8,0:0:0:0:
107,126,267830,1,8,0:0:0:0:
136,91,267950,1,0,0:0:0:0:
136,91,268190,1,8,0:0:0:0:
136,91,268310,1,8,0:0:0:0:
136,91,268550,1,0,0:0:0:0:
136,91,268670,1,8,0:0:0:0:
136,91,268910,1,0,0:0:0:0:
136,91,269030,1,8,0:0:0:0:
136,91,269150,1,0,0:0:0:0:
136,91,269510,1,0,0:0:0:0:
136,91,269630,1,8,0:0:0:0:
113,106,269750,1,0,0:0:0:0:
136,91,269870,1,0,0:0:0:0:
136,91,270110,1,8,0:0:0:0:
136,91,270230,1,0,0:0:0:0:
136,91,270470,1,0,0:0:0:0:
143,91,270590,1,8,0:0:0:0:
143,91,270710,1,8,0:0:0:0:
143,91,270830,1,0,0:0:0:0:
124,105,270950,1,8,0:0:0:0:
227,168,271070,1,0,0:0:0:0:
227,168,271310,1,8,0:0:0:0:
227,168,271430,1,0,0:0:0:0:
227,168,271550,1,8,0:0:0:0:
227,168,271670,1,8,0:0:0:0:
227,168,271790,1,0,0:0:0:0:
227,168,272030,1,8,0:0:0:0:
227,168,272150,1,8,0:0:0:0:
227,168,272390,1,0,0:0:0:0:
227,168,272510,1,8,0:0:0:0:
227,168,272750,1,0,0:0:0:0:
227,168,272870,1,8,0:0:0:0:
227,168,272990,1,0,0:0:0:0:
227,168,273350,1,0,0:0:0:0:
227,168,273470,1,8,0:0:0:0:
227,168,273710,1,8,0:0:0:0:
227,168,273830,1,0,0:0:0:0:
227,168,273950,1,8,0:0:0:0:
227,168,274070,1,0,0:0:0:0:
227,168,274310,1,0,0:0:0:0:
227,168,274430,1,8,0:0:0:0:
227,168,274670,1,0,0:0:0:0:
158,177,274910,1,4,0:0:0:0:
158,177,275390,1,8,0:0:0:0:
158,177,275630,1,0,0:0:0:0:
158,177,275870,1,0,0:0:0:0:
158,177,276350,1,8,0:0:0:0:
158,177,276590,1,0,0:0:0:0:
158,177,276830,1,0,0:0:0:0:
158,177,277310,1,8,0:0:0:0:
158,177,277550,1,0,0:0:0:0:
158,177,277790,1,0,0:0:0:0:
158,177,278270,1,8,0:0:0:0:
158,177,278510,1,0,0:0:0:0:
158,177,278750,1,0,0:0:0:0:
158,177,279110,1,0,0:0:0:0:
158,177,279230,1,8,0:0:0:0:
158,177,279470,1,0,0:0:0:0:
158,177,279710,1,0,0:0:0:0:
158,177,280070,1,0,0:0:0:0:
158,177,280190,1,8,0:0:0:0:
158,177,280430,1,0,0:0:0:0:
158,177,280670,1,0,0:0:0:0:
158,177,281030,1,0,0:0:0:0:
158,177,281150,1,8,0:0:0:0:
158,177,281390,1,0,0:0:0:0:
158,177,281630,1,0,0:0:0:0:
158,177,281990,1,0,0:0:0:0:
158,177,282110,1,8,0:0:0:0:
158,177,282350,1,0,0:0:0:0:
158,177,282590,1,4,0:0:0:0:
158,177,282950,1,0,0:0:0:0:
158,177,283070,1,8,0:0:0:0:
158,177,283310,1,0,0:0:0:0:
158,177,283550,1,8,0:0:0:0:
158,177,283910,1,0,0:0:0:0:
158,177,284030,1,8,0:0:0:0:
158,177,284270,1,0,0:0:0:0:
158,177,284510,1,8,0:0:0:0:
158,177,284870,1,0,0:0:0:0:
158,177,284990,1,8,0:0:0:0:
158,177,285230,1,0,0:0:0:0:
158,177,285470,1,8,0:0:0:0:
158,177,285830,1,0,0:0:0:0:
158,177,285950,1,8,0:0:0:0:
158,177,286190,1,0,0:0:0:0:
158,177,286430,1,8,0:0:0:0:
158,177,286790,1,8,0:0:0:0:
158,177,286910,1,8,0:0:0:0:
158,177,287150,1,0,0:0:0:0:
158,177,287390,1,8,0:0:0:0:
158,177,287750,1,8,0:0:0:0:
158,177,287870,1,8,0:0:0:0:
158,177,288110,1,0,0:0:0:0:
158,177,288350,1,8,0:0:0:0:
158,177,288710,1,8,0:0:0:0:
158,177,288830,1,8,0:0:0:0:
158,177,289070,1,0,0:0:0:0:
158,177,289310,1,8,0:0:0:0:
158,177,289670,1,8,0:0:0:0:
158,177,289790,1,8,0:0:0:0:
158,177,290030,1,0,0:0:0:0:
158,177,290270,1,12,0:0:0:0:
256,192,290510,8,0,300830,0:0:0:0:
