osu file format v14

[General]
AudioFilename: audio.mp3
AudioLeadIn: 0
PreviewTime: 18747
Countdown: 0
SampleSet: Soft
StackLeniency: 1
Mode: 3
LetterboxInBreaks: 0
SpecialStyle: 0
WidescreenStoryboard: 1

[Editor]
Bookmarks: 38541,47428
DistanceSpacing: 1
BeatDivisor: 12
GridSize: 4
TimelineZoom: 1.4

[Metadata]
Title:Dive Back In Time (TV Size)
TitleUnicode:Dive Back In Time (TV Size)
Artist:Bai Sha JAWS
ArtistUnicode:白鲨JAWS
Creator:Aix-
Version:Easy
Source:时光代理人
Tags:english pop anime op opening time agents Shi Guang Dai Li Ren shiguang dailiren Link Click donghua dong hua bilibili 哔哩哔哩 BeDream 哆啦哔梦 LAN STUDIO 澜映画 axelowo
BeatmapID:3222078
BeatmapSetID:1577922

[Difficulty]
HPDrainRate:6.5
CircleSize:4
OverallDifficulty:6.5
ApproachRate:5
SliderMultiplier:1.4
SliderTickRate:1

[Events]
//Background and Video events
Video,-1025,"Link Click op.mp4"
0,0,"whattheydoin.jpg",0,0
//Break Periods
//Storyboard Layer 0 (Background)
//Storyboard Layer 1 (Fail)
//Storyboard Layer 2 (Pass)
//Storyboard Layer 3 (Foreground)
//Storyboard Layer 4 (Overlay)
//Storyboard Sound Samples
Sample,10484,0,"hihat2.wav",70
Sample,12706,0,"hihat2.wav",70
Sample,14928,0,"hihat2.wav",70
Sample,22150,0,"hihat.wav",70
Sample,24372,0,"hihat.wav",70
Sample,26594,0,"hihat.wav",70
Sample,28260,0,"hihat.wav",70
Sample,31038,0,"hihat.wav",70
Sample,33260,0,"hihat.wav",70
Sample,36870,0,"hihat2.wav",70
Sample,37148,0,"hihat.wav",70
Sample,39092,0,"hihat2.wav",70
Sample,43536,0,"hihat2.wav",70
Sample,55201,0,"hihat2.wav",70

[TimingPoints]
764,555.478405776975,4,2,1,20,1,0
9651,-100,4,2,1,70,0,0
20762,555.478405776975,4,2,1,70,1,1
28538,-100,4,2,1,70,0,0
29649,-100,4,2,1,70,0,1
37426,-100,4,2,1,70,0,0

[HitObjects]
64,192,764,5,0,0:0:0:0:
448,192,2985,1,0,0:0:0:0:
64,192,5207,1,0,0:0:0:0:
448,192,7429,128,0,8540:0:0:0:0:
64,192,8540,128,0,9373:0:0:0:0:
320,192,9373,1,0,0:0:0:50:soft-hitclap.wav
64,192,9651,1,2,0:0:0:0:
320,192,10207,1,0,0:0:0:0:
192,192,10484,1,2,0:0:0:0:
448,192,10762,1,8,0:0:0:0:
64,192,11456,1,0,0:0:0:50:soft-hitclap.wav
448,192,11873,1,2,0:0:0:0:
192,192,12429,1,0,0:0:0:0:
320,192,12706,1,2,0:0:0:0:
64,192,12984,1,8,0:0:0:0:
448,192,13678,1,0,0:0:0:50:soft-hitclap.wav
64,192,14095,1,2,0:0:0:0:
320,192,14928,1,2,0:0:0:0:
64,192,15206,1,8,0:0:0:0:
192,192,15484,1,0,0:0:0:70:hihat2.wav
320,192,16039,1,0,0:0:0:70:hihat.wav
64,192,16317,128,2,17428:0:0:0:0:
448,192,16317,1,4,0:0:0:0:
192,192,16872,1,0,0:0:0:70:hihat.wav
448,192,17428,128,0,17983:0:0:0:70:hihat.wav
192,192,17983,1,0,0:0:0:70:hihat.wav
320,192,20066,1,2,0:0:0:0:
192,192,20205,128,0,20762:0:0:0:70:tom04.wav
320,192,20762,1,4,0:0:0:0:
448,192,20762,1,2,0:0:0:0:
64,192,21039,1,0,0:0:0:0:
192,192,21178,1,0,0:0:0:0:
320,192,21317,1,8,0:0:0:0:
448,192,21595,1,0,0:0:0:70:hihat2.wav
320,192,21734,1,0,0:0:0:50:soft-hitclap.wav
192,192,21872,1,0,0:0:0:0:
448,192,22150,1,2,0:0:0:0:
64,192,22428,1,8,0:0:0:0:
320,192,22428,1,0,0:0:0:0:
192,192,22983,1,2,0:0:0:0:
448,192,23261,1,2,0:0:0:0:
320,192,23400,1,0,0:0:0:0:
192,192,23539,1,8,0:0:0:0:
64,192,23817,1,0,0:0:0:70:hihat2.wav
192,192,23956,1,8,0:0:0:0:
320,192,24094,1,0,0:0:0:0:
64,192,24372,1,2,0:0:0:0:
192,192,24650,1,8,0:0:0:0:
448,192,24650,1,0,0:0:0:0:
320,192,25205,1,2,0:0:0:0:
64,192,25483,1,0,0:0:0:0:
192,192,25622,1,0,0:0:0:0:
320,192,25761,1,8,0:0:0:0:
448,192,26039,1,0,0:0:0:70:hihat2.wav
320,192,26177,1,8,0:0:0:0:
192,192,26316,1,0,0:0:0:0:
448,192,26594,1,2,0:0:0:0:
64,192,26872,1,8,0:0:0:0:
320,192,26872,1,0,0:0:0:0:
192,192,27427,1,2,0:0:0:0:
64,192,27705,1,2,0:0:0:0:
320,192,27983,1,8,0:0:0:0:
448,192,28260,1,8,0:0:0:0:
192,192,28538,1,2,0:0:0:0:
320,192,28816,1,0,0:0:0:0:
64,192,29094,1,8,0:0:0:0:
448,192,29094,1,4,0:0:0:0:
192,192,29371,1,0,0:0:0:70:tom04.wav
320,192,29649,1,2,0:0:0:0:
448,192,29649,1,4,0:0:0:0:
64,192,29927,1,0,0:0:0:0:
192,192,30066,1,0,0:0:0:0:
320,192,30205,1,8,0:0:0:0:
448,192,30482,1,0,0:0:0:70:hihat2.wav
320,192,30621,1,8,0:0:0:0:
192,192,30760,1,0,0:0:0:0:
448,192,31038,1,2,0:0:0:0:
64,192,31316,1,8,0:0:0:0:
320,192,31316,1,0,0:0:0:0:
192,192,31871,1,2,0:0:0:0:
448,192,32149,1,2,0:0:0:0:
320,192,32288,1,0,0:0:0:0:
192,192,32427,1,8,0:0:0:0:
64,192,32704,1,0,0:0:0:70:hihat2.wav
192,192,32843,1,8,0:0:0:0:
320,192,32982,1,0,0:0:0:0:
64,192,33260,1,2,0:0:0:0:
192,192,33538,1,8,0:0:0:0:
448,192,33538,1,0,0:0:0:0:
192,192,33954,1,8,0:0:0:0:
320,192,34093,1,2,0:0:0:0:
448,192,34648,1,8,0:0:0:0:
64,192,34926,1,0,0:0:0:0:
192,192,35204,1,0,0:0:0:70:hihat2.wav
320,192,35621,1,0,0:0:0:0:
192,192,36037,1,0,0:0:0:70:hihat2.wav
64,192,36315,1,2,0:0:0:0:
320,192,36315,1,4,0:0:0:0:
448,192,36593,1,2,0:0:0:0:
192,192,36870,1,8,0:0:0:0:
320,192,37148,1,8,0:0:0:0:
64,192,37426,128,2,37981:0:0:0:0:
320,192,37981,128,8,38537:0:0:0:0:
192,192,38537,1,2,0:0:0:0:
448,192,38537,128,4,39092:0:0:0:0:
64,192,39092,1,8,0:0:0:0:
320,192,39648,1,2,0:0:0:0:
192,192,40064,1,0,0:0:0:0:
64,192,40481,1,0,0:0:0:70:Ride.wav
448,192,40759,1,2,0:0:0:0:
64,192,41314,1,8,0:0:0:0:
320,192,41592,1,0,0:0:0:70:Ride.wav
192,192,41870,128,2,42425:0:0:0:0:
320,192,42425,128,8,42981:0:0:0:0:
64,192,42981,128,2,43536:0:0:0:0:
192,192,42981,1,4,0:0:0:0:
448,192,43536,1,8,0:0:0:0:
192,192,44092,1,2,0:0:0:0:
320,192,44508,1,0,0:0:0:0:
448,192,44925,1,0,0:0:0:70:Ride.wav
64,192,45203,1,2,0:0:0:0:
448,192,45758,1,8,0:0:0:0:
192,192,46036,1,0,0:0:0:70:Ride.wav
320,192,46314,128,2,46869:0:0:0:0:
192,192,46869,128,8,47424:0:0:0:0:
320,192,47424,1,2,0:0:0:0:
448,192,47424,128,4,47980:0:0:0:0:
64,192,47980,1,8,0:0:0:0:
320,192,48535,1,2,0:0:0:0:
192,192,48952,1,0,0:0:0:70:Ride.wav
64,192,49369,1,0,0:0:0:70:Ride.wav
448,192,49646,1,2,0:0:0:0:
64,192,50202,1,8,0:0:0:0:
320,192,50480,1,0,0:0:0:0:
192,192,50757,128,2,51313:0:0:0:0:
320,192,51313,128,8,51868:0:0:0:0:
64,192,51868,128,2,52424:0:0:0:0:
192,192,51868,1,4,0:0:0:0:
448,192,52424,1,8,0:0:0:0:
192,192,52979,1,2,0:0:0:0:
320,192,53396,1,0,0:0:0:0:
448,192,53812,1,0,0:0:0:70:hihat2.wav
64,192,54090,1,2,0:0:0:0:
192,192,54646,1,8,0:0:0:0:
448,192,54923,1,8,0:0:0:0:
64,192,55201,1,2,0:0:0:0:
192,192,55479,1,0,0:0:0:50:soft-hitclap.wav
320,192,55757,1,8,0:0:0:0:
192,192,56034,1,0,0:0:0:70:tom04.wav
64,192,56173,1,2,0:0:0:0:
448,192,56173,1,4,0:0:0:0:
