osu file format v14

[General]
AudioFilename: audio.mp3
AudioLeadIn: 0
PreviewTime: 4974
Countdown: 1
SampleSet: None
StackLeniency: 0.7
Mode: 2
LetterboxInBreaks: 0
WidescreenStoryboard: 0

[Editor]
DistanceSpacing: 1.6
BeatDivisor: 4
GridSize: 8
TimelineZoom: 1

[Metadata]
Title:somebody touched the tank engine
TitleUnicode:somebody touched the tank engine
Artist:BagelBoy
ArtistUnicode:BagelBoy
Creator:Olib
Version:spaghet
Source:
Tags:thomas spaghetti LUL nice meme
BeatmapID:1521190
BeatmapSetID:720503

[Difficulty]
HPDrainRate:6
CircleSize:4.5
OverallDifficulty:8.5
ApproachRate:8.5
SliderMultiplier:2.3
SliderTickRate:2

[Events]
//Background and Video events
0,0,"SOMEBODY_TOUCHA_MY_SPAGHET.jpg",0,0
//Break Periods
//Storyboard Layer 0 (Background)
//Storyboard Layer 1 (Fail)
//Storyboard Layer 2 (Pass)
//Storyboard Layer 3 (Foreground)
//Storyboard Sound Samples

[TimingPoints]
158,602.015075376884,4,1,0,40,1,0
4974,-66.6666666666667,4,1,0,70,0,1
21830,-66.6666666666667,4,1,0,70,0,0
24238,-50,4,1,0,100,0,0

[HitObjects]
224,192,158,5,2,0:0:0:0:
400,192,459,2,8,L|472:192,1,57.5
248,320,760,1,2,0:0:0:0:
112,88,1061,1,0,0:0:0:0:
328,88,1362,1,2,0:0:0:0:
128,192,1663,1,0,0:0:0:0:
360,192,1964,1,4,0:0:0:0:
88,304,2265,1,4,0:0:0:0:
288,192,2566,5,2,0:0:0:0:
112,192,2867,2,8,L|40:192,1,57.5
264,320,3168,1,2,0:0:0:0:
424,88,3469,1,0,0:0:0:0:
184,88,3770,1,2,0:0:0:0:
384,192,4071,1,0,0:0:0:0:
152,192,4372,1,4,0:0:0:0:
416,304,4673,1,4,0:0:0:0:
56,80,4974,6,0,L|232:104,1,172.500006580353,2|0,0:0|0:0,0:0:0:0:
56,200,5576,2,0,L|256:224,1,172.500006580353,2|8,0:0|0:0,0:0:0:0:
448,80,6178,2,0,L|264:104,1,172.500006580353,2|0,0:0|0:0,0:0:0:0:
448,240,6780,2,0,B|312:336|240:160|240:160|240:120,1,258.75000987053,2|0,0:0|0:0,0:0:0:0:
464,104,7382,6,0,B|368:56|296:80|296:80,1,172.500006580353,4|0,0:0|0:0,0:0:0:0:
384,176,7833,1,0,0:0:0:0:
480,248,7984,2,0,L|304:216,1,172.500006580353,2|0,0:0|0:0,0:0:0:0:
112,312,8586,2,0,L|304:288,1,172.500006580353,2|0,0:0|0:0,0:0:0:0:
48,80,9188,2,0,L|240:104,1,172.500006580353,2|8,0:0|0:0,0:0:0:0:
472,216,9790,6,0,P|392:296|328:224,1,172.500006580353,2|0,0:0|0:0,0:0:0:0:
176,56,10392,2,0,P|72:104|80:192,1,172.500006580353,2|0,0:0|0:0,0:0:0:0:
344,200,10994,1,8,0:0:0:0:
176,264,11295,2,0,P|88:264|88:264,1,86.2500032901765,8|0,0:0|0:0,0:0:0:0:
304,120,11596,2,0,B|440:32|176:72|176:72,1,172.500006580353,2|8,0:0|0:0,0:0:0:0:
120,72,12047,1,0,0:0:0:0:
392,296,12198,6,0,L|216:264,1,172.500006580353,2|0,0:0|0:0,0:0:0:0:
80,168,12800,2,0,P|256:112|256:112,1,172.500006580353,2|8,0:0|0:0,0:0:0:0:
40,48,13251,2,0,L|136:48,1,86.2500032901765,0|4,0:0|0:0,0:0:0:0:
320,48,13703,1,8,0:0:0:0:
400,200,13853,5,0,0:0:0:0:
160,200,14003,1,4,0:0:0:0:
144,288,14154,1,0,0:0:0:0:
384,288,14304,1,4,0:0:0:0:
432,96,14455,1,0,0:0:0:0:
168,56,14606,6,0,P|56:136|168:296,1,345.000013160706,4|8,0:0|0:0,0:0:0:0:
328,296,15509,1,0,0:0:0:0:
128,184,15810,2,0,L|312:184,1,172.500006580353,2|0,0:0|0:0,0:0:0:0:
216,48,16262,1,0,0:0:0:0:
112,200,16412,5,4,0:0:0:0:
352,200,16562,1,0,0:0:0:0:
232,288,16713,1,4,0:0:0:0:
344,56,17014,6,0,P|456:136|344:296,1,345.000013160706,4|8,0:0|0:0,0:0:0:0:
256,192,17917,1,0,0:0:0:0:
88,80,18218,2,0,L|184:96,1,86.2500032901765,2|0,0:0|0:0,0:0:0:0:
416,88,18519,2,0,P|320:104|320:104,1,86.2500032901765
72,176,18820,2,0,L|184:192,1,86.2500032901765,2|0,0:0|0:0,0:0:0:0:
464,176,19121,2,0,P|360:192|360:192,1,86.2500032901765,0|8,0:0|0:0,0:0:0:0:
144,328,19422,6,0,P|72:272|184:184,1,258.75000987053
384,128,20024,2,0,B|512:80|160:80|160:80,1,258.75000987053,2|0,0:0|0:0,0:0:0:0:
456,336,20626,2,2,P|456:216|280:208,1,258.75000987053
136,104,21228,2,0,P|48:184|168:320,1,258.75000987053,2|0,0:0|0:0,0:0:0:0:
352,104,21830,1,4,0:0:0:0:
256,192,21981,12,0,23486,0:0:0:0:
256,192,23636,5,8,0:0:0:0:
256,192,24238,12,0,24840,0:0:0:0:
256,104,24238,6,14,B|128:80|424:56|392:304|472:32|304:16|296:392|136:64,1,460
