osu file format v14

[General]
AudioFilename: audio.mp3
AudioLeadIn: 0
PreviewTime: 23481
Countdown: 1
SampleSet: None
StackLeniency: 0.7
Mode: 0
LetterboxInBreaks: 0
WidescreenStoryboard: 1

[Editor]
DistanceSpacing: 1.2
BeatDivisor: 2
GridSize: 16
TimelineZoom: 0.7

[Metadata]
Title:Shooting Stars
TitleUnicode:Shooting Stars
Artist:Bag Raiders
ArtistUnicode:Bag Raiders
Creator:Thawker
Version:Easy
Source:
Tags:
BeatmapID:1468850
BeatmapSetID:693917

[Difficulty]
HPDrainRate:3
CircleSize:3
OverallDifficulty:9
ApproachRate:6
SliderMultiplier:1.5
SliderTickRate:1

[Events]
//Background and Video events
0,0,"maxresdefault.jpg",0,0
//Break Periods
2,100001,118431
2,142241,156831
//Storyboard Layer 0 (Background)
//Storyboard Layer 1 (Fail)
//Storyboard Layer 2 (Pass)
//Storyboard Layer 3 (Foreground)
//Storyboard Sound Samples

[TimingPoints]
441,480,4,3,0,75,1,0
23481,-100,4,3,0,100,0,1
54201,-95.2380952380952,4,3,0,100,0,1
73401,-90.9090909090909,4,3,0,100,0,1
84921,-86.9565217391304,4,3,0,100,0,1
100281,-100,4,3,0,100,0,0
119481,-100,4,3,0,15,0,0
121401,-100,4,3,0,20,0,0
123321,-100,4,3,0,25,0,0
125241,-100,4,3,0,30,0,0
127161,-133.333333333333,4,3,0,35,0,0
129081,-133.333333333333,4,3,0,40,0,0
131001,-133.333333333333,4,3,0,45,0,0
132921,-133.333333333333,4,3,0,50,0,0
134841,-133.333333333333,4,3,0,55,0,0
136761,-133.333333333333,4,3,0,60,0,0
161721,-133.333333333333,4,3,0,60,0,1
161961,-133.333333333333,4,3,0,60,0,0

[HitObjects]
160,192,23481,6,4,P|224:32|336:80,1,300,8|4,0:0|0:0,0:0:0:0:
400,224,24921,1,8,0:2:0:0:
224,288,25401,6,4,P|144:160|272:128,1,300,8|4,0:0|0:0,0:0:0:0:
400,160,26841,1,8,0:2:0:0:
416,288,27321,6,4,P|272:368|240:224,1,300,8|4,0:0|0:0,0:0:0:0:
144,176,28761,1,8,0:2:0:0:
256,96,29241,6,4,P|416:128|384:272,1,300,8|4,0:0|0:0,0:0:0:0:
272,224,30681,1,8,0:2:0:0:
160,144,31161,6,4,B|96:48|224:32|432:32,1,300,8|4,0:0|0:0,0:0:0:0:
304,144,32601,1,8,0:2:0:0:
384,256,33081,6,4,P|464:160|368:208,1,300,8|4,0:0|0:0,0:0:0:0:
288,80,34521,1,8,0:2:0:0:
160,176,35001,6,4,B|176:288|256:256|416:240,1,300,8|4,0:0|0:0,0:0:0:0:
352,112,36441,1,8,0:2:0:0:
224,192,36921,6,4,B|96:112|96:112|48:272,1,300,8|4,0:0|0:0,0:0:0:0:
192,336,38361,1,8,0:2:0:0:
256,224,38841,6,4,B|288:144|352:128|384:224|464:96|400:16,1,300,8|4,0:0|0:0,0:0:0:0:
272,80,40281,1,8,0:2:0:0:
160,176,40761,6,4,B|128:64|64:160|144:304|304:272,1,300,8|4,0:0|0:0,0:0:0:0:
256,144,42201,1,8,0:2:0:0:
352,208,42681,6,4,B|416:112|448:224|368:336|208:304,1,300,8|4,0:0|0:0,0:0:0:0:
160,240,44121,1,8,0:2:0:0:
128,112,44601,6,4,B|224:32|288:128|416:144,1,300,8|4,0:0|0:0,0:0:0:0:
448,256,46041,1,8,0:2:0:0:
320,304,46521,6,4,B|272:208|176:256|256:112|336:96|384:80,1,300,8|4,0:0|0:0,0:0:0:0:
224,48,47961,1,8,0:2:0:0:
128,112,48441,6,4,B|96:240|192:192|288:352|320:304,1,300,8|8,0:0|0:0,0:0:0:0:
272,176,49881,1,8,0:2:0:0:
352,80,50361,6,4,B|400:160|464:160|432:256|384:304|288:272,1,300,8|8,0:0|0:0,0:0:0:0:
224,176,51801,1,8,0:2:0:0:
128,64,52281,6,4,B|32:128|48:208|48:208|160:272,1,300,8|12,0:0|0:0,0:0:0:0:
240,144,53721,1,10,0:2:0:0:
352,64,54201,6,4,B|384:176|432:144|416:288|256:320,1,314.999990386963,4|8,0:0|0:0,0:0:0:0:
192,256,55641,1,8,0:2:0:0:
112,176,56121,6,4,P|224:64|240:128,1,314.999990386963,4|8,0:0|0:0,0:0:0:0:
208,208,57561,1,8,0:2:0:0:
288,112,58041,6,4,B|352:208|416:144|416:288|336:320|240:320,1,314.999990386963,4|8,0:0|0:0,0:0:0:0:
192,240,59481,1,8,0:2:0:0:
96,288,59961,6,4,B|48:192|80:144|80:144|192:128|224:32,1,314.999990386963,4|8,0:0|0:0,0:0:0:0:
320,128,61401,1,8,0:2:0:0:
400,224,61881,6,4,B|464:144|432:64|416:32|336:0|288:16,1,314.999990386963,4|8,0:0|0:0,0:0:0:0:
192,112,63321,1,8,0:2:0:0:
96,208,63801,6,4,B|160:288|208:272|288:224|384:144,1,314.999990386963,4|8,0:0|0:0,0:0:0:0:
432,256,65241,1,8,0:2:0:0:
336,336,65721,6,4,B|192:288|256:256|144:192|64:336,1,314.999990386963,4|8,0:0|0:0,0:0:0:0:
128,224,67161,1,8,0:2:0:0:
80,112,67641,6,4,B|144:32|208:96|208:96|322:53|368:112,1,314.999990386963,4|8,0:0|0:0,0:0:0:0:
448,208,69081,1,8,0:2:0:0:
368,304,69561,6,4,B|288:256|240:304|160:272|192:192|272:176|320:160,1,314.999990386963,4|8,0:0|0:0,0:0:0:0:
400,64,71001,1,8,0:2:0:0:
272,96,71481,6,4,B|192:144|144:96|80:160|112:224|192:256|256:256,1,314.999990386963,4|8,0:0|0:0,0:0:0:0:
320,160,72921,1,10,0:2:0:0:
240,128,73401,6,4,B|160:208|208:272|240:304|320:320|384:272,1,330.000010070801,4|8,0:0|0:0,0:0:0:0:
416,192,74841,1,8,0:2:0:0:
400,96,75321,6,4,B|272:96|288:48|208:96|176:160|208:256,1,330.000010070801,4|8,0:0|0:0,0:0:0:0:
288,288,76761,1,8,0:2:0:0:
320,192,77241,6,4,B|432:256|416:304|400:352|368:384|480:336|496:240,1,330.000010070801,4|8,0:0|0:0,0:0:0:0:
496,144,78681,1,8,0:2:0:0:
416,80,79161,6,4,B|352:144|304:96|256:160|272:224|336:288|416:272,1,330.000010070801,4|8,0:0|0:0,0:0:0:0:
480,336,80601,1,8,0:2:0:0:
400,368,81081,6,4,B|304:336|272:288|208:320|192:368|144:384|128:320|128:288|144:256,1,330.000010070801,4|8,0:0|0:0,0:0:0:0:
80,192,82521,1,8,0:2:0:0:
160,128,83001,6,4,B|80:80|176:48|256:64|256:64|304:176|368:144,1,330.000010070801,4|8,0:0|0:0,0:0:0:0:
448,224,84441,1,10,0:2:0:0:
384,272,84921,6,4,B|240:192|176:208|176:320|80:240|128:128,1,345.000006580353,4|8,0:0|0:0,0:0:0:0:
176,112,86361,1,8,0:2:0:0:
256,112,86841,6,4,B|288:32|336:112|336:240|400:96|416:32|448:192|432:320|400:336,1,345.000006580353,4|8,0:0|0:0,0:0:0:0:
352,256,88281,1,8,0:2:0:0:
288,304,88761,6,4,B|224:224|160:304|160:192|256:112|320:112|384:144,1,345.000006580353,4|8,0:0|0:0,0:0:0:0:
448,112,90201,1,8,0:2:0:0:
480,32,90681,6,4,B|320:32|288:96|288:96|336:176|304:240,1,345.000006580353,4|8,0:0|0:0,0:0:0:0:
384,256,92121,1,8,0:2:0:0:
400,336,92601,6,4,B|304:368|288:320|224:368|128:352|160:288|288:240,1,345.000006580353,4|8,0:0|0:0,0:0:0:0:
240,176,94041,1,8,0:2:0:0:
176,224,94521,6,4,B|80:256|80:128|144:48|160:128|240:48|304:16,1,345.000006580353,4|8,0:0|0:0,0:0:0:0:
352,80,95961,1,8,0:2:0:0:
432,80,96441,6,4,B|416:176|304:224|448:256|448:320|288:336,1,345.000006580353,4|8,0:0|0:0,0:0:0:0:
272,256,97881,1,8,0:2:0:0:
192,272,98361,6,4,B|112:304|112:192|112:192|48:96|224:64,1,345.000006580353,4|8,0:0|0:0,0:0:0:0:
288,96,99801,1,10,0:2:0:0:
208,176,119481,6,8,B|160:112|240:128|224:96|320:128|320:80|368:128|384:208|432:112,1,300
464,240,120921,1,4,0:0:0:0:
384,320,121401,6,8,B|288:256|272:320|256:224|256:176|192:256|192:208|240:128|240:112,1,300
352,128,122841,1,4,0:0:0:0:
448,208,123321,6,8,B|464:112|400:64|464:32|304:48|240:80|224:96,1,300
176,32,124761,1,4,0:0:0:0:
96,112,125241,6,8,B|128:208|80:224|192:224|144:304|256:304|320:224,1,300
288,144,126681,1,4,0:0:0:0:
384,192,127161,6,8,B|448:288|432:288|448:352|400:384|368:368,1,225.000008583069
368,272,128601,1,4,0:0:0:0:
432,192,129081,6,8,B|480:128|336:96|384:64|256:64,1,225.000008583069
208,144,130521,1,4,0:0:0:0:
128,80,131001,6,8,B|64:160|16:224|112:272|64:272|48:336,1,225.000008583069
160,320,132441,1,4,0:0:0:0:
128,224,132921,6,8,B|208:160|224:224|272:160|288:256|288:336|272:288,1,225.000008583069
352,208,134361,1,4,0:0:0:0:
432,272,134841,6,8,B|480:144|336:96|432:80,1,225.000008583069
480,176,136281,1,4,0:0:0:0:
480,288,136761,6,8,B|416:272|400:320|384:352|288:320|320:256|336:224,1,225.000008583069
272,144,138201,1,4,0:0:0:0:
192,64,138681,6,8,B|112:128|176:160|80:240|128:288,1,225.000008583069
224,224,140121,1,4,0:0:0:0:
320,224,140601,6,8,B|368:304|448:256|448:256|432:112|416:192,1,225.000008583069
368,112,142041,1,4,0:0:0:0:
256,192,157881,12,14,161721,0:0:0:0:
