osu file format v14

[General]
AudioFilename: audio.mp3
AudioLeadIn: 0
PreviewTime: 23481
Countdown: 1
SampleSet: Soft
StackLeniency: 0.7
Mode: 0
LetterboxInBreaks: 0
WidescreenStoryboard: 1

[Editor]
DistanceSpacing: 1.2
BeatDivisor: 2
GridSize: 16
TimelineZoom: 0.5

[Metadata]
Title:Shooting Stars
TitleUnicode:Shooting Stars
Artist:Bag Raiders
ArtistUnicode:Bag Raiders
Creator:Thawker
Version:Normal
Source:
Tags:
BeatmapID:1468240
BeatmapSetID:693917

[Difficulty]
HPDrainRate:3
CircleSize:3
OverallDifficulty:9
ApproachRate:6
SliderMultiplier:1.5
SliderTickRate:1

[Events]
//Background and Video events
0,0,"maxresdefault.jpg",0,0
//Break Periods
2,100001,118431
//Storyboard Layer 0 (Background)
//Storyboard Layer 1 (Fail)
//Storyboard Layer 2 (Pass)
//Storyboard Layer 3 (Foreground)
//Storyboard Sound Samples

[TimingPoints]
441,480,4,2,0,75,1,0
23481,-100,4,2,0,100,0,1
54201,-95.2380952380952,4,2,0,100,0,1
73401,-90.9090909090909,4,2,0,100,0,1
84921,-86.9565217391304,4,2,0,100,0,1
100281,-100,4,2,0,100,0,0
119481,-100,4,2,0,15,0,0
121401,-100,4,2,0,20,0,0
123321,-100,4,2,0,25,0,0
125241,-100,4,2,0,30,0,0
127161,-133.333333333333,4,2,0,35,0,0
129081,-133.333333333333,4,2,0,40,0,0
131001,-133.333333333333,4,2,0,45,0,0
132921,-133.333333333333,4,2,0,50,0,0
134841,-133.333333333333,4,2,0,55,0,0
136761,-133.333333333333,4,2,0,60,0,0
161721,-133.333333333333,4,2,0,100,0,1
207801,-133.333333333333,4,2,0,100,0,0

[HitObjects]
144,208,23481,6,0,P|144:128|208:160,1,150,8|8,0:3|0:0,0:0:0:0:
320,128,24441,1,4,0:3:0:0:
400,224,24921,1,8,0:0:0:0:
288,320,25401,6,0,P|240:320|272:240,1,150,8|8,0:3|0:0,0:0:0:0:
192,112,26361,2,0,P|272:64|320:80,1,150,4|8,0:3|0:0,0:0:0:0:
336,208,27321,6,0,P|416:256|448:224,1,150,8|8,0:3|0:0,0:0:0:0:
352,144,28281,1,4,0:3:0:0:
432,32,28761,1,8,0:0:0:0:
304,64,29241,6,0,P|288:128|384:160,1,150,8|8,0:3|0:0,0:0:0:0:
400,288,30201,1,4,0:3:0:0:
272,192,30681,1,8,0:0:0:0:
144,288,31161,6,0,P|80:256|96:160,1,150,8|8,0:3|0:0,0:0:0:0:
176,96,32121,2,0,B|272:96|272:96|352:64,1,150,4|8,0:3|0:0,0:0:0:0:
416,192,33081,6,0,B|368:272|352:272|432:336,1,150,8|8,0:3|0:0,0:0:0:0:
288,272,34041,1,4,0:3:0:0:
160,352,34521,1,8,0:0:0:0:
64,288,35001,6,0,P|128:224|96:176,1,150,8|8,0:3|0:0,0:0:0:0:
16,96,35961,1,4,0:3:0:0:
144,48,36441,1,8,0:0:0:0:
256,112,36921,6,0,P|320:176|416:160,1,150,8|8,0:3|0:0,0:0:0:0:
272,272,37881,2,0,P|256:320|192:304,2,75,4|0|8,0:3|0:0|0:0,0:0:0:0:
128,240,38841,6,0,P|64:160|128:96,1,150,8|8,0:3|0:0,0:0:0:0:
176,48,39801,2,0,P|240:112|320:80,1,150,4|8,0:3|0:0,0:0:0:0:
384,192,40761,6,0,P|432:288|384:320,1,150,8|8,0:3|0:0,0:0:0:0:
288,240,41721,1,4,0:3:0:0:
368,112,42201,1,8,0:0:0:0:
256,48,42681,6,0,P|176:112|208:176,1,150,8|8,0:3|0:0,0:0:0:0:
304,272,43641,1,4,0:3:0:0:
288,128,44121,1,8,0:0:0:0:
176,272,44601,6,0,P|224:320|304:304,1,150,8|8,0:3|0:0,0:0:0:0:
256,160,45561,1,4,0:3:0:0:
384,240,46041,1,8,0:0:0:0:
336,112,46521,6,0,P|272:80|272:144,1,150,8|8,0:3|0:0,0:0:0:0:
176,240,47481,2,0,P|224:320|288:320,1,150,4|8,0:3|0:0,0:0:0:0:
272,192,48441,6,0,P|256:96|272:96,1,150,8|8,0:3|0:0,0:0:0:0:
368,176,49401,1,4,0:3:0:0:
304,48,49881,1,8,0:0:0:0:
240,176,50361,6,0,P|144:144|144:208,1,150,8|8,0:3|0:0,0:0:0:0:
208,272,51321,1,4,0:3:0:0:
304,176,51801,1,8,0:0:0:0:
384,288,52281,6,0,P|448:224|416:176,1,150,8|8,0:3|0:0,0:0:0:0:
320,80,53241,2,0,P|272:112|272:144,2,75,4|0|8,0:3|0:0|0:0,0:0:0:0:
304,208,54201,6,0,P|224:256|288:304,1,157.499995193482,8|8,0:3|0:0,0:0:0:0:
368,256,55161,1,4,0:3:0:0:
304,144,55641,1,8,0:0:0:0:
224,224,56121,6,0,P|144:192|144:256,1,157.499995193482,8|8,0:3|0:0,0:0:0:0:
208,336,57081,1,4,0:3:0:0:
336,304,57561,1,8,0:0:0:0:
448,240,58041,6,0,P|480:176|416:112,1,157.499995193482,8|8,0:3|0:0,0:0:0:0:
320,192,59001,1,4,0:3:0:0:
208,112,59481,1,8,0:0:0:0:
128,224,59961,6,0,P|176:288|256:272,1,157.499995193482,8|8,0:3|0:0,0:0:0:0:
192,144,60921,2,0,P|224:112|272:96,2,78.7499975967408,4|0|8,0:3|0:0|0:0,0:0:0:0:
240,272,61881,6,0,P|304:304|352:240,1,157.499995193482,8|8,0:3|0:0,0:3:0:0:
288,128,62841,1,4,0:3:0:0:
400,48,63321,1,8,0:0:0:0:
448,176,63801,6,0,P|384:224|416:288,1,157.499995193482,8|8,0:3|0:0,0:0:0:0:
272,336,64761,1,4,0:3:0:0:
192,224,65241,1,8,0:0:0:0:
320,176,65721,6,0,P|368:160|320:96,1,157.499995193482,8|8,0:3|0:0,0:0:0:0:
224,176,66681,1,4,0:3:0:0:
336,256,67161,1,8,0:0:0:0:
448,192,67641,6,0,P|480:112|432:64,1,157.499995193482,8|8,0:3|0:0,0:0:0:0:
320,32,68601,2,0,P|256:48|240:64,2,78.7499975967408,4|0|8,0:3|0:0|0:0,0:0:0:0:
384,144,69561,6,0,P|432:176|432:272,1,157.499995193482,8|8,0:3|0:0,0:0:0:0:
304,336,70521,2,0,P|240:288|304:208,1,157.499995193482,4|8,0:3|0:0,0:0:0:0:
384,160,71481,6,0,P|400:64|352:64,1,157.499995193482,8|8,0:3|0:0,0:0:0:0:
240,64,72441,1,4,0:3:0:0:
176,176,72921,1,8,0:0:0:0:
272,240,73401,6,0,P|336:288|384:208,1,165.000005035401,8|8,0:3|0:0,0:0:0:0:
464,160,74361,1,4,0:3:0:0:
400,64,74841,1,8,0:0:0:0:
304,128,75321,6,0,P|240:96|224:176,1,165.000005035401,8|8,0:3|0:0,0:0:0:0:
304,256,76281,2,0,P|400:224|384:160,1,165.000005035401,4|8,0:3|0:0,0:0:0:0:
463,95,77241,6,0,P|383:31|319:79,1,165.000005035401,8|8,0:3|0:0,0:0:0:0:
384,160,78201,1,4,0:3:0:0:
439,260,78681,1,8,0:0:0:0:
352,336,79161,6,0,P|304:336|336:240,1,165.000005035401,8|8,0:3|0:0,0:0:0:0:
400,192,80121,2,0,P|464:128|384:96,1,165.000005035401,4|8,0:3|0:0,0:0:0:0:
336,32,81081,6,0,P|256:64|288:128,1,165.000005035401,8|8,0:3|0:0,0:0:0:0:
368,192,82041,1,4,0:3:0:0:
272,272,82521,1,8,0:0:0:0:
208,176,83001,6,0,P|112:208|144:288,1,165.000005035401,8|8,0:3|0:0,0:0:0:0:
224,240,83961,2,0,P|240:192|288:160,2,82.5000025177003,4|0|8,0:3|0:0|0:0,0:0:0:0:
304,304,84921,6,0,P|352:224|416:256,1,172.500003290176,8|8,0:3|0:0,0:0:0:0:
368,160,85881,1,4,0:3:0:0:
336,64,86361,1,8,0:0:0:0:
288,160,86841,6,0,P|352:224|416:192,1,172.500003290176,8|8,0:3|0:0,0:0:0:0:
400,96,87801,2,0,P|352:64|288:144,1,172.500003290176,4|8,0:3|0:0,0:0:0:0:
368,208,88761,6,0,P|416:256|336:304,1,172.500003290176,8|8,0:3|0:0,0:0:0:0:
272,272,89721,1,4,0:3:0:0:
256,176,90201,1,8,0:0:0:0:
320,112,90681,6,0,P|368:192|416:160,1,172.500003290176,8|8,0:3|0:0,0:0:0:0:
368,80,91641,2,0,P|448:32|464:96,1,172.500003290176,4|8,0:3|0:0,0:0:0:0:
416,160,92601,6,0,P|464:224|400:288,1,172.500003290176,8|8,0:3|0:0,0:0:0:0:
368,208,93561,2,0,P|272:192|272:256,1,172.500003290176,4|8,0:3|0:0,0:0:0:0:
336,304,94521,6,0,P|384:288|336:208,1,172.500003290176,8|8,0:3|0:0,0:0:0:0:
320,112,95481,1,4,0:3:0:0:
224,112,95961,1,8,0:0:0:0:
144,64,96441,6,0,P|112:144|160:208,1,172.500003290176,8|8,0:3|0:0,0:0:0:0:
240,160,97401,1,4,0:3:0:0:
320,208,97881,1,8,0:0:0:0:
352,112,98361,6,0,P|416:176|464:128,1,172.500003290176,8|8,0:3|0:0,0:0:0:0:
432,48,99321,2,0,P|385:26|320:32,2,86.2500016450882,4|0|8,0:3|0:0|0:0,0:0:0:0:
336,256,119481,6,0,P|416:176|368:144,1,150,8|8,0:3|0:3,0:0:0:0:
320,96,120441,2,0,P|224:128|240:176,1,150,4|8,0:3|0:3,0:0:0:0:
208,272,121401,6,0,P|272:336|304:304,1,150,8|8,0:3|0:3,0:0:0:0:
352,208,122361,2,0,P|432:224|416:288,1,150,4|8,0:3|0:3,0:0:0:0:
464,160,123321,6,0,P|496:80|432:80,1,150,8|8,0:3|0:3,0:0:0:0:
336,80,124281,2,0,P|288:144|240:96,1,150,4|8,0:3|0:3,0:0:0:0:
144,32,125241,6,0,P|64:80|80:128,1,150,8|8,0:3|0:3,0:0:0:0:
192,176,126201,2,0,P|224:256|176:256,1,150,4|8,0:3|0:3,0:0:0:0:
304,336,127161,6,0,P|368:288|352:256,1,112.500004291535,8|8,0:3|0:3,0:0:0:0:
352,144,128121,2,0,P|400:96|432:160,1,112.500004291535,4|8,0:3|0:3,0:0:0:0:
480,224,129081,6,0,P|496:288|464:304,1,112.500004291535,8|8,0:3|0:3,0:0:0:0:
336,352,130041,2,0,P|272:368|240:336,1,112.500004291535,4|8,0:3|0:3,0:0:0:0:
160,240,131001,6,0,P|112:208|128:144,1,112.500004291535,8|8,0:3|0:3,0:0:0:0:
223,96,131961,2,0,P|281:96|287:16,1,112.500004291535,4|8,0:3|0:3,0:0:0:0:
400,144,132921,6,0,P|384:224|432:256,1,112.500004291535,8|8,0:3|0:3,0:0:0:0:
480,352,133881,2,0,P|400:368|336:336,1,112.500004291535,4|8,0:3|0:3,0:0:0:0:
320,256,134841,6,0,P|368:208|352:144,1,112.500004291535,8|8,0:3|0:3,0:0:0:0:
272,80,135801,2,0,P|336:48|400:96,1,112.500004291535,4|8,0:3|0:3,0:0:0:0:
448,160,136761,6,0,P|480:224|448:256,1,112.500004291535,8|8,0:3|0:3,0:0:0:0:
352,336,137721,2,0,P|288:320|272:256,1,112.500004291535,4|8,0:3|0:3,0:0:0:0:
352,192,138681,6,0,P|384:128|336:96,1,112.500004291535,8|8,0:3|0:3,0:0:0:0:
256,128,139641,2,0,P|208:80|128:96,1,112.500004291535,4|8,0:3|0:3,0:0:0:0:
80,144,140601,6,0,P|96:224|160:240,1,112.500004291535,8|8,0:3|0:3,0:0:0:0:
224,176,141561,2,0,P|256:192|288:256,2,56.2500021457673,4|0|8,0:3|0:0|0:3,0:0:0:0:
224,64,142521,6,0,P|288:32|320:48,1,112.500004291535,8|8,0:3|0:3,0:0:0:0:
400,128,143481,2,0,P|432:176|416:224,1,112.500004291535,4|8,0:3|0:3,0:0:0:0:
320,288,144441,6,0,P|256:240|240:288,1,112.500004291535,8|8,0:3|0:3,0:0:0:0:
160,176,145401,2,0,P|160:112|192:80,1,112.500004291535,4|8,0:3|0:3,0:0:0:0:
304,112,146361,6,0,P|320:48|352:80,1,112.500004291535,8|8,0:3|0:3,0:0:0:0:
432,128,147321,2,0,P|464:208|432:240,1,112.500004291535,4|8,0:3|0:3,0:0:0:0:
368,304,148281,6,0,P|320:352|272:336,1,112.500004291535,8|8,0:3|0:3,0:0:0:0:
256,240,149241,2,0,P|288:224|320:192,2,56.2500021457673,4|0|8,0:3|0:0|0:3,0:0:0:0:
160,192,150201,6,0,P|96:160|64:192,1,112.500004291535,8|8,0:3|0:3,0:0:0:0:
32,288,151161,2,0,P|48:352|96:368,1,112.500004291535,4|8,0:3|0:3,0:0:0:0:
144,272,152121,6,0,P|176:224|224:272,1,112.500004291535,8|8,0:3|0:3,0:0:0:0:
320,320,153081,2,0,P|384:288|384:240,1,112.500004291535,4|8,0:3|0:3,0:0:0:0:
320,144,154041,6,0,P|352:80|416:112,1,112.500004291535,8|8,0:3|0:3,0:0:0:0:
480,144,155001,2,0,P|464:224|432:240,1,112.500004291535,4|8,0:3|0:3,0:0:0:0:
352,320,155961,6,0,P|288:320|272:272,1,112.500004291535,8|8,0:3|0:3,0:0:0:0:
352,192,156921,2,0,P|384:128|368:80,1,112.500004291535,4|8,0:3|0:3,0:0:0:0:
192,240,161721,6,0,P|128:160|144:112,1,112.500004291535,8|8,0:3|0:0,0:0:0:0:
208,80,162681,1,4,0:3:0:0:
288,144,163161,1,8,0:0:0:0:
384,96,163641,6,0,P|432:160|480:128,1,112.500004291535,8|8,0:3|0:0,0:0:0:0:
496,256,164601,1,4,0:3:0:0:
416,336,165081,1,8,0:0:0:0:
336,256,165561,6,0,P|288:224|320:160,1,112.500004291535,8|8,0:3|0:0,0:0:0:0:
384,112,166521,1,4,0:3:0:0:
304,32,167001,1,8,0:0:0:0:
208,80,167481,6,0,P|176:144|224:160,1,112.500004291535,8|8,0:3|0:0,0:0:0:0:
288,224,168441,1,4,0:3:0:0:
368,144,168921,1,8,0:0:0:0:
448,208,169401,6,0,P|480:256|464:304,1,112.500004291535,8|8,0:3|0:0,0:0:0:0:
368,368,170361,1,4,0:3:0:0:
288,288,170841,1,8,0:0:0:0:
352,192,171321,6,0,P|400:144|384:112,1,112.500004291535,8|8,0:3|0:0,0:0:0:0:
320,32,172281,1,4,0:3:0:0:
240,112,172761,1,8,0:0:0:0:
304,192,173241,6,0,P|320:256|272:288,1,112.500004291535,8|8,0:3|0:0,0:0:0:0:
192,336,174201,1,4,0:3:0:0:
112,256,174681,1,8,0:0:0:0:
176,160,175161,6,0,P|128:96|160:64,1,112.500004291535,8|8,0:3|0:0,0:0:0:0:
256,96,176121,1,4,0:3:0:0:
352,32,176601,1,8,0:0:0:0:
432,96,177081,6,0,P|448:160|432:208,1,112.500004291535,8|8,0:3|0:0,0:0:0:0:
352,288,178041,1,4,0:3:0:0:
448,352,178521,1,8,0:0:0:0:
496,240,179001,6,0,P|464:176|400:176,1,112.500004291535,8|8,0:3|0:0,0:0:0:0:
352,256,179961,1,4,0:3:0:0:
272,160,180441,1,8,0:0:0:0:
208,64,180921,6,0,P|256:32|320:32,1,112.500004291535,8|8,0:3|0:0,0:0:0:0:
400,96,181881,1,8,0:3:0:0:
448,192,182361,1,8,0:0:0:0:
384,288,182841,6,0,P|336:336|288:336,1,112.500004291535,8|8,0:3|0:0,0:0:0:0:
240,240,183801,1,4,0:3:0:0:
320,144,184281,1,8,0:0:0:0:
256,48,184761,6,0,P|176:32|128:64,1,112.500004291535,8|8,0:3|0:0,0:0:0:0:
208,144,185721,1,4,0:3:0:0:
320,96,186201,1,8,0:0:0:0:
400,176,186681,6,0,P|432:256|416:288,1,112.500004291535,8|8,0:3|0:0,0:0:0:0:
336,352,187641,1,4,0:3:0:0:
240,272,188121,1,8,0:0:0:0:
160,192,188601,6,0,P|112:240|48:208,1,112.500004291535,8|8,0:3|0:0,0:0:0:0:
32,112,189561,1,4,0:3:0:0:
128,48,190041,1,8,0:0:0:0:
208,112,190521,6,0,P|272:160|320:128,1,112.500004291535,8|8,0:3|0:0,0:0:0:0:
384,80,191481,1,4,0:3:0:0:
464,160,191961,1,8,0:0:0:0:
384,256,192441,6,0,P|320:288|336:336,1,112.500004291535,8|8,0:3|0:0,0:0:0:0:
432,320,193401,1,4,0:3:0:0:
496,224,193881,1,8,0:0:0:0:
432,128,194361,6,0,P|384:80|336:112,1,112.500004291535,8|8,0:3|0:0,0:0:0:0:
368,208,195321,1,4,0:3:0:0:
272,272,195801,1,8,0:0:0:0:
192,192,196281,6,0,P|208:128|160:80,1,112.500004291535,8|8,0:3|0:0,0:0:0:0:
112,160,197241,1,4,0:3:0:0:
96,272,197721,1,8,0:0:0:0:
192,336,198201,6,0,P|256:288|256:256,1,112.500004291535,8|8,0:3|0:0,0:0:0:0:
208,160,199161,1,4,0:3:0:0:
288,80,199641,1,8,0:0:0:0:
368,160,200121,6,0,P|416:208|480:176,1,112.500004291535,8|8,0:3|0:0,0:0:0:0:
496,96,201081,1,4,0:3:0:0:
416,0,201561,1,8,0:0:0:0:
320,48,202041,6,0,P|272:80|272:144,1,112.500004291535,8|8,0:3|0:0,0:0:0:0:
352,224,203001,1,4,0:3:0:0:
272,320,203481,1,8,0:0:0:0:
176,256,203961,6,0,P|208:192|192:144,1,112.500004291535,8|8,0:3|0:0,0:0:0:0:
112,80,204921,1,4,0:3:0:0:
32,160,205401,1,8,0:0:0:0:
64,272,205881,6,0,P|96:320|144:304,1,112.500004291535,8|8,0:3|0:0,0:0:0:0:
176,192,206841,1,4,0:3:0:0:
272,256,207321,1,8,0:0:0:0:
304,144,207801,6,0,P|368:96|400:128,1,112.500004291535,8|8,0:3|0:0,0:0:0:0:
448,208,208761,1,4,0:3:0:0:
400,320,209241,1,8,0:0:0:0:
288,272,209721,6,0,P|208:240|208:208,1,112.500004291535,8|8,0:3|0:0,0:0:0:0:
304,160,210681,1,4,0:3:0:0:
208,80,211161,1,8,0:0:0:0:
128,160,211641,6,0,P|96:224|128:256,1,112.500004291535,8|8,0:3|0:0,0:0:0:0:
208,320,212601,1,4,0:3:0:0:
304,256,213081,1,8,0:0:0:0:
320,144,213561,6,0,P|304:80|368:80,1,112.500004291535,8|8,0:3|0:0,0:0:0:0:
416,160,214521,1,4,0:3:0:0:
432,288,215001,1,8,0:0:0:0:
336,352,215481,6,0,P|272:352|240:304,1,112.500004291535,8|8,0:3|0:0,0:0:0:0:
176,224,216441,1,4,0:3:0:0:
240,128,216921,1,8,0:0:0:0:
320,208,217401,6,0,P|368:240|416:192,1,112.500004291535,8|8,0:3|0:0,0:0:0:0:
384,96,218361,1,4,0:3:0:0:
288,32,218841,1,8,0:0:0:0:
192,112,219321,6,0,P|160:160|208:192,1,112.500004291535,8|8,0:3|0:0,0:0:0:0:
288,256,220281,1,4,0:3:0:0:
368,160,220761,1,8,0:0:0:0:
448,224,221241,6,0,P|464:288|448:336,1,112.500004291535,8|8,0:3|0:0,0:0:0:0:
352,256,222201,1,4,0:3:0:0:
256,320,222681,1,8,0:0:0:0:
