osu file format v14

[General]
AudioFilename: audio.mp3
AudioLeadIn: 0
PreviewTime: -1
Countdown: 1
SampleSet: Normal
StackLeniency: 0.7
Mode: 3
LetterboxInBreaks: 0
SpecialStyle: 1
WidescreenStoryboard: 1

[Editor]
DistanceSpacing: 1
BeatDivisor: 4
GridSize: 4
TimelineZoom: 1

[Metadata]
Title:Abhi Toh Party Shuru Hui Hai
TitleUnicode:Abhi Toh Party Shuru Hui Hai
Artist:Badshah & Aastha
ArtistUnicode:Badshah & Aastha
Creator:RaghuGamesHD
Version:Normal
Source:
Tags:Badshah, Aastha, Bollywood, Indian, Party, Dance, Hindi, Desi, Khoobsurat
BeatmapID:2073060
BeatmapSetID:991186

[Difficulty]
HPDrainRate:3
CircleSize:4
OverallDifficulty:2
ApproachRate:5
SliderMultiplier:1.4
SliderTickRate:1

[Events]
//Background and Video events
//Break Periods
2,112390,116760
//Storyboard Layer 0 (Background)
//Storyboard Layer 1 (Fail)
//Storyboard Layer 2 (Pass)
//Storyboard Layer 3 (Foreground)
//Storyboard Sound Samples

[TimingPoints]
270,461.529493087558,4,1,0,50,1,0

[HitObjects]
64,192,270,128,0,962:0:0:0:0:
448,192,962,128,0,1193:0:0:0:0:
64,192,1193,128,0,1885:0:0:0:0:
448,192,1885,128,0,2116:0:0:0:0:
64,192,2116,128,0,2808:0:0:0:0:
448,192,2808,128,0,3039:0:0:0:0:
192,192,3039,128,0,3500:0:0:0:0:
320,192,3500,128,0,3962:0:0:0:0:
64,192,3962,128,0,4654:0:0:0:0:
448,192,4654,128,0,4885:0:0:0:0:
64,192,4885,128,0,5577:0:0:0:0:
448,192,5577,128,0,5808:0:0:0:0:
64,192,5808,128,0,6500:0:0:0:0:
448,192,6500,128,0,6731:0:0:0:0:
192,192,6731,128,0,7192:0:0:0:0:
320,192,7192,128,0,7654:0:0:0:0:
64,192,7654,1,0,0:0:0:0:
448,192,7654,1,0,0:0:0:0:
64,192,8116,1,0,0:0:0:0:
448,192,8116,1,0,0:0:0:0:
64,192,8577,1,0,0:0:0:0:
448,192,8577,1,0,0:0:0:0:
64,192,9039,1,0,0:0:0:0:
448,192,9039,1,0,0:0:0:0:
64,192,9500,1,0,0:0:0:0:
448,192,9500,1,0,0:0:0:0:
64,192,9962,1,0,0:0:0:0:
448,192,9962,1,0,0:0:0:0:
64,192,10423,1,0,0:0:0:0:
448,192,10423,1,0,0:0:0:0:
64,192,10885,1,0,0:0:0:0:
448,192,10885,1,0,0:0:0:0:
192,192,11346,1,0,0:0:0:0:
320,192,11346,1,0,0:0:0:0:
192,192,11808,1,0,0:0:0:0:
320,192,11808,1,0,0:0:0:0:
192,192,12269,1,0,0:0:0:0:
320,192,12269,1,0,0:0:0:0:
192,192,12731,1,0,0:0:0:0:
320,192,12731,1,0,0:0:0:0:
192,192,13192,1,0,0:0:0:0:
320,192,13192,1,0,0:0:0:0:
192,192,13654,1,0,0:0:0:0:
320,192,13654,1,0,0:0:0:0:
192,192,14115,1,0,0:0:0:0:
320,192,14115,1,0,0:0:0:0:
192,192,14577,1,0,0:0:0:0:
320,192,14577,1,0,0:0:0:0:
64,192,15038,1,0,0:0:0:0:
448,192,15038,1,0,0:0:0:0:
64,192,15500,1,0,0:0:0:0:
448,192,15500,1,0,0:0:0:0:
64,192,15962,1,0,0:0:0:0:
448,192,15962,1,0,0:0:0:0:
64,192,16423,1,0,0:0:0:0:
448,192,16423,1,0,0:0:0:0:
64,192,16885,1,0,0:0:0:0:
448,192,16885,1,0,0:0:0:0:
64,192,17346,1,0,0:0:0:0:
448,192,17346,1,0,0:0:0:0:
64,192,17808,1,0,0:0:0:0:
448,192,17808,1,0,0:0:0:0:
64,192,18269,1,0,0:0:0:0:
448,192,18269,1,0,0:0:0:0:
64,192,18731,128,0,19192:0:0:0:0:
192,192,19192,128,0,19654:0:0:0:0:
64,192,19654,128,0,20115:0:0:0:0:
192,192,20115,128,0,20577:0:0:0:0:
64,192,20577,128,0,21038:0:0:0:0:
320,192,21038,128,0,21500:0:0:0:0:
64,192,21500,128,0,21961:0:0:0:0:
320,192,21961,128,0,22423:0:0:0:0:
192,192,22423,1,0,0:0:0:0:
448,192,22423,1,0,0:0:0:0:
192,192,22769,1,0,0:0:0:0:
448,192,22769,1,0,0:0:0:0:
192,192,23115,1,0,0:0:0:0:
448,192,23115,1,0,0:0:0:0:
192,192,23577,1,0,0:0:0:0:
448,192,23577,1,0,0:0:0:0:
192,192,24038,1,0,0:0:0:0:
448,192,24038,1,0,0:0:0:0:
192,192,24269,1,0,0:0:0:0:
448,192,24269,1,0,0:0:0:0:
192,192,24615,1,0,0:0:0:0:
448,192,24615,1,0,0:0:0:0:
192,192,24961,1,0,0:0:0:0:
448,192,24961,1,0,0:0:0:0:
192,192,25423,1,0,0:0:0:0:
448,192,25423,1,0,0:0:0:0:
64,192,26115,1,0,0:0:0:0:
320,192,26115,1,0,0:0:0:0:
64,192,26461,1,0,0:0:0:0:
320,192,26461,1,0,0:0:0:0:
64,192,26807,1,0,0:0:0:0:
320,192,26807,1,0,0:0:0:0:
64,192,27269,1,0,0:0:0:0:
320,192,27269,1,0,0:0:0:0:
64,192,27731,1,0,0:0:0:0:
320,192,27731,1,0,0:0:0:0:
64,192,27961,1,0,0:0:0:0:
320,192,27961,1,0,0:0:0:0:
64,192,28307,1,0,0:0:0:0:
320,192,28307,1,0,0:0:0:0:
64,192,28654,1,0,0:0:0:0:
320,192,28654,1,0,0:0:0:0:
64,192,29115,1,0,0:0:0:0:
320,192,29115,1,0,0:0:0:0:
192,192,29807,1,0,0:0:0:0:
448,192,29807,1,0,0:0:0:0:
192,192,30154,1,0,0:0:0:0:
448,192,30154,1,0,0:0:0:0:
192,192,30500,1,0,0:0:0:0:
448,192,30500,1,0,0:0:0:0:
192,192,30961,1,0,0:0:0:0:
448,192,30961,1,0,0:0:0:0:
192,192,31423,1,0,0:0:0:0:
448,192,31423,1,0,0:0:0:0:
192,192,31654,1,0,0:0:0:0:
448,192,31654,1,0,0:0:0:0:
192,192,32000,1,0,0:0:0:0:
448,192,32000,1,0,0:0:0:0:
192,192,32346,1,0,0:0:0:0:
448,192,32346,1,0,0:0:0:0:
192,192,32807,1,0,0:0:0:0:
448,192,32807,1,0,0:0:0:0:
64,192,33500,1,0,0:0:0:0:
320,192,33500,1,0,0:0:0:0:
64,192,33846,1,0,0:0:0:0:
320,192,33846,1,0,0:0:0:0:
64,192,34192,1,0,0:0:0:0:
320,192,34192,1,0,0:0:0:0:
64,192,34653,1,0,0:0:0:0:
320,192,34653,1,0,0:0:0:0:
64,192,35115,1,0,0:0:0:0:
320,192,35115,1,0,0:0:0:0:
192,192,37192,1,0,0:0:0:0:
320,192,38115,1,0,0:0:0:0:
192,192,39038,1,0,0:0:0:0:
320,192,39500,1,0,0:0:0:0:
192,192,39961,1,0,0:0:0:0:
320,192,40423,1,0,0:0:0:0:
192,192,40884,1,0,0:0:0:0:
320,192,41346,1,0,0:0:0:0:
192,192,41807,1,0,0:0:0:0:
320,192,42269,1,0,0:0:0:0:
64,192,42730,128,0,44576:0:0:0:0:
192,192,44576,128,0,46422:0:0:0:0:
320,192,46422,128,0,48269:0:0:0:0:
448,192,48269,128,0,50115:0:0:0:0:
320,192,51499,128,0,53807:0:0:0:0:
192,192,51499,128,0,53807:0:0:0:0:
64,192,55192,1,0,0:0:0:0:
448,192,55192,1,0,0:0:0:0:
64,192,55422,1,0,0:0:0:0:
448,192,55422,1,0,0:0:0:0:
64,192,55653,128,0,56345:0:0:0:0:
448,192,56345,128,0,56576:0:0:0:0:
64,192,56576,128,0,57268:0:0:0:0:
448,192,57268,128,0,57499:0:0:0:0:
64,192,57499,128,0,58191:0:0:0:0:
448,192,58191,128,0,58422:0:0:0:0:
192,192,58422,128,0,58884:0:0:0:0:
320,192,58884,128,0,59345:0:0:0:0:
64,192,59345,128,0,60038:0:0:0:0:
448,192,60038,128,0,60268:0:0:0:0:
64,192,60268,128,0,60961:0:0:0:0:
448,192,60961,128,0,61191:0:0:0:0:
64,192,61191,128,0,61884:0:0:0:0:
448,192,61884,128,0,62114:0:0:0:0:
192,192,62114,128,0,62576:0:0:0:0:
320,192,62576,128,0,63038:0:0:0:0:
64,192,63038,128,0,63730:0:0:0:0:
448,192,63730,128,0,63961:0:0:0:0:
64,192,63961,128,0,64653:0:0:0:0:
448,192,64653,128,0,64884:0:0:0:0:
64,192,64884,128,0,65576:0:0:0:0:
448,192,65576,128,0,65807:0:0:0:0:
192,192,65807,128,0,66268:0:0:0:0:
320,192,66268,128,0,66730:0:0:0:0:
64,192,66730,128,0,67422:0:0:0:0:
448,192,67422,128,0,67653:0:0:0:0:
64,192,67653,128,0,68345:0:0:0:0:
448,192,68345,128,0,68576:0:0:0:0:
192,192,70422,128,0,71807:0:0:0:0:
448,192,71114,128,0,71807:0:0:0:0:
192,192,72268,128,0,73653:0:0:0:0:
448,192,72960,128,0,73653:0:0:0:0:
64,192,74114,128,0,75499:0:0:0:0:
320,192,74807,128,0,75499:0:0:0:0:
64,192,75960,128,0,77345:0:0:0:0:
320,192,76653,128,0,77345:0:0:0:0:
192,192,77806,1,0,0:0:0:0:
320,192,78730,1,0,0:0:0:0:
192,192,79653,1,0,0:0:0:0:
320,192,80576,1,0,0:0:0:0:
192,192,81499,128,0,83345:0:0:0:0:
320,192,81499,128,0,83345:0:0:0:0:
64,192,84729,1,0,0:0:0:0:
448,192,84729,1,0,0:0:0:0:
64,192,84960,1,0,0:0:0:0:
448,192,84960,1,0,0:0:0:0:
64,192,85191,1,0,0:0:0:0:
448,192,85191,1,0,0:0:0:0:
64,192,85652,1,0,0:0:0:0:
448,192,85652,1,0,0:0:0:0:
64,192,86114,1,0,0:0:0:0:
448,192,86114,1,0,0:0:0:0:
64,192,86576,1,0,0:0:0:0:
448,192,86576,1,0,0:0:0:0:
64,192,87037,1,0,0:0:0:0:
448,192,87037,1,0,0:0:0:0:
64,192,87499,1,0,0:0:0:0:
448,192,87499,1,0,0:0:0:0:
64,192,87960,1,0,0:0:0:0:
448,192,87960,1,0,0:0:0:0:
64,192,88422,1,0,0:0:0:0:
448,192,88422,1,0,0:0:0:0:
192,192,88883,1,0,0:0:0:0:
320,192,88883,1,0,0:0:0:0:
192,192,89345,1,0,0:0:0:0:
320,192,89345,1,0,0:0:0:0:
192,192,89806,1,0,0:0:0:0:
320,192,89806,1,0,0:0:0:0:
192,192,90268,1,0,0:0:0:0:
320,192,90268,1,0,0:0:0:0:
192,192,90729,1,0,0:0:0:0:
320,192,90729,1,0,0:0:0:0:
192,192,91191,1,0,0:0:0:0:
320,192,91191,1,0,0:0:0:0:
192,192,91652,1,0,0:0:0:0:
320,192,91652,1,0,0:0:0:0:
192,192,92114,1,0,0:0:0:0:
320,192,92114,1,0,0:0:0:0:
64,192,92575,1,0,0:0:0:0:
448,192,92575,1,0,0:0:0:0:
64,192,93037,1,0,0:0:0:0:
448,192,93037,1,0,0:0:0:0:
64,192,93498,1,0,0:0:0:0:
448,192,93498,1,0,0:0:0:0:
64,192,93960,1,0,0:0:0:0:
448,192,93960,1,0,0:0:0:0:
64,192,94422,1,0,0:0:0:0:
448,192,94422,1,0,0:0:0:0:
64,192,94883,1,0,0:0:0:0:
448,192,94883,1,0,0:0:0:0:
64,192,95345,1,0,0:0:0:0:
448,192,95345,1,0,0:0:0:0:
64,192,95806,1,0,0:0:0:0:
448,192,95806,1,0,0:0:0:0:
320,192,96268,1,0,0:0:0:0:
192,192,96268,1,0,0:0:0:0:
320,192,96729,1,0,0:0:0:0:
192,192,96729,1,0,0:0:0:0:
320,192,97191,1,0,0:0:0:0:
192,192,97191,1,0,0:0:0:0:
320,192,97652,1,0,0:0:0:0:
192,192,97652,1,0,0:0:0:0:
64,192,99498,1,0,0:0:0:0:
448,192,99498,1,0,0:0:0:0:
64,192,99729,1,0,0:0:0:0:
448,192,99729,1,0,0:0:0:0:
192,192,99960,1,0,0:0:0:0:
448,192,99960,1,0,0:0:0:0:
192,192,100306,1,0,0:0:0:0:
448,192,100306,1,0,0:0:0:0:
192,192,100652,1,0,0:0:0:0:
448,192,100652,1,0,0:0:0:0:
192,192,101114,1,0,0:0:0:0:
448,192,101114,1,0,0:0:0:0:
192,192,101575,1,0,0:0:0:0:
448,192,101575,1,0,0:0:0:0:
192,192,101806,1,0,0:0:0:0:
448,192,101806,1,0,0:0:0:0:
192,192,102152,1,0,0:0:0:0:
448,192,102152,1,0,0:0:0:0:
448,192,102498,1,0,0:0:0:0:
192,192,102498,1,0,0:0:0:0:
192,192,102960,1,0,0:0:0:0:
448,192,102960,1,0,0:0:0:0:
64,192,103652,1,0,0:0:0:0:
320,192,103652,1,0,0:0:0:0:
320,192,103998,1,0,0:0:0:0:
64,192,103998,1,0,0:0:0:0:
64,192,104344,1,0,0:0:0:0:
320,192,104344,1,0,0:0:0:0:
64,192,104806,1,0,0:0:0:0:
320,192,104806,1,0,0:0:0:0:
64,192,105267,1,0,0:0:0:0:
320,192,105267,1,0,0:0:0:0:
64,192,105498,1,0,0:0:0:0:
320,192,105498,1,0,0:0:0:0:
64,192,105844,1,0,0:0:0:0:
320,192,105844,1,0,0:0:0:0:
320,192,106191,1,0,0:0:0:0:
64,192,106191,1,0,0:0:0:0:
64,192,106652,1,0,0:0:0:0:
320,192,106652,1,0,0:0:0:0:
192,192,107344,1,0,0:0:0:0:
448,192,107344,1,0,0:0:0:0:
448,192,107690,1,0,0:0:0:0:
192,192,107690,1,0,0:0:0:0:
192,192,108037,1,0,0:0:0:0:
448,192,108037,1,0,0:0:0:0:
448,192,108498,1,0,0:0:0:0:
192,192,108498,1,0,0:0:0:0:
192,192,108960,1,0,0:0:0:0:
448,192,108960,1,0,0:0:0:0:
192,192,109190,1,0,0:0:0:0:
448,192,109190,1,0,0:0:0:0:
192,192,109537,1,0,0:0:0:0:
448,192,109537,1,0,0:0:0:0:
192,192,109883,1,0,0:0:0:0:
448,192,109883,1,0,0:0:0:0:
192,192,110344,1,0,0:0:0:0:
448,192,110344,1,0,0:0:0:0:
64,192,111037,1,0,0:0:0:0:
320,192,111037,1,0,0:0:0:0:
320,192,111383,1,0,0:0:0:0:
64,192,111383,1,0,0:0:0:0:
64,192,111729,1,0,0:0:0:0:
320,192,111729,1,0,0:0:0:0:
64,192,112190,1,0,0:0:0:0:
320,192,112190,1,0,0:0:0:0:
448,192,117960,5,0,0:0:0:0:
64,192,118190,1,0,0:0:0:0:
320,192,118421,1,0,0:0:0:0:
448,192,121652,1,0,0:0:0:0:
64,192,121883,1,0,0:0:0:0:
192,192,122113,1,0,0:0:0:0:
64,192,123959,1,0,0:0:0:0:
192,192,124421,1,0,0:0:0:0:
320,192,124882,1,0,0:0:0:0:
448,192,125344,1,0,0:0:0:0:
320,192,125806,1,0,0:0:0:0:
320,192,127652,1,0,0:0:0:0:
448,192,128575,1,0,0:0:0:0:
320,192,128805,1,0,0:0:0:0:
64,192,129036,1,0,0:0:0:0:
64,192,129498,1,0,0:0:0:0:
448,192,129498,1,0,0:0:0:0:
64,192,129959,1,0,0:0:0:0:
448,192,129959,1,0,0:0:0:0:
64,192,130421,1,0,0:0:0:0:
448,192,130421,1,0,0:0:0:0:
64,192,130882,1,0,0:0:0:0:
448,192,130882,1,0,0:0:0:0:
64,192,131344,1,0,0:0:0:0:
448,192,131344,1,0,0:0:0:0:
64,192,131805,1,0,0:0:0:0:
448,192,131805,1,0,0:0:0:0:
64,192,132267,1,0,0:0:0:0:
448,192,132267,1,0,0:0:0:0:
64,192,132728,1,0,0:0:0:0:
448,192,132728,1,0,0:0:0:0:
64,192,132959,1,0,0:0:0:0:
448,192,132959,1,0,0:0:0:0:
192,192,133190,1,0,0:0:0:0:
320,192,133190,1,0,0:0:0:0:
192,192,133652,1,0,0:0:0:0:
320,192,133652,1,0,0:0:0:0:
320,192,134113,1,0,0:0:0:0:
192,192,134113,1,0,0:0:0:0:
192,192,134575,1,0,0:0:0:0:
320,192,134575,1,0,0:0:0:0:
192,192,135036,1,0,0:0:0:0:
320,192,135036,1,0,0:0:0:0:
192,192,135498,1,0,0:0:0:0:
320,192,135498,1,0,0:0:0:0:
192,192,135959,1,0,0:0:0:0:
320,192,135959,1,0,0:0:0:0:
192,192,136421,1,0,0:0:0:0:
320,192,136421,1,0,0:0:0:0:
192,192,136651,1,0,0:0:0:0:
320,192,136651,1,0,0:0:0:0:
64,192,136882,1,0,0:0:0:0:
448,192,136882,1,0,0:0:0:0:
64,192,137344,1,0,0:0:0:0:
448,192,137344,1,0,0:0:0:0:
64,192,137805,1,0,0:0:0:0:
448,192,137805,1,0,0:0:0:0:
64,192,138267,1,0,0:0:0:0:
448,192,138267,1,0,0:0:0:0:
64,192,138728,1,0,0:0:0:0:
448,192,138728,1,0,0:0:0:0:
64,192,139190,1,0,0:0:0:0:
448,192,139190,1,0,0:0:0:0:
64,192,139651,1,0,0:0:0:0:
448,192,139651,1,0,0:0:0:0:
64,192,140113,1,0,0:0:0:0:
448,192,140113,1,0,0:0:0:0:
64,192,140344,1,0,0:0:0:0:
448,192,140344,1,0,0:0:0:0:
64,192,140574,128,0,141036:0:0:0:0:
192,192,141036,128,0,141498:0:0:0:0:
64,192,141498,128,0,141959:0:0:0:0:
192,192,141959,128,0,142421:0:0:0:0:
64,192,142421,128,0,142882:0:0:0:0:
320,192,142882,128,0,143344:0:0:0:0:
64,192,143344,128,0,143805:0:0:0:0:
320,192,143805,128,0,144267:0:0:0:0:
320,192,144728,128,0,146113:0:0:0:0:
192,192,144728,128,0,146113:0:0:0:0:
64,192,147497,1,0,0:0:0:0:
448,192,147497,1,0,0:0:0:0:
64,192,147728,1,0,0:0:0:0:
448,192,147728,1,0,0:0:0:0:
64,192,147959,128,0,148651:0:0:0:0:
448,192,148651,128,0,148882:0:0:0:0:
64,192,148882,128,0,149574:0:0:0:0:
448,192,149574,128,0,149805:0:0:0:0:
64,192,149805,128,0,150497:0:0:0:0:
448,192,150497,128,0,150728:0:0:0:0:
192,192,150728,128,0,151190:0:0:0:0:
320,192,151190,128,0,151651:0:0:0:0:
64,192,151651,128,0,152343:0:0:0:0:
448,192,152343,128,0,152574:0:0:0:0:
64,192,152574,128,0,153267:0:0:0:0:
448,192,153267,128,0,153497:0:0:0:0:
64,192,153497,128,0,154190:0:0:0:0:
448,192,154190,128,0,154420:0:0:0:0:
192,192,154420,128,0,154882:0:0:0:0:
320,192,154882,128,0,155343:0:0:0:0:
64,192,155343,128,0,156036:0:0:0:0:
448,192,156036,128,0,156266:0:0:0:0:
64,192,156266,128,0,156959:0:0:0:0:
448,192,156959,128,0,157190:0:0:0:0:
64,192,157190,128,0,157882:0:0:0:0:
448,192,157882,128,0,158113:0:0:0:0:
192,192,158113,128,0,158574:0:0:0:0:
320,192,158574,128,0,159036:0:0:0:0:
64,192,159036,128,0,159728:0:0:0:0:
448,192,159728,128,0,159959:0:0:0:0:
64,192,159959,128,0,160651:0:0:0:0:
448,192,160651,128,0,160882:0:0:0:0:
192,192,162728,1,0,0:0:0:0:
448,192,162728,1,0,0:0:0:0:
192,192,163074,1,0,0:0:0:0:
448,192,163074,1,0,0:0:0:0:
192,192,163420,1,0,0:0:0:0:
448,192,163420,1,0,0:0:0:0:
192,192,163882,1,0,0:0:0:0:
448,192,163882,1,0,0:0:0:0:
192,192,164343,1,0,0:0:0:0:
448,192,164343,1,0,0:0:0:0:
192,192,164574,1,0,0:0:0:0:
448,192,164574,1,0,0:0:0:0:
192,192,164920,1,0,0:0:0:0:
448,192,164920,1,0,0:0:0:0:
192,192,165266,1,0,0:0:0:0:
448,192,165266,1,0,0:0:0:0:
192,192,165728,1,0,0:0:0:0:
448,192,165728,1,0,0:0:0:0:
64,192,166420,1,0,0:0:0:0:
320,192,166420,1,0,0:0:0:0:
64,192,166766,1,0,0:0:0:0:
320,192,166766,1,0,0:0:0:0:
64,192,167112,1,0,0:0:0:0:
320,192,167112,1,0,0:0:0:0:
64,192,167574,1,0,0:0:0:0:
320,192,167574,1,0,0:0:0:0:
64,192,168035,1,0,0:0:0:0:
320,192,168035,1,0,0:0:0:0:
64,192,168266,1,0,0:0:0:0:
320,192,168266,1,0,0:0:0:0:
64,192,168612,1,0,0:0:0:0:
320,192,168612,1,0,0:0:0:0:
64,192,168959,1,0,0:0:0:0:
320,192,168959,1,0,0:0:0:0:
64,192,169420,1,0,0:0:0:0:
320,192,169420,1,0,0:0:0:0:
192,192,170112,1,0,0:0:0:0:
448,192,170112,1,0,0:0:0:0:
192,192,170459,1,0,0:0:0:0:
448,192,170459,1,0,0:0:0:0:
192,192,170805,1,0,0:0:0:0:
448,192,170805,1,0,0:0:0:0:
192,192,171266,1,0,0:0:0:0:
448,192,171266,1,0,0:0:0:0:
192,192,171728,1,0,0:0:0:0:
448,192,171728,1,0,0:0:0:0:
192,192,171958,1,0,0:0:0:0:
448,192,171958,1,0,0:0:0:0:
192,192,172305,1,0,0:0:0:0:
448,192,172305,1,0,0:0:0:0:
192,192,172651,1,0,0:0:0:0:
448,192,172651,1,0,0:0:0:0:
192,192,173112,1,0,0:0:0:0:
448,192,173112,1,0,0:0:0:0:
